#TITLE:pineapple paradise;
#SUBTITLE:;
#ARTIST:Matsuura Aya;
#TITLETRANSLIT:;
#SUBTITLETRANSLIT:;
#ARTISTTRANSLIT:;
#CREDIT:Lisek;
#BANNER:[Friendly Vowels] - pineapple paradise.png;
#BACKGROUND:[Friendly Vowels] - pineapple paradise-bg.png;
#LYRICSPATH:;
#CDTITLE:cdtitle.png;
#MUSIC:[Friendly Vowels] - pineapple paradise.ogg;
#OFFSET:-2.302;
#SAMPLESTART:7.300;
#SAMPLELENGTH:19.700;
#SELECTABLE:YES;
#BPMS:0.000=96.000;
#STOPS:;
#BGCHANGES:;

//---------------dance-single - Lisek----------------
#NOTES:
     dance-single:
     Lisek:
     Hard:
     6:
     0.360,0.348,0.127,0.220,0.059: // measure 1
0000
0000
0000
0000
,  // measure 2
0000
0000
0000
0000
,  // measure 3
1000
0000
0100
0000
1000
0000
0000
0010
0100
0000
0000
0100
0001
0000
0000
0000
,  // measure 4
1000
0000
0001
0000
0100
0010
0000
0000
2000
0000
3000
0000
0001
0000
0000
0000
,  // measure 5
1000
0100
1000
0010
2000
0000
3001
0000
,  // measure 6
0001
0010
0001
0100
0002
0000
1003
0000
,  // measure 7
0001
0000
0010
0000
0100
0000
0000
1000
0100
0000
0000
0010
0001
0000
0000
0000
,  // measure 8
1000
0000
0010
0000
0100
0001
0000
0000
0200
0000
0300
0000
0001
0000
0000
0000
,  // measure 9
1000
0100
0010
0100
2000
0000
3001
0000
,  // measure 10
0001
0010
0100
0010
0002
0000
1003
0000
,  // measure 11
0001
0100
0010
0000
0100
0000
0110
0000
,  // measure 12
1000
0010
0100
0000
0100
0000
0110
0000
,  // measure 13
0002
0000
0023
0000
0130
1000
0100
0000
,  // measure 14
1000
1000
0001
0001
1001
0000
1111
0000
,  // measure 15
1000
0010
0100
0001
0010
0100
1000
0000
,  // measure 16
0001
0000
1000
0000
0010
0100
0000
0000
0010
0000
0000
0000
1001
0000
0000
0000
,  // measure 17
1000
0000
0100
0000
0010
0000
0000
0001
0010
0000
0000
0100
1000
0000
0000
0000
,  // measure 18
0001
0000
0100
0000
0010
0100
0000
0000
0020
0000
0030
0000
0100
0000
0000
0000
,  // measure 19
0001
0010
0001
0100
0002
0000
1003
0000
,  // measure 20
1000
0010
1000
0100
2000
0000
3001
0000
,  // measure 21
1000
0000
0100
0000
0010
0000
0000
0001
0010
0000
0000
0100
0010
0000
0000
0000
,  // measure 22
0001
0000
0100
0000
0010
0100
0000
0000
0020
0000
0030
0000
1000
0000
0000
0000
,  // measure 23
0001
0010
0100
0010
0002
0000
1003
0000
,  // measure 24
1000
0100
0010
0100
2000
0000
3001
0000
,  // measure 25
1000
0100
0010
0000
0001
0000
0011
0000
,  // measure 26
0001
0010
0100
0000
1000
0000
1100
0000
,  // measure 27
2000
0000
3020
0000
0130
0001
1000
0000
,  // measure 28
0001
0001
1000
1000
1001
0000
1111
0000
,  // measure 29
1000
0010
0100
0000
0001
0000
0100
0000
,  // measure 30
0010
1000
0100
0000
0010
0000
0100
0000
,  // measure 31
1000
0100
0010
0000
0100
0000
1000
0000
,  // measure 32
0001
0000
0100
0000
0010
1000
0000
0000
0001
0000
0000
0000
MMMM
0000
0000
0000
,  // measure 33
1000
0010
1000
0000
0001
0000
0100
0000
,  // measure 34
0001
0100
0010
0000
2000
0000
3000
0000
,  // measure 35
0001
0100
0010
1000
0200
0000
1300
0000
,  // measure 36
1000
0010
0100
0001
0200
0000
0301
0000
,  // measure 37
1000
0010
0100
0000
0001
0000
0100
0000
,  // measure 38
0010
1000
0100
0000
2000
0000
3000
0000
,  // measure 39
0001
0100
0010
1000
0020
0000
0130
0000
,  // measure 40
0010
1000
0100
0010
0002
0000
1003
0000
,  // measure 41
1000
0100
0010
0000
0100
0000
0110
0000
,  // measure 42
0001
0010
0100
0000
0010
0000
0110
0000
,  // measure 43
2000
0000
3002
0000
0103
0010
0100
0000
,  // measure 44
0001
0001
1000
1000
1001
0000
1111
0000
,  // measure 45
2000
0000
3200
0000
0310
0001
0010
0000
,  // measure 46
0001
0001
1000
1000
1001
0000
1111
0000
;

//---------------dance-single - Lisek----------------
#NOTES:
     dance-single:
     Lisek:
     Medium:
     4:
     0.294,0.290,0.135,0.085,0.000:
0000
0000
0000
0000
,
0000
0000
0000
0000
,
1000
0100
0010
0000
0001
0000
1000
0000
,
0001
0100
0010
0000
1000
0000
0001
0000
,
1000
0100
1000
0010
1000
0000
0100
0000
,
1000
0010
0100
0010
1000
0000
0100
0000
,
1000
0010
0100
0000
0001
0000
0010
0000
,
0001
0100
0001
0000
1000
0000
0001
0000
,
0100
0010
0100
0001
0100
0000
0010
0000
,
0100
0001
0100
0010
0100
0000
0010
0000
,
0100
0001
1000
0000
0100
0000
1000
0000
,
0010
0100
0001
0000
0100
0000
0010
0000
,
2000
3002
1003
0001
,
1100
0011
0110
1001
,
1000
0010
0100
0000
0010
0000
0100
0000
,
0010
0100
0001
0000
0100
0000
0000
0000
,
0001
0010
0100
0000
1000
0000
0010
0000
,
0100
0001
1000
0000
0001
0000
0100
0000
,
0001
0010
0001
0100
0001
0000
0010
0000
,
0001
0100
0001
0100
0010
0000
0100
0000
,
0010
1000
0100
0000
0010
0000
0001
0000
,
1000
0010
0100
0000
0001
0000
0100
0000
,
0010
0100
0001
0100
0010
0000
0100
0000
,
0010
1000
0010
0100
0010
0000
1000
0000
,
0001
0010
0001
0000
1000
0000
0001
0000
,
0100
0010
1000
0000
0100
0000
0010
0000
,
0002
2003
3010
0100
,
0101
1010
0110
1001
,
1000
0100
1000
0010
,
1000
0100
1000
0010
,
0100
0001
0100
0010
,
1000
0001
1000
0000
0001
0000
0000
0000
,
1000
0100
0010
0000
0001
0000
1000
0000
,
0001
0100
0010
0000
2000
0000
3000
0000
,
0001
0100
0001
0100
0001
0000
0100
0000
,
0010
1000
0010
1000
0010
0000
1000
0000
,
0001
0100
0010
0000
1000
0000
0010
0000
,
1000
0100
0010
0000
0002
0000
0003
0000
,
1000
0100
1000
0100
1000
0000
0100
0000
,
0010
0001
0010
0001
0010
0000
0001
0000
,
1000
0001
0100
0000
0010
0000
0100
0000
,
0010
1000
0100
0000
0010
0000
0100
0000
,
2000
3002
0103
0010
,
1100
0011
0110
1001
,
0002
2003
3010
0100
,
0101
1010
0110
1001
;

//---------------dance-single - Lisek----------------
#NOTES:
     dance-single:
     Lisek:
     Easy:
     2:
     0.164,0.194,0.034,0.169,0.000:
0000
0000
0000
0000
,
0000
0000
0000
0000
,
1000
0010
1000
0001
,
0100
0001
1000
0000
,
0002
0000
0000
0003
,
2000
0000
0000
3000
,
0001
0100
0010
1000
,
0001
0100
0001
0000
,
2000
0000
0000
3000
,
0020
0000
0000
0030
,
1000
0001
1000
0000
,
0001
1000
0001
0000
,
2000
3000
0200
0300
,
1000
0001
1000
1001
,
0001
0000
0100
0000
,
0001
1000
0001
0000
,
1000
0010
1000
0100
,
1000
0010
0100
0000
,
0020
0000
0000
0030
,
0200
0000
0000
0300
,
0001
0010
0001
0100
,
0010
1000
0010
0000
,
2000
0000
0000
3000
,
0002
0000
0000
0003
,
1000
0001
1000
0000
,
0001
1000
0001
0000
,
0200
0300
0020
0030
,
1000
0001
1000
1001
,
0001
0000
0001
0000
,
1000
0000
1000
0000
,
0001
0100
0001
1000
,
0010
0100
0010
0000
,
1000
0001
1000
0010
,
0100
0001
1000
0000
,
0002
0000
0000
0003
,
2000
0000
0000
3000
,
0001
0010
0100
1000
,
0001
1000
0001
0000
,
2000
0000
0000
3000
,
0002
0000
0000
0003
,
1000
0010
1000
0000
,
0001
0100
0001
0000
,
2000
3000
0020
0030
,
0100
0010
0100
0110
,
2000
3000
0002
0003
,
1000
0001
1000
1001
;

//---------------dance-single - Lisek----------------
#NOTES:
     dance-single:
     Lisek:
     Beginner:
     1:
     0.068,0.115,0.000,0.034,0.000:
0000
0000
0000
0000
,
0000
0000
0000
0000
,
1000
0000
0000
0000
,
0001
0000
0000
0000
,
1000
0000
0000
0000
,
1000
0000
0000
0000
,
0001
0000
0000
0000
,
0100
0000
0000
0000
,
0010
0000
0000
0000
,
0010
0000
0000
0000
,
1000
0000
0000
0000
,
0100
0000
0000
0000
,
0020
0000
0030
0000
,
0001
1000
0001
0000
,
1000
0000
0000
0000
,
0010
0000
0000
0000
,
1000
0000
0000
0000
,
0001
0000
0000
0000
,
1000
0000
0000
0000
,
1000
0000
0000
0000
,
0010
0000
0000
0000
,
0100
0000
0000
0000
,
0001
0000
0000
0000
,
0001
0000
0000
0000
,
1000
0000
0000
0000
,
0100
0000
0000
0000
,
2000
0000
3000
0000
,
0001
1000
0001
0000
,
1000
0000
0000
0000
,
0010
0000
0000
0000
,
0100
0000
0000
0000
,
0001
0000
0000
0000
,
1000
0000
0000
0000
,
0010
0000
0000
0000
,
0100
0000
0000
0000
,
0100
0000
0000
0000
,
0001
0000
0000
0000
,
0010
0000
0000
0000
,
0100
0000
0000
0000
,
0100
0000
0000
0000
,
1000
0000
0000
0000
,
0001
0000
0000
0000
,
2000
0000
3000
0000
,
0010
0100
0010
0000
,
0200
0000
0300
0000
,
0010
0100
0010
0000
;

//---------------dance-single - Lisek----------------
#NOTES:
     dance-single:
     Lisek:
     Challenge:
     8:
     0.509,0.523,0.144,0.068,0.673:
0000
0000
0000
0000
,
0000
0000
0000
0000
,
1000
0000
0001
0000
0100
0000
0000
0001
0100
0000
0100
0010
0000
1000
0000
0000
,
0001
0000
0100
0000
0010
1000
0000
0100
0000
0010
0000
0001
0100
0000
0001
0000
,
1000
0100
0010
0100
1000
0010
0100
0001
0100
0010
0M00
0010
1000
0000
0000
0000
,
0100
0010
0001
0010
0100
1000
0010
0100
0001
0100
000M
0100
0001
0000
0000
0000
,
1000
0000
0010
0000
0100
0000
0000
0000
0010
0000
1000
0100
0000
0010
0000
0000
,
0001
0000
0100
0000
0001
0010
0000
0001
0000
1000
0000
0010
1000
0000
0001
0000
,
1000
0100
0010
0001
0100
0010
1000
0010
0100
0010
0M00
0010
0100
0000
0000
0000
,
0001
0100
0010
1000
0100
0010
0001
0010
0100
1000
0M00
1000
0100
0000
0000
0000
,
1000
0000
0010
1000
0000
0001
0100
0010
0100
0001
0000
1000
0001
0000
0000
0000
,
1000
0000
0001
0010
0001
0100
0010
1000
0100
0010
0000
0001
0010
0000
0000
0000
,
0002
0000
0000
0000
0203
0000
0000
0310
1000
0100
0000
0010
0000
0000
0001
0000
,
1001
0010
1001
0010
1001
0000
1111
0000
,
0001
0000
0100
0001
0000
0100
0010
1000
0100
0010
0000
0001
0000
0000
0000
0000
,
1000
0000
0010
0000
0100
0001
0000
0000
1000
0000
0000
0000
1001
0000
0000
0000
,
1000
0000
0010
0000
0100
0000
0000
0010
1000
0000
0100
0010
0000
0001
0000
0000
,
1000
0000
0100
0000
1000
0010
0000
0100
0000
0001
0000
1000
0001
0000
0000
0000
,
1000
0010
0100
0001
0010
0100
1000
0100
0010
0001
00M0
0001
0010
0000
0000
0000
,
0100
1000
0010
0100
0001
0100
0010
1000
0100
1000
0M00
1000
0100
0000
0000
0000
,
1000
0000
0010
0000
0100
0000
0000
0000
0001
0000
0010
0100
0000
1000
0000
0000
,
0001
0000
0100
0000
0010
0100
0000
0001
0000
0100
0000
0010
1000
0000
0000
0000
,
0001
0100
0010
1000
0100
0010
0001
0010
0100
0010
0M00
0010
0100
0000
0000
0000
,
1000
0100
0010
0001
0100
0010
1000
0100
0010
0001
00M0
0001
0010
0000
0000
0000
,
0100
0000
1000
0100
0000
1000
0010
0100
0001
0100
0000
0010
0100
0000
0000
0000
,
0001
0000
0100
0010
1000
0100
0010
0001
1000
0010
0000
1000
0100
0000
0000
0000
,
2000
0000
0000
0000
3002
0000
0000
0103
0010
1000
0000
0100
0000
0000
0000
0000
,
1010
0100
0011
0100
1010
0000
1111
0000
,
1000
0000
0001
0100
0000
0010
0000
1000
0000
0001
0100
0000
0010
0000
1000
0000
,
0001
0000
0010
0100
0000
1000
0000
0100
0000
0010
0001
0000
1000
0000
0001
0000
,
1000
0000
0010
0100
0000
0000
0010
0000
1000
0000
0000
0001
0010
0000
0100
0000
,
1000
0000
0100
0000
0010
0001
0000
0000
1000
0000
0000
0000
MMMM
0000
0000
0000
,
1000
0000
0010
0000
0100
0000
0000
0010
1000
0000
0100
0010
0000
0001
0000
0000
,
1000
0000
0001
0000
0100
0001
0000
0000
1000
0000
0000
0000
0000
0000
0000
0000
,
0001
0000
0100
0000
0001
0000
0010
0000
0001
0100
000M
0100
0001
0000
0000
0000
,
1000
0000
0010
0000
1000
0000
0100
0000
1000
0100
M000
0100
1000
0000
0000
0000
,
0001
0000
0100
0000
0010
0000
0000
0000
1000
0000
0100
0010
0000
0001
0000
0000
,
1000
0000
0010
0000
0100
0010
0000
1000
0000
0001
0000
0100
0001
0000
0000
0000
,
1000
0100
0010
0001
0100
0010
1000
0100
1000
0010
0100
0010
1000
0000
0000
0000
,
0001
0100
0010
1000
0100
0010
0001
0100
0001
0100
0010
1000
0100
0000
0000
0000
,
1000
0000
0100
0010
0000
0100
1000
0100
0010
0001
0000
0100
0010
0000
0000
0000
,
1000
0000
0001
0100
0010
1000
0100
0010
0001
1000
0000
0001
1000
0000
0000
0000
,
0002
0000
0000
0000
0203
0000
0000
0310
1000
0010
0000
0100
0000
0000
0000
0000
,
0011
0010
1100
0100
0011
0000
1111
0000
,
2000
0000
0000
0000
3020
0000
0000
0130
0001
1000
0000
0010
0000
0000
0000
0000
,
1010
0010
0101
0100
1001
0000
1111
0000
;
