#VERSION:0.81;
#TITLE:やがて女はきれいになるだろう;
#SUBTITLE:;
#ARTIST:キャナァーリ倶楽部;
#TITLETRANSLIT:Yagate Onna wa Kirei ni Naru Darou;
#SUBTITLETRANSLIT:;
#ARTISTTRANSLIT:Canary Club;
#GENRE:;
#ORIGIN:;
#CREDIT:;
#BANNER:Yagate Onna wa Kirei ni Naru Darou.png;
#BACKGROUND:Yagate Onna wa Kirei ni Naru Darou-bg.png;
#PREVIEWVID:;
#JACKET:Yagate Onna wa Kirei ni Naru Darou-jacket.png;
#CDIMAGE:;
#DISCIMAGE:;
#LYRICSPATH:;
#CDTITLE:;
#MUSIC:Yagate Onna wa Kirei ni Naru Darou.ogg;
#OFFSET:-0.411;
#SAMPLESTART:63.115;
#SAMPLELENGTH:14.769;
#SELECTABLE:YES;
#DISPLAYBPM:130.000;
#BPMS:0.000=130.000,
32.000=260.000,
36.000=130.000,
96.000=260.000,
100.000=130.000,
117.750=260.000,
119.250=130.000,
121.750=260.000,
123.250=130.000,
125.750=260.000,
127.750=130.000,
232.000=260.000,
235.000=130.000;
#STOPS:32.000=0.231,
33.000=0.231,
34.000=0.115,
34.500=0.115,
35.000=0.231,
96.000=0.231,
97.000=0.231,
98.000=0.231,
99.000=0.231,
117.750=0.115,
118.250=0.115,
118.750=0.115,
121.750=0.115,
122.250=0.115,
122.750=0.115,
125.750=0.115,
126.250=0.115,
126.750=0.115,
127.250=0.115,
232.000=0.231,
233.000=0.231,
234.000=0.115,
234.500=0.115;
#DELAYS:;
#WARPS:;
#TIMESIGNATURES:0.000=4=4;
#TICKCOUNTS:0.000=4;
#COMBOS:0.000=1;
#SPEEDS:0.000=1.000=0.000=0;
#SCROLLS:0.000=1.000;
#FAKES:;
#LABELS:0.000=Song Start;
#BGCHANGES:;
#KEYSOUNDS:;
#ATTACKS:
;

//---------------dance-single - ----------------
#NOTEDATA:;
#CHARTNAME:;
#STEPSTYPE:dance-single;
#DESCRIPTION:;
#CHARTSTYLE:;
#DIFFICULTY:Hard;
#METER:8;
#RADARVALUES:0.588,0.602,0.374,0.365,0.410,379.000,42.000,41.000,0.000,0.000,0.000,0.000,0.000,0.588,0.602,0.374,0.365,0.410,379.000,42.000,41.000,0.000,0.000,0.000,0.000,0.000;
#CREDIT:;
#DISPLAYBPM:130.000;
#NOTES:
0000
0000
0000
0000
,
0000
0000
0000
0000
,
0000
0000
0000
0000
,
0000
0000
0000
0000
,
1000
0000
0010
0000
0100
0010
0100
0000
0001
0100
0001
0000
0010
0001
0010
0000
,
0100
0000
1000
0000
0100
0000
0010
0002
0000
0000
0100
0000
0103
0000
0000
0000
,
0010
0000
0000
0000
0100
0010
0100
0000
0001
0100
0001
0000
0010
0001
0010
0000
,
0100
0000
1000
0000
0010
0000
1000
0002
0000
0000
1000
0000
1003
0000
0000
0000
,
1100
0000
0101
0000
1001
0001
0011
0000
,
0010
0000
0000
0001
0000
0000
0010
0000
0001
0000
0100
0000
1000
0000
0100
0000
,
0002
0000
0000
0023
0000
0000
0230
0000
0000
0000
1300
0000
0010
0000
0100
0000
,
0001
0000
0000
1000
0000
0000
0001
0000
0010
0000
1000
0000
0010
0000
0001
0000
,
2000
0000
0000
3020
0000
0000
0230
0000
0000
0300
0001
0000
0010
0000
0100
1000
,
0010
0000
0100
0000
0010
0000
0000
1000
0000
0000
0100
0000
1000
0000
0010
0100
,
0001
0000
0010
0000
0100
0000
0000
0010
0000
0000
0001
0000
1000
0000
0100
1000
,
0001
0000
0100
0000
0010
0000
0000
0100
0000
0000
0001
0000
1000
0000
0010
1000
,
0100
0000
0010
0000
0100
0000
0000
1000
0000
0000
0001
0000
1000
0001
1000
0000
,
0001
0000
0000
0001
0100
0000
0000
0100
0010
0000
1000
0000
0100
0000
0001
0000
,
0100
0000
0000
0100
1000
0000
0000
1000
0001
0000
0100
0000
0101
0000
0000
0000
,
0001
0000
0000
0001
0010
0000
0000
0010
0100
0000
1000
0000
0010
0000
0001
0000
,
0010
0000
0000
0010
1000
0000
0000
1000
0100
0000
0010
0000
0011
0000
0000
0000
,
0001
0010
0000
0001
0000
0000
0100
0000
0010
0000
1000
0000
0100
0000
0010
0000
,
0200
0000
0000
2300
0000
0000
3020
0000
0000
0130
0010
0000
1000
0000
0001
0000
,
0100
0002
0000
0013
0000
0000
0001
0000
0100
0002
0000
1003
0000
0000
0100
0000
,
1100
1001
0101
1001
,
1000
0000
0000
0000
1010
0000
0000
0000
0010
0100
0000
0001
0000
0000
0010
0000
,
0001
0000
0000
0100
0000
0000
0010
0000
0000
0000
1000
0000
0100
0000
0000
0000
,
0010
0000
0000
0000
0100
0000
1000
0010
0001
0000
0010
0000
0100
0000
0001
0000
,
0010
0000
0000
0010
0000
0000
0100
0000
0000
0100
1000
0000
0010
0000
0100
0001
,
0100
0000
0010
0000
1000
0100
0000
0110
0000
0011
0000
0101
0000
0000
0001
0000
,
0100
0000
0010
0000
1000
0001
0000
0101
0000
1001
0000
1100
0000
0000
0001
0000
,
0100
0000
0010
0000
1000
0001
0000
0011
0000
1001
0000
1010
0000
1001
0000
0000
,
0002
0023
0230
2300
,
3010
0000
0000
0010
0100
0000
0100
0001
0000
0000
1000
0000
0001
0000
0000
0000
,
0021
0130
2100
3010
,
0210
0001
1000
0310
,
0102
1003
1200
0310
,
0011
0000
0000
1001
0000
0000
1010
0000
0000
1001
0000
0000
0011
0000
0010
0001
,
0200
0000
0000
0000
0010
0000
0000
0000
1000
0000
0000
0000
0001
0000
0310
1000
,
0200
0000
0000
0000
0010
0000
0000
0000
0001
0000
0000
0000
1000
0000
0310
0001
,
0020
0000
0032
0000
0103
1000
0100
0001
,
0020
0000
0130
2000
0000
3010
0100
0001
,
2001
0000
0000
0000
3100
0000
0000
0000
0120
0000
0000
0000
0001
0030
0000
0000
,
0012
0100
0010
1003
,
2010
0000
0000
0000
3001
0000
0000
0000
0102
0000
0000
0000
0010
0003
0000
0000
,
0110
0000
0000
0100
1000
0000
0010
0000
0000
0010
0100
0000
0001
0000
0010
0100
,
2000
0000
0000
0000
0010
0000
0000
0000
0100
0000
0000
0000
0001
0000
3001
0100
,
0020
0000
0000
0000
1000
0000
0000
0000
0100
0000
0000
0000
1000
0000
1030
0100
,
0020
0000
0032
0000
1003
0100
0001
0100
,
2000
0000
3010
0200
0000
0301
0010
0001
,
0100
0000
0010
0000
1000
0100
0000
0010
0000
0000
0100
0000
1000
0010
0000
0100
,
0000
0000
0001
0000
0010
0001
0000
0010
0000
0000
0100
0000
1000
0100
0000
1000
,
0000
0000
0010
0000
0100
0010
0000
0100
0000
0000
0001
0000
1000
0001
0000
1000
,
0000
0100
0010
0000
0001
0100
0000
0010
0000
0000
1000
0000
1001
0000
0000
0000
,
0001
0000
0100
0000
0010
1000
0010
0000
1000
0001
1000
0000
0001
0010
0001
0000
,
0010
0000
0100
0000
1000
0000
0001
2000
0000
0000
0001
0000
3001
0000
0000
0000
,
1000
0000
0100
0000
0010
0001
0010
0000
0001
1000
0001
0000
1000
0010
1000
0000
,
0010
0000
0100
0000
0001
0000
0010
0002
0000
0000
1000
0000
1003
0000
0000
0000
,
1010
0000
0011
0000
1001
0001
1001
0000
;

//---------------dance-single - ----------------
#NOTEDATA:;
#CHARTNAME:;
#STEPSTYPE:dance-single;
#DESCRIPTION:;
#CHARTSTYLE:;
#DIFFICULTY:Medium;
#METER:7;
#RADARVALUES:0.441,0.419,0.205,0.419,0.138,276.000,23.000,47.000,0.000,0.000,0.000,0.000,0.000,0.441,0.419,0.205,0.419,0.138,276.000,23.000,47.000,0.000,0.000,0.000,0.000,0.000;
#CREDIT:;
#DISPLAYBPM:130.000;
#NOTES:
// measure 0
0000
0000
0000
0000
,  // measure 1
0000
0000
0000
0000
,  // measure 2
0000
0000
0000
0000
,  // measure 3
0000
0000
0000
0000
,  // measure 4
1000
0000
0010
0100
0001
0100
0001
0010
,  // measure 5
1000
0000
0001
0000
0200
0000
0000
2300
0000
0000
0001
0000
0001
0000
0001
0000
,  // measure 6
3001
0000
1000
0100
0010
0100
0010
0001
,  // measure 7
0100
0000
1000
0000
0002
0000
0000
0023
0000
0000
1000
0000
1030
0000
0000
0000
,  // measure 8
0010
0000
1010
0000
1000
0001
1001
0000
,  // measure 9
2000
0000
0000
3020
0000
0000
0000
0000
0100
0000
0100
0000
0130
0000
0000
0000
,  // measure 10
0002
0000
0000
0023
0000
0000
0230
0000
0000
0000
1300
0000
0100
0000
0000
0000
,  // measure 11
2000
0000
0000
3002
0000
0000
0000
0000
0010
0000
0010
0000
0013
0000
0000
0000
,  // measure 12
0002
0000
0000
0023
0000
0000
0230
0000
0000
0000
1300
0000
0001
0000
1000
0000
,  // measure 13
0020
0000
0000
0000
0100
0000
0000
0100
0000
0000
0100
0000
0000
0000
0100
0000
,  // measure 14
0230
0000
0000
0000
0001
0000
0000
0001
0000
0000
0001
0000
0000
0000
0001
0000
,  // measure 15
0302
0000
0000
0000
0010
0000
0000
0010
0000
0000
0010
0000
0000
0000
0010
0000
,  // measure 16
0023
0000
0000
0000
0100
0000
0000
0100
0000
0000
0100
0000
0130
0000
0000
0000
,  // measure 17
1100
0000
0101
0000
1000
0001
1000
0000
,  // measure 18
1010
0000
0011
0000
0001
1000
1001
0000
,  // measure 19
0110
0000
0110
0000
0001
1000
0001
0000
,  // measure 20
0110
0000
0110
0000
1000
0001
1001
0000
,  // measure 21
2000
0000
0000
3200
0000
0000
0000
0000
0010
0000
0010
0000
0310
0000
0000
0000
,  // measure 22
0020
0000
0000
0032
0000
0000
2003
0000
0000
0000
0010
0000
3010
0000
0000
0000
,  // measure 23
1010
0000
0000
1000
0000
0000
0001
0000
1001
0000
0000
0001
0000
0000
0010
0000
,  // measure 24
0011
0110
1100
1010
,  // measure 25
0010
0100
1000
0100
,  // measure 26
0001
0000
0000
0010
0000
0000
0100
0000
0000
0000
1000
0000
1000
0000
0000
0000
,  // measure 27
0010
0000
0100
0000
0001
0010
1000
0000
,  // measure 28
0010
0000
0000
0010
0000
0000
0001
0000
0000
0001
0000
0000
0100
0000
0010
0000
,  // measure 29
1000
0000
0001
0000
2000
0000
0000
0100
0000
0100
0000
3100
0000
0000
0000
0000
,  // measure 30
0100
0000
0010
0000
0002
0000
0000
0100
0000
0100
0000
0103
0000
0000
0000
0000
,  // measure 31
0100
0000
0010
0000
2000
0000
0000
0001
0000
0001
0000
0001
0000
3001
0000
0000
,  // measure 32
0002
0100
2003
0100
,  // measure 33
3002
0000
0000
0000
1003
0000
0000
2002
0000
0000
0000
0000
3003
0000
0000
0000
,  // measure 34
0002
0010
2003
0010
,  // measure 35
3002
0010
1000
0100
,  // measure 36
0023
0130
0200
1300
,  // measure 37
1000
0000
1000
0010
0000
0010
0100
0100
,  // measure 38
0001
0000
0010
0000
0001
0000
0100
0001
,  // measure 39
1000
0000
0100
0000
1000
0000
0001
0100
,  // measure 40
0010
0000
0110
0000
0100
0010
1000
0000
,  // measure 41
0100
0000
0100
0010
0000
0010
0001
1000
,  // measure 42
0002
0100
0203
0010
,  // measure 43
0320
1000
0001
0100
,  // measure 44
2030
0100
3200
0010
,  // measure 45
0310
0000
0010
0001
0000
0001
1000
1000
,  // measure 46
0020
0000
0001
0000
1000
0000
0100
0100
,  // measure 47
0230
0000
0001
0000
1000
0000
0001
0001
,  // measure 48
0302
0000
0023
0000
0100
0100
0130
0000
,  // measure 49
0100
0000
0100
1000
0000
1000
0000
0001
,  // measure 50
0000
0001
0000
0000
1000
0000
1000
0000
,  // measure 51
0010
0010
0100
0100
,  // measure 52
0001
0001
0010
0010
,  // measure 53
0100
0000
1000
0000
0001
0000
0000
2002
0000
0000
0000
0000
3003
0000
0000
0000
,  // measure 54
1000
0000
0010
0000
0100
0010
0100
0000
,  // measure 55
0001
0000
0000
0000
1000
0000
0000
0100
0000
0000
0010
0000
0010
0000
0000
0000
,  // measure 56
0100
0000
1000
0000
0001
0100
0001
0000
,  // measure 57
1000
0000
0000
0000
0001
0000
0000
0010
0000
0000
0100
0000
1000
0000
0000
0000
,  // measure 58
0010
0000
0110
0000
0100
0001
1001
0000
;

//---------------dance-single - ----------------
#NOTEDATA:;
#CHARTNAME:;
#STEPSTYPE:dance-single;
#DESCRIPTION:;
#CHARTSTYLE:;
#DIFFICULTY:Easy;
#METER:4;
#RADARVALUES:0.214,0.236,0.071,0.045,0.000,155.000,8.000,5.000,0.000,0.000,0.000,0.000,0.000,0.214,0.236,0.071,0.045,0.000,155.000,8.000,5.000,0.000,0.000,0.000,0.000,0.000;
#CREDIT:;
#DISPLAYBPM:130.000;
#NOTES:
0000
0000
0000
0000
,
0000
0000
0000
0000
,
0000
0000
0000
0000
,
0000
0000
0000
0000
,
1000
0010
0100
0001
,
0010
0010
0010
0000
,
0100
1000
0001
0100
,
0010
0010
0010
0000
,
1000
1000
0001
0001
,
1000
0000
0100
0100
,
0020
0000
0000
0000
,
0031
0000
1000
1000
,
0020
0000
0000
0000
,
0130
0100
0100
0000
,
0001
0001
0001
0000
,
1000
1000
1000
0000
,
0100
0100
0100
0000
,
0010
0001
0010
0010
,
0001
1000
1001
0000
,
0001
0100
0001
0001
,
1000
0001
1001
0000
,
1000
0000
0010
0100
,
0001
0001
0001
0000
,
1000
1000
0100
0100
,
0010
0011
0001
1001
,
1000
0000
0001
0001
,
0100
0010
1000
0000
,
0100
0000
0010
0010
,
0001
0000
0000
0000
,
2000
0000
0000
0000
0000
0000
0000
0001
,
3002
0000
0000
0000
0000
0000
0000
1000
,
2003
0000
0000
0000
,
3001
0001
0010
0010
,
0100
1000
1001
0000
,
0001
0000
0001
0000
,
0100
0100
0100
0000
,
0010
0000
0010
0000
,
1000
1000
1000
0000
,
0001
0001
0001
0000
,
0010
0010
0010
0000
,
0100
0000
0100
0000
,
1000
0000
1000
0000
,
0001
0000
0100
0000
,
0001
1000
0001
0000
,
1000
0000
0100
0000
,
1000
0001
1000
0000
,
0010
0100
0110
0000
,
0001
1000
1001
0000
,
0010
0000
0100
0000
,
1000
0000
0001
0000
,
1000
0000
0001
0000
,
0001
0000
0100
0000
,
0100
0000
0010
0000
,
0010
1000
0001
0000
,
0010
0010
0100
0100
,
1000
0001
1000
0000
,
0010
0010
0100
0100
,
0001
1000
0001
0000
,
1000
1000
0001
1001
;

//---------------dance-single - ----------------
#NOTEDATA:;
#CHARTNAME:;
#STEPSTYPE:dance-single;
#DESCRIPTION:;
#CHARTSTYLE:;
#DIFFICULTY:Beginner;
#METER:1;
#RADARVALUES:0.107,0.130,0.000,0.000,0.000,84.000,0.000,0.000,0.000,0.000,0.000,0.000,0.000,0.107,0.130,0.000,0.000,0.000,84.000,0.000,0.000,0.000,0.000,0.000,0.000,0.000;
#CREDIT:;
#DISPLAYBPM:130.000;
#NOTES:
0000
0000
0000
0000
,
0000
0000
0000
0000
,
0000
0000
0000
0000
,
0000
0000
0000
0000
,
1000
0000
0010
0000
,
0100
0000
0000
0000
,
0001
0000
0010
0000
,
0100
0000
0000
0000
,
1000
1000
1000
0000
,
0001
0000
0001
0000
,
0001
0000
0000
0000
,
1000
0000
1000
0000
,
1000
0000
0000
0000
,
0100
0000
0000
0000
,
0010
0000
0000
0000
,
0100
0000
0000
0000
,
0010
0000
0000
0000
,
0001
0000
0001
0000
,
0100
0000
0100
0000
,
0010
0000
0010
0000
,
1000
0000
1000
0000
,
0001
0000
0001
0000
,
0001
0000
0000
0000
,
1000
0000
1000
0000
,
0010
0000
0100
0000
,
0010
0000
0100
0000
,
0001
0000
0000
0000
,
0010
0000
0100
0000
,
1000
0000
0000
0000
,
0001
0000
0000
0000
,
1000
0000
0000
0000
,
0001
0000
0000
0000
,
1000
0000
0010
0000
,
0100
0100
0100
0000
,
0001
0000
0001
0000
,
0010
0000
0010
0000
,
0100
0000
0100
0000
,
1000
0000
0000
0000
,
0001
0000
0000
0000
,
1000
0000
0000
0000
,
0010
0000
0010
0000
,
1000
0000
1000
0000
,
0001
0000
0000
0000
,
1000
0000
0000
0000
,
0100
0000
0000
0000
,
1000
0000
0000
0000
,
0001
0000
0000
0000
,
0010
0000
0000
0000
,
0001
0000
0100
0000
,
0010
0000
1000
0000
,
0001
0000
0000
0000
,
0010
0000
0000
0000
,
0100
0000
0000
0000
,
1000
0000
0000
0000
,
0010
0000
0010
0000
,
0100
0000
0000
0000
,
0001
0000
0001
0000
,
1000
0000
0000
0000
,
0001
0001
0001
0000
;
