#VERSION:0.81;
#TITLE:Vault;
#SUBTITLE:;
#ARTIST:Pendulum;
#TITLETRANSLIT:;
#SUBTITLETRANSLIT:;
#ARTISTTRANSLIT:;
#GENRE:;
#ORIGIN:;
#CREDIT:;
#BANNER:[Friendly Vowels] - Vault.png;
#BACKGROUND:[Friendly Vowels] - Vault-bg.png;
#PREVIEWVID:;
#JACKET:[Friendly Vowels] - Vault-jacket.png;
#CDIMAGE:;
#DISCIMAGE:;
#LYRICSPATH:;
#CDTITLE:cdtitle.png;
#MUSIC:[Friendly Vowels] - Vault.ogg;
#OFFSET:-0.250;
#SAMPLESTART:66.455;
#SAMPLELENGTH:12.000;
#SELECTABLE:YES;
#BPMS:0.000=174.000;
#STOPS:;
#DELAYS:;
#WARPS:;
#TIMESIGNATURES:0.000=4=4;
#TICKCOUNTS:0.000=4;
#COMBOS:0.000=1;
#SPEEDS:0.000=1.000=0.000=0;
#SCROLLS:0.000=1.000;
#FAKES:;
#LABELS:0.000=Song Start;
#BGCHANGES:;
#KEYSOUNDS:;
#ATTACKS:
;

//---------------dance-single - ----------------
#NOTEDATA:;
#CHARTNAME:;
#STEPSTYPE:dance-single;
#DESCRIPTION:;
#CHARTSTYLE:;
#DIFFICULTY:Hard;
#METER:9;
#RADARVALUES:0.665,0.699,0.175,0.225,0.366,511.000,21.000,27.000,0.000,0.000,0.000,0.000,0.000,0.665,0.699,0.175,0.225,0.366,511.000,21.000,27.000,0.000,0.000,0.000,0.000,0.000;
#CREDIT:;
#NOTES:
// measure 0
0000
0000
0000
0000
,  // measure 1
0000
0000
0000
0000
,  // measure 2
0000
0000
0000
0000
,  // measure 3
0000
0000
0000
0000
,  // measure 4
1000
0001
1000
0100
1000
0010
1000
0100
,  // measure 5
1000
0001
1000
0010
1000
0100
1000
0010
,  // measure 6
1000
0001
1000
0100
1000
0010
1000
0100
,  // measure 7
1000
0001
1000
0010
1000
0100
0020
0032
,  // measure 8
0000
0000
0000
0000
,  // measure 9
0000
0000
0000
2003
3020
0230
0302
2003
,  // measure 10
3200
0000
0000
0000
,  // measure 11
0000
0000
0320
0230
2300
3002
0003
0002
,  // measure 12
0203
0000
0000
0000
,  // measure 13
0000
0000
0320
2030
3002
0023
2030
3020
,  // measure 14
0031
0000
0000
0101
0000
0000
1000
0000
0000
1100
0000
0000
0001
0000
0000
0101
,  // measure 15
0000
0000
1000
0000
0000
1010
0000
0000
0001
0000
1000
0100
1000
0000
0010
0000
,  // measure 16
0100
0000
0000
0100
0000
0000
0001
0000
0000
0010
0000
0000
0100
0000
0000
0000
,  // measure 17
1000
0000
1000
0000
0001
0000
0000
0100
0000
0000
0001
0000
0010
0000
0000
0000
,  // measure 18
0100
0000
0000
0100
0000
0000
1000
0000
0000
0010
0000
0000
0100
0000
0000
0000
,  // measure 19
0001
0000
0001
0000
1000
0000
0000
0100
0000
0000
0010
0000
0100
0000
0000
0000
,  // measure 20
1000
1000
1010
0000
0001
0100
0101
0000
,  // measure 21
0001
0001
0011
0000
1000
0100
1100
0000
,  // measure 22
1000
1000
1010
0000
0001
0100
0101
0000
,  // measure 23
0001
0001
0011
0010
0001
0100
1000
0100
,  // measure 24
0001
0000
0000
0001
0000
0000
1000
0000
0000
0100
0000
0000
0010
0000
0000
0100
,  // measure 25
1000
0000
0000
0000
0010
0000
0000
0001
0000
0000
0010
0000
1000
0000
0000
0000
,  // measure 26
0001
0000
0000
0001
0000
0000
0010
0000
0000
0100
0000
0000
1000
0000
0000
0001
,  // measure 27
0100
0000
0000
0000
0010
0000
0000
1000
0000
0000
0200
0000
0000
0000
0000
0000
,  // measure 28
0310
0010
0011
0000
0001
0100
0101
0000
,  // measure 29
0010
0010
1010
0000
1000
0100
1100
0000
,  // measure 30
0010
0010
0011
0000
0001
0100
0101
0000
,  // measure 31
0010
0010
0100
0001
0010
1000
0010
0100
,  // measure 32
1000
0000
0000
1000
0000
0000
0001
0000
0000
0100
0000
0000
0010
0000
0000
1000
,  // measure 33
0100
0000
0000
0000
0010
0000
0000
0010
0000
0000
0001
0000
1000
0000
0000
0000
,  // measure 34
0001
0000
0000
0001
0000
0000
1000
0000
0000
0010
0000
0000
0100
0000
0000
0001
,  // measure 35
0020
0000
0000
0000
,  // measure 36
0130
0000
0000
0100
0000
0000
1000
0000
0000
0001
0000
0000
0100
0000
0000
0010
,  // measure 37
1000
0000
0000
0000
0100
0000
0000
0001
0000
0000
0100
0000
1000
0000
0000
0000
,  // measure 38
0010
0000
0000
0010
0000
0000
1000
0000
0000
0001
0000
0000
0010
0000
0000
0100
,  // measure 39
2000
0000
0000
0000
,  // measure 40
3001
0100
0001
0100
,  // measure 41
0010
1000
0010
1000
,  // measure 42
0001
0010
0001
0010
0100
1000
0100
1000
,  // measure 43
0001
0100
0001
0100
0010
1000
0010
1000
,  // measure 44
0001
0010
0001
0010
0001
1000
0001
1000
0001
0100
0001
0100
0010
1000
0010
2000
,  // measure 45
0002
0000
0000
3003
,  // measure 46
0001
0000
0000
0011
0000
0001
1000
0000
0000
1010
0000
1000
0001
0000
0000
0101
,  // measure 47
0000
0001
1000
0000
0000
1100
0000
1000
0001
0000
1000
0001
1000
0000
0010
0000
,  // measure 48
0100
0000
0001
0000
0010
0000
0100
0000
0010
0001
0010
0000
0001
0000
0000
0000
,  // measure 49
1000
0000
0010
0000
0100
0000
0010
0000
1000
0001
1000
0000
0001
0000
0000
0000
,  // measure 50
1000
0000
0100
0000
0001
0000
0100
0000
1000
0100
1000
0000
0100
0000
0010
0000
,  // measure 51
0001
0000
0100
0000
1000
0000
0100
0000
0001
0100
0001
0000
0100
0000
0000
0000
,  // measure 52
0010
0000
1000
0000
0001
0000
0010
0000
0100
0010
0100
0000
1000
0000
0000
0000
,  // measure 53
0010
0000
0100
0000
0001
0000
1000
0000
0001
0010
0001
0000
0100
0000
0010
0000
,  // measure 54
1000
0100
0001
0100
0010
0100
1000
0001
,  // measure 55
1000
0010
0001
0010
0100
0010
1000
0001
,  // measure 56
1000
0000
0000
1000
0100
0000
0000
0010
0001
0000
0000
0001
0100
0000
0000
0010
,  // measure 57
1000
0000
0000
1000
0001
0000
0000
0010
0100
0000
0000
0100
1000
0000
0000
0001
,  // measure 58
1000
0010
0100
0001
0010
0100
1000
0001
,  // measure 59
0100
0010
1000
0100
0010
0001
0100
0001
,  // measure 60
1000
0100
0000
0000
0010
0000
0001
0000
1000
0010
0000
0000
0100
0000
0001
0000
,  // measure 61
0010
0100
0000
0000
1000
0000
0010
0000
0100
0001
0000
0000
1000
0000
0100
0000
,  // measure 62
1000
0010
0001
0010
1000
0001
0010
0100
,  // measure 63
1000
0010
1000
0100
1000
0010
0100
0001
,  // measure 64
0010
0000
0100
0000
1000
0000
0001
0100
0001
0010
0001
0000
0010
0000
0000
0000
,  // measure 65
0100
0000
1000
0000
0001
0000
0100
0010
1000
0001
1000
0000
0001
0000
0000
0000
,  // measure 66
0010
0000
0001
0000
0100
0000
0010
1000
0001
1000
0001
0000
0010
0000
1000
0000
,  // measure 67
0010
0000
0100
0000
1000
0000
0010
0100
0001
0100
0001
0000
1000
0000
0000
0000
,  // measure 68
0001
0000
0010
0000
0100
0000
1000
0001
0100
0001
0100
0000
0001
0000
0000
0000
,  // measure 69
1000
0000
0100
0000
0010
0000
0001
1000
0010
1000
0010
0000
1000
0000
0001
0000
,  // measure 70
1000
0010
0001
0010
0100
0010
1000
0001
,  // measure 71
1000
0100
0001
0100
0010
0100
1000
0001
,  // measure 72
1000
0010
0100
0000
0001
0000
0010
0000
0100
1000
0001
0000
1000
0000
0010
0000
,  // measure 73
0100
0001
1000
0000
0001
0000
0010
0000
0100
1000
0001
0000
1000
0000
0010
0000
,  // measure 74
1000
0100
0010
0100
1000
0010
0100
0001
,  // measure 75
0010
1000
0010
0001
0100
0010
1000
0000
,  // measure 76
0001
0010
0100
0000
1000
0000
0010
0000
0100
0001
1000
0000
0001
0000
0010
0000
,  // measure 77
0100
1000
0001
0000
1000
0000
0010
0000
0100
0010
1000
0000
0100
0000
0010
0000
,  // measure 78
0002
0000
0000
0000
,  // measure 79
2003
0000
0000
0000
,  // measure 80
3000
0000
0000
0000
;

//---------------dance-single - ----------------
#NOTEDATA:;
#CHARTNAME:;
#STEPSTYPE:dance-single;
#DESCRIPTION:;
#CHARTSTYLE:;
#DIFFICULTY:Medium;
#METER:7;
#RADARVALUES:0.478,0.466,0.117,0.075,0.104,379.000,14.000,9.000,0.000,0.000,0.000,0.000,0.000,0.478,0.466,0.117,0.075,0.104,379.000,14.000,9.000,0.000,0.000,0.000,0.000,0.000;
#CREDIT:;
#NOTES:
// measure 0
0000
0000
0000
0000
,  // measure 1
0000
0000
0000
0000
,  // measure 2
0000
0000
0000
0000
,  // measure 3
0000
0000
0000
0000
,  // measure 4
1000
0100
1000
0000
1000
0001
1000
0000
,  // measure 5
0001
0100
0001
0000
0001
1000
0001
0000
,  // measure 6
1000
0010
1000
0000
1000
0001
1000
0000
,  // measure 7
0001
0010
0001
0000
0001
1000
0001
0200
,  // measure 8
0000
0000
0000
0000
,  // measure 9
0000
0300
0000
0001
1000
0001
0010
0100
,  // measure 10
0020
0000
0000
0000
,  // measure 11
0030
0000
0001
1000
0001
0100
0000
0010
,  // measure 12
2000
0000
0000
0000
,  // measure 13
3000
0000
0001
0100
0001
1000
0001
0000
,  // measure 14
1000
0000
0100
0010
0000
0100
1000
0000
,  // measure 15
0001
1000
0000
0001
0100
1000
0100
0001
,  // measure 16
1000
0000
0000
1000
0000
0000
0100
0000
0000
0010
0000
0000
0001
0000
0000
0000
,  // measure 17
1000
0000
0000
0000
0001
0000
0000
0001
0000
0000
0100
0000
0010
0000
0000
0000
,  // measure 18
1000
0000
0000
1000
0000
0000
0100
0000
0000
0010
0000
0000
0001
0000
0000
0000
,  // measure 19
1000
0000
0001
0000
0100
0010
1000
0000
,  // measure 20
0001
0000
0011
0000
0001
0100
0010
0000
,  // measure 21
1000
0000
1010
0000
0010
1000
0001
0000
,  // measure 22
1000
0000
1100
0000
0100
1000
0001
0000
,  // measure 23
0100
0000
0010
0000
1000
0001
1000
0000
,  // measure 24
0001
0000
0000
0001
0000
0000
0010
0000
0000
0100
0000
0000
1000
0000
0000
0000
,  // measure 25
0001
0000
0000
0000
1000
0000
0000
1000
0000
0000
0010
0000
0100
0000
0000
0000
,  // measure 26
0001
0000
0000
0001
0000
0000
0010
0000
0000
0100
0000
0000
1000
0000
0000
0000
,  // measure 27
0001
0000
1000
0000
0010
0100
0001
0000
,  // measure 28
1000
0000
1100
0000
0100
1000
0001
0000
,  // measure 29
1000
0000
1010
0000
0010
0100
0001
0000
,  // measure 30
1000
0000
1001
0000
0001
0010
0100
0000
,  // measure 31
1000
0000
0001
0100
0010
1000
0001
0000
,  // measure 32
1000
0000
0000
0100
0000
0000
0010
0000
0000
0010
0000
0000
0001
0000
0000
0000
,  // measure 33
1000
0000
0000
0000
0001
0000
0000
0001
0000
0000
0100
0000
0001
0000
0000
0000
,  // measure 34
1000
0000
0000
0100
0000
0000
0010
0000
0000
0010
0000
0000
0001
0000
0000
0000
,  // measure 35
2000
0000
0000
3000
,  // measure 36
0001
0000
0000
0100
0000
0000
0010
0000
0000
0010
0000
0000
1000
0000
0000
0000
,  // measure 37
0001
0000
0000
0000
1000
0000
0000
1000
0000
0000
0100
0000
1000
0000
0000
0000
,  // measure 38
0001
0000
0000
0100
0000
0000
0010
0000
0000
0010
0000
0000
1000
0000
0000
0000
,  // measure 39
0002
0000
0000
0003
,  // measure 40
1000
0100
0010
0001
,  // measure 41
1000
0100
0010
0001
,  // measure 42
1000
0010
1000
0000
0010
0100
0010
0000
,  // measure 43
0100
0001
0100
0000
0001
1000
0001
0000
,  // measure 44
1000
0100
1000
0100
0010
0001
0010
0002
,  // measure 45
2000
0000
0000
3003
,  // measure 46
0001
0000
0000
0101
0000
0000
1000
0000
,  // measure 47
0000
1010
0000
0000
0001
0000
1001
0000
,  // measure 48
1000
0000
0100
0000
0010
0001
1000
0000
,  // measure 49
0010
0100
0010
0000
0100
0001
1000
0000
,  // measure 50
0001
0000
0010
0000
0100
1000
0001
0000
,  // measure 51
0100
0010
0100
0000
0010
1000
0001
0000
,  // measure 52
1000
0000
0100
0000
1000
0010
0100
0000
,  // measure 53
0001
1000
0001
0000
0010
0100
1000
0000
,  // measure 54
0001
0100
0010
1000
0001
0100
0010
0000
,  // measure 55
1000
0100
0010
0001
1000
0100
0010
0000
,  // measure 56
0001
0000
0000
0001
0100
0000
0000
0000
0100
0000
0000
0100
0010
0000
0000
0000
,  // measure 57
0010
0000
0000
0010
1000
0000
0000
0000
1000
0000
0000
1000
0001
0000
0000
0001
,  // measure 58
1000
0000
1100
0000
0100
1000
0001
0000
,  // measure 59
1000
0001
1000
0000
0001
0000
0101
0000
,  // measure 60
0001
0010
0100
0000
1000
0001
0010
0000
,  // measure 61
0100
1000
0001
0000
0010
0100
1000
0000
,  // measure 62
0001
0000
0101
0000
0001
0010
0100
0000
,  // measure 63
1000
0001
1000
0000
0001
0100
0010
1000
,  // measure 64
0001
0000
0010
0000
0100
1000
0001
0000
,  // measure 65
0100
0010
0100
0000
0010
1000
0001
0000
,  // measure 66
1000
0000
0100
0000
0010
0001
1000
0000
,  // measure 67
0010
0100
0010
0000
0100
0001
1000
0000
,  // measure 68
0001
0000
0010
0000
0001
0100
0010
0000
,  // measure 69
1000
0001
1000
0000
0100
0010
0001
0000
,  // measure 70
1000
0010
0100
0001
1000
0010
0100
0000
,  // measure 71
0001
0010
0100
1000
0001
0010
0100
0000
,  // measure 72
1000
0010
0100
0000
0001
0010
0100
0000
,  // measure 73
0010
0001
1000
0000
0001
0100
0010
0000
,  // measure 74
1000
0000
1010
0000
0010
0100
0001
0000
,  // measure 75
1000
0001
1000
0000
0001
0000
0011
0000
,  // measure 76
0001
0100
0010
0000
1000
0001
0100
0000
,  // measure 77
0010
1000
0001
0000
0100
0010
1000
0000
,  // measure 78
0002
0000
0000
0000
,  // measure 79
2003
0000
0000
0000
,  // measure 80
3000
0000
0000
0000
;

//---------------dance-single - ----------------
#NOTEDATA:;
#CHARTNAME:;
#STEPSTYPE:dance-single;
#DESCRIPTION:;
#CHARTSTYLE:;
#DIFFICULTY:Easy;
#METER:4;
#RADARVALUES:0.296,0.300,0.191,0.075,0.000,217.000,23.000,9.000,0.000,0.000,0.000,0.000,0.000,0.296,0.300,0.191,0.075,0.000,217.000,23.000,9.000,0.000,0.000,0.000,0.000,0.000;
#CREDIT:;
#NOTES:
// measure 0
0000
0000
0000
0000
,  // measure 1
0000
0000
0000
0000
,  // measure 2
0000
0000
0000
0000
,  // measure 3
0000
0000
0000
0000
,  // measure 4
1000
0010
1000
0010
,  // measure 5
1000
0001
1000
0001
,  // measure 6
1000
0100
1000
0100
,  // measure 7
0010
0001
0010
0001
,  // measure 8
2000
0000
0000
0000
,  // measure 9
0000
3000
0001
0100
,  // measure 10
0020
0000
0000
0000
,  // measure 11
0030
1000
0001
0000
,  // measure 12
0002
0000
0000
0000
,  // measure 13
0003
1000
0100
0010
,  // measure 14
0001
0000
0101
0000
,  // measure 15
1001
0000
1000
0010
,  // measure 16
1000
0000
1000
0100
,  // measure 17
0010
0000
0010
0001
,  // measure 18
1000
0000
1000
0001
,  // measure 19
0100
0000
0100
0010
,  // measure 20
1000
0001
1000
0100
,  // measure 21
1000
0001
1000
0000
,  // measure 22
0001
1000
0001
0100
,  // measure 23
0001
1000
0001
0010
,  // measure 24
0001
0000
0001
0100
,  // measure 25
0010
0000
0010
1000
,  // measure 26
0100
0000
0100
0010
,  // measure 27
0001
0000
0001
0100
,  // measure 28
0001
1000
0001
0010
,  // measure 29
0001
1000
0001
0000
,  // measure 30
1000
0001
1000
0010
,  // measure 31
1000
0100
0010
0100
,  // measure 32
1000
0000
1000
0001
,  // measure 33
0100
0000
0101
0000
,  // measure 34
0001
0000
0001
1000
,  // measure 35
0200
0000
0000
0300
,  // measure 36
0010
0000
0010
0001
,  // measure 37
1000
0000
1010
0000
,  // measure 38
0010
0000
0010
0100
,  // measure 39
0002
0000
0000
0003
,  // measure 40
1000
0000
1000
0000
,  // measure 41
0001
0000
0001
0000
,  // measure 42
1000
0001
1000
0001
,  // measure 43
1000
0100
1000
0100
,  // measure 44
0010
0001
0010
0002
,  // measure 45
2000
0000
0000
3003
,  // measure 46
1010
0000
0101
0000
,  // measure 47
0011
0000
1100
1000
,  // measure 48
0001
0000
0001
0100
,  // measure 49
0001
0000
1001
0000
,  // measure 50
1000
0100
0010
0001
,  // measure 51
1000
0000
1010
0000
,  // measure 52
1000
0000
1000
0100
,  // measure 53
1000
0000
1001
0000
,  // measure 54
0001
0100
0010
1000
,  // measure 55
0001
0010
0100
1000
,  // measure 56
1001
0000
0101
0000
,  // measure 57
1010
0000
1001
0000
,  // measure 58
0001
0010
0001
0000
,  // measure 59
1000
0100
1000
0000
,  // measure 60
1010
0000
0101
0000
,  // measure 61
0011
0000
1100
0000
,  // measure 62
0001
0100
0001
0000
,  // measure 63
1000
0010
1000
0001
,  // measure 64
1000
0000
1000
0100
,  // measure 65
0010
0000
0011
0000
,  // measure 66
0001
0100
0001
1000
,  // measure 67
0001
0000
1001
0000
,  // measure 68
0001
0000
0001
0010
,  // measure 69
0100
0000
1100
0000
,  // measure 70
1000
0010
0100
0001
,  // measure 71
1000
0100
0010
0001
,  // measure 72
1000
1000
0010
0010
,  // measure 73
0100
0100
0001
0001
,  // measure 74
1000
0000
1000
0100
,  // measure 75
1000
0000
1001
0000
,  // measure 76
0001
0001
0100
0100
,  // measure 77
0010
0010
1000
1000
,  // measure 78
0002
0000
0000
0000
,  // measure 79
2003
0000
0000
0000
,  // measure 80
3000
0000
0000
0000
;
