#TITLE:Touch;
#SUBTITLE:;
#ARTIST:♪♪♪♪♪;
#TITLETRANSLIT:;
#SUBTITLETRANSLIT:;
#ARTISTTRANSLIT:;
#GENRE:Touch;
#CREDIT:;
#BANNER:Touch.png;
#BACKGROUND:Touch-bg.png;
#LYRICSPATH:;
#CDTITLE:;
#MUSIC:Touch.mp3;
#OFFSET:-1.301951;
#SAMPLESTART:44.399998;
#SAMPLELENGTH:15.000000;
#SELECTABLE:YES;
#BPMS:0.000000=161.309998
;
#STOPS:
;
#BGCHANGES:;
#KEYSOUNDS:;
#ATTACKS:;

//---------------dance-single - ----------------
#NOTES:
     dance-single:
     :
     Medium:
     5:
     0.267782,0.253606,0.077184,0.077184,0.000000,156.000000,7.000000,7.000000,0.000000,0.000000,0.000000,0.267782,0.253606,0.077184,0.077184,0.000000,156.000000,7.000000,7.000000,0.000000,0.000000,0.000000:
0000
0000
0000
0000
,
0000
0000
0000
0000
,
0000
0000
0000
0000
,
0000
0000
0000
0000
,
1000
0000
0000
1000
0000
0000
1000
0000
,
1000
0000
0000
1000
0000
0000
1000
0000
,
0010
0000
0000
0010
0000
0000
0010
0000
,
0010
0000
0000
0010
0000
0000
0010
0000
,
0100
0000
0000
0100
0000
0000
0100
0000
,
0100
0000
0000
0100
0000
0000
0100
0000
,
0001
0000
0000
0001
0000
0000
0001
0000
,
1001
0000
0000
1000
,
1000
0000
0000
1000
0000
0000
1000
0000
,
0100
0000
0000
0100
0000
0000
0100
0000
,
1000
0000
0000
1000
0000
0000
1000
0000
,
0100
0000
0000
0100
0000
0000
0100
0000
,
0010
0000
0000
0010
0000
0000
0010
0000
,
0001
0000
0000
0001
0000
0000
0001
0000
,
0010
0000
0000
0010
0000
0000
0010
0000
,
0001
1000
0001
1000
,
0010
0000
0000
0010
0000
0000
0010
0000
,
0100
0000
0000
0100
0000
0000
0100
0000
,
0002
0000
0000
1003
,
2000
0000
0000
3010
,
0020
0000
0000
0000
,
0230
0000
0000
0000
,
0302
0000
0000
0000
,
2003
0000
0000
0000
,
3001
1000
0001
1000
,
0000
1001
0000
0110
,
1001
0000
0000
0110
0000
0000
0000
0000
,
0010
0000
0000
0010
0000
0000
0010
0000
,
1000
0000
0000
1000
0000
0000
1000
0000
,
0001
0010
0100
1000
,
0001
0000
0000
0001
0000
0000
0001
0000
,
0100
0000
0000
0100
0000
0000
0100
0000
,
0010
0000
0000
0010
0000
0000
0010
0000
,
1000
0000
0000
1000
0000
0000
1000
0000
,
0001
0000
0000
0001
0000
0000
0001
0000
,
1000
0010
0100
0001
,
0010
0000
0000
0010
0000
0000
0010
0000
,
0100
0100
0100
0100
,
1000
0000
0000
0001
0000
0000
1000
0000
,
0010
0000
0000
0100
0000
0000
0010
0000
,
1000
0000
0000
0010
0000
0000
0100
0000
,
0001
0000
0000
0010
0000
0000
0100
0000
,
1000
0000
0000
0001
0000
0000
0100
0000
,
0001
0000
0000
1000
0000
0000
0010
0000
,
1000
0000
0000
0001
0000
0000
0010
0000
,
0001
0000
0000
1000
0000
0000
0100
0000
,
1000
0010
1000
0010
,
0100
0001
0100
0001
,
0010
0000
0000
0210
0000
0000
0000
0000
,
1000
1000
1000
1300
,
0100
1000
0001
0100
,
0010
0100
0001
1000
,
1001
0000
0000
0000
,
0000
0001
0000
0001
0001
0000
0000
0000
;

//---------------dance-single - ----------------
#NOTES:
     dance-single:
     :
     Hard:
     7:
     0.496185,0.507211,0.198474,0.099237,0.000000,288.000000,18.000000,9.000000,0.000000,0.000000,0.000000,0.496185,0.507211,0.198474,0.099237,0.000000,288.000000,18.000000,9.000000,0.000000,0.000000,0.000000:
// measure 0
0000
0000
0000
0000
,  // measure 1
0000
0000
0000
0000
,  // measure 2
0000
0000
0000
0000
,  // measure 3
0000
1000
0001
1000
0001
1000
0001
1000
,  // measure 4
0010
0000
0000
0010
0000
0100
0010
0000
,  // measure 5
1000
0000
0000
1000
0000
0001
1000
0000
,  // measure 6
0100
0000
0000
0100
0000
0010
0100
0000
,  // measure 7
0001
0000
0000
0001
0000
1000
0001
0000
,  // measure 8
0010
0000
0000
0010
0000
0100
0010
0000
,  // measure 9
1000
0000
0000
1000
0000
0001
1000
0000
,  // measure 10
0001
0010
0001
0010
0100
1000
0100
1000
,  // measure 11
0001
0000
0201
0000
0000
0310
0100
0001
,  // measure 12
1000
0000
0000
0100
0000
1000
0010
0000
,  // measure 13
0100
0000
0000
0001
0000
0010
0001
0000
,  // measure 14
0100
0000
0000
0010
0000
1000
0001
0000
,  // measure 15
0010
0100
0010
0100
0000
0100
1000
0000
,  // measure 16
0001
0000
0000
0100
0000
0001
0010
0000
,  // measure 17
0100
0000
0000
1000
0010
0100
0001
1000
,  // measure 18
0001
0000
0000
0010
0000
0100
0010
0100
,  // measure 19
1000
1010
0101
0011
,  // measure 20
1100
0000
1000
0001
1000
0000
0001
0000
,  // measure 21
0100
0000
0010
0100
0010
0000
1000
0000
,  // measure 22
2010
0000
0001
0000
0100
0000
3001
1000
,  // measure 23
0002
0000
0010
0000
1000
0000
0103
0001
,  // measure 24
0010
0100
0010
0100
0000
1000
0000
0000
,  // measure 25
0010
0000
0100
0010
0000
1000
0000
0000
,  // measure 26
0001
0010
0001
0100
0010
1000
0010
0100
,  // measure 27
0001
1000
0001
0010
,  // measure 28
0100
0010
0100
0010
0001
1000
0001
1000
,  // measure 29
0010
0101
0010
1100
,  // measure 30
0010
0100
0010
1001
0000
0000
0001
0000
,  // measure 31
0010
0000
0001
0001
0100
0000
0010
0000
,  // measure 32
1000
0000
0100
0100
1000
0000
0010
0000
,  // measure 33
0110
1001
0011
1100
,  // measure 34
1000
0000
0001
0001
0100
0000
0001
0010
,  // measure 35
0001
0000
1000
1000
0001
0000
1000
0000
,  // measure 36
0020
0000
1030
0010
1000
0000
0001
1000
,  // measure 37
0002
0000
0013
0001
0010
0000
0100
0010
,  // measure 38
0100
1000
0001
0100
0000
0001
0100
0010
,  // measure 39
1000
0010
0100
0001
1000
0000
0100
0000
,  // measure 40
0010
0000
0100
0010
0000
0100
0010
0000
,  // measure 41
0001
0010
0001
0010
0100
1000
0100
1000
,  // measure 42
0010
0000
0000
0010
0000
0100
0010
0000
,  // measure 43
1000
0000
0000
1000
0000
0001
1000
0000
,  // measure 44
0100
0000
0000
0100
0000
0010
0100
0000
,  // measure 45
0001
0000
0000
0001
0000
1000
0001
0000
,  // measure 46
0010
0000
0000
0010
0000
0100
0010
0000
,  // measure 47
1000
0000
0000
1000
0000
0001
1000
0001
,  // measure 48
0010
0000
0010
0100
0000
0100
1000
0000
,  // measure 49
0001
0100
0001
0100
0010
0000
1000
0001
,  // measure 50
1002
0000
1000
0000
1003
0001
0010
0100
,  // measure 51
2000
0100
0000
3100
1000
0010
0100
0001
,  // measure 52
1000
0001
1000
0010
0000
0100
0010
0100
,  // measure 53
0001
0010
0001
0100
0010
0100
0010
1000
,  // measure 54
1002
0000
1000
0000
1003
0001
0010
0100
,  // measure 55
2000
0100
0000
3100
1000
0010
0100
0000
,  // measure 56
0010
0000
1000
0000
0001
0001
1000
0000
,  // measure 57
0100
0110
0000
1001
1001
0000
0000
0000
;

//---------------dance-single - ----------------
#NOTES:
     dance-single:
     :
     Easy:
     3:
     0.234703,0.253606,0.000000,0.044105,0.000000,145.000000,0.000000,4.000000,0.000000,0.000000,0.000000,0.234703,0.253606,0.000000,0.044105,0.000000,145.000000,0.000000,4.000000,0.000000,0.000000,0.000000:
0000
0000
0000
0000
,
0000
0000
0000
0000
,
0000
0000
0000
0000
,
0000
0000
0000
0000
,
1000
0000
1000
0000
,
0001
0000
0001
0000
,
0010
0000
0010
0000
,
0100
0000
0100
0000
,
1000
0000
1000
0000
,
0010
0000
0010
0000
,
0100
0001
0100
0001
,
1000
0000
0000
0000
,
1000
0000
1000
0000
,
0001
0000
0001
0000
,
0010
0000
0010
0000
,
0100
0000
0100
0000
,
1000
0100
0010
0001
,
0100
0000
0010
0100
,
0010
0000
0010
0000
,
0010
1000
0001
1000
,
0100
0000
0100
1000
,
0100
0000
0100
0010
,
0200
0000
1000
0310
,
0200
0000
1300
0100
,
0010
0001
0010
0000
,
0001
0100
0001
0000
,
0100
0010
0100
0000
,
0010
0000
1000
0000
,
0001
0010
0100
1000
,
0000
0001
0000
0001
,
2000
0000
0000
0000
,
3100
0000
0100
0000
,
0010
0000
0010
0000
,
0001
0010
0100
1000
,
0001
0000
0001
0000
,
0100
0010
0100
0010
,
1000
0000
1000
0000
,
0001
0000
0001
0100
,
0001
0001
1000
0001
,
0010
0010
0100
0010
,
0100
0000
1000
0000
,
0001
1000
0001
1000
,
0010
0000
0010
0000
,
0100
0000
0100
0000
,
0001
0000
0001
0000
,
1000
0000
1000
0000
,
0100
1000
0010
0100
,
0001
0000
0010
0100
,
0010
0000
0010
0000
,
0100
1000
0001
0100
,
0010
0010
0010
0000
,
1000
1000
1000
0000
,
0001
1000
0020
0000
,
0100
0100
0130
0000
,
0010
0010
0010
0000
,
1000
1000
1000
0000
,
0001
0010
0000
0010
,
0000
0100
0000
0000
0100
0000
0000
0000
;

//---------------dance-single - ----------------
#NOTES:
     dance-single:
     :
     Beginner:
     1:
     0.097662,0.126803,0.000000,0.055132,0.000000,57.000000,0.000000,5.000000,0.000000,0.000000,0.000000,0.097662,0.126803,0.000000,0.055132,0.000000,57.000000,0.000000,5.000000,0.000000,0.000000,0.000000:
0000
0000
0000
0000
,
0000
0000
0000
0000
,
0000
0000
0000
0000
,
0000
0000
0000
0000
,
1000
0000
0000
0000
,
1000
0000
0000
0000
,
0001
0000
0000
0000
,
0001
0000
0000
0000
,
0010
0000
0000
0000
,
0010
0000
0000
0000
,
0100
0000
0000
0000
,
0000
0100
0000
0000
,
1000
0000
0000
0000
,
1000
0000
0000
0000
,
0010
0000
0000
0000
,
0010
0000
0000
0000
,
0100
0000
0000
0000
,
0100
0000
0000
0000
,
0001
0000
0000
0000
,
0000
0001
0001
0001
,
0001
0000
0000
0000
,
0001
0000
0000
0000
,
2000
0000
0000
0000
,
3000
0000
0000
0000
,
0100
0000
0000
0000
,
0100
0000
0000
0000
,
0010
0000
0000
0000
,
0010
0000
0000
0000
,
0000
0000
0000
0000
,
0001
0000
0001
0000
,
0001
0000
0000
0000
,
1000
0000
0000
0000
,
1000
0000
0000
0000
,
0010
0000
0010
0000
,
0010
0000
0000
0000
,
0100
0000
0000
0000
,
0200
0000
0000
0000
,
0302
0000
0000
0000
,
2003
0000
0000
0000
,
3200
0000
0000
0000
,
0310
0000
0000
0000
,
0010
0000
0000
0000
,
0001
0000
0000
0000
,
0001
0000
0000
0000
,
1000
0000
0000
0000
,
1000
0000
0000
0000
,
0010
0000
0000
0000
,
0010
0000
0000
0000
,
0100
0000
0000
0000
,
0100
0000
0000
0000
,
0001
0000
0000
0000
,
0010
0000
0000
0000
,
0001
0000
0000
0000
,
0100
0000
0000
0000
,
0010
0000
0000
0000
,
1000
0000
0000
0000
,
0010
0000
0000
0000
,
0000
0100
0100
0000
;
