#TITLE:Love is a Dream;
#SUBTITLE:;
#ARTIST:George Holdcroft;
#TITLETRANSLIT:;
#SUBTITLETRANSLIT:;
#ARTISTTRANSLIT:;
#CREDIT:Dossar;
#BANNER:loveisadreambn.png;
#BACKGROUND:loveisadreambg2.png;
#LYRICSPATH:;
#CDTITLE:cd.png;
#MUSIC:Love Is A Dream.mp3;
#OFFSET:-0.130;
#SAMPLESTART:17.260;
#SAMPLELENGTH:13.640;
#SELECTABLE:YES;
#BPMS:0.000=140.000;
#STOPS:;
#BGCHANGES:;

//---------------dance-single - ----------------
#NOTES:
     dance-single:
     :
     Hard:
     8:
     0.624,0.601,0.205,0.000,0.533: // measure 1
0000
0000
0000
0000
,  // measure 2
0000
0000
0000
0000
,  // measure 3
1001
0000
0000
0001
0000
0100
0000
1000
0000
0100
0000
0001
0010
0100
1000
0000
,  // measure 4
0011
0000
0000
0010
0000
0001
0000
0100
0000
1000
0000
0100
0010
1000
0001
0000
,  // measure 5
1100
0000
0000
0100
0000
1000
0000
0010
0000
0001
0000
0010
0100
0001
1000
0000
,  // measure 6
0110
0000
0000
0010
0000
1000
0000
0100
0000
0001
0000
0100
0010
0000
0100
0000
,  // measure 7
1001
0000
0000
1000
0000
0100
0000
0001
0000
0100
0000
0010
0001
1000
0010
0000
,  // measure 8
0101
0000
0000
0100
0000
0010
0000
0001
0000
0010
0000
1000
0001
0100
0010
0000
,  // measure 9
1001
0000
0000
0001
0000
0100
0000
1000
0000
0100
0000
0010
1000
0001
0010
0000
,  // measure 10
1100
0000
0000
0100
0000
0010
0000
1000
0000
0010
0000
0001
0100
0000
0010
0000
,  // measure 11
1000
0100
0010
0001
0100
0010
0001
0010
,  // measure 12
0100
0001
0010
0100
1000
0010
0100
1000
,  // measure 13
0100
0010
1000
0100
0010
0001
0100
0010
,  // measure 14
0001
0010
0100
0001
0010
0100
1001
0000
,  // measure 15
0001
0010
0100
1000
0010
0100
1000
0100
,  // measure 16
0010
1000
0100
0010
0001
0100
0010
0001
,  // measure 17
0010
0100
0001
0010
0100
1000
0010
0100
,  // measure 18
1000
0100
0010
1000
0100
0010
1001
0000
,  // measure 19
1000
0000
0000
1000
0100
0000
0000
0100
0010
0000
0000
0010
0001
0000
0000
0001
,  // measure 20
0100
0000
0000
0100
1000
0000
0000
1000
0100
0000
0000
0100
0001
0000
0000
0001
,  // measure 21
0010
0000
0000
0010
1000
0000
0000
1000
0010
0000
0000
0010
0100
0000
0000
0100
,  // measure 22
0001
0000
0000
0001
0100
0000
0000
0100
1000
0000
0000
1000
0010
0000
0000
0010
,  // measure 23
0100
0000
0000
0100
0001
0000
0000
0001
1000
0000
0000
1000
0100
0000
0000
0100
,  // measure 24
0001
0000
0000
0001
0100
0000
0000
0100
0010
0000
0000
0010
0001
0000
0000
0001
,  // measure 25
1000
0000
0000
1000
0010
0000
0000
0010
0001
0000
0000
0001
0010
0000
0000
0010
,  // measure 26
0100
0000
0000
0100
0001
0000
0000
0001
1000
0000
0000
1000
0100
0000
0000
0100
,  // measure 27
1000
0010
0001
0010
1000
0010
0001
0010
,  // measure 28
1000
0010
0001
0010
1000
0001
0100
0001
,  // measure 29
1000
0010
0001
0010
1000
0010
0001
0010
,  // measure 30
1000
0010
0001
0010
1000
0010
1001
0000
,  // measure 31
1000
0010
0001
0010
1000
0010
0001
0010
,  // measure 32
1000
0010
0001
0010
1000
0001
0010
0001
,  // measure 33
1000
0010
0001
0010
1000
0010
0001
0010
,  // measure 34
1000
0010
0001
0010
1000
0010
1001
0000
,  // measure 35
1000
0100
0010
0001
0100
0010
0001
0010
,  // measure 36
0100
0001
0010
0100
1000
0010
0100
1000
,  // measure 37
0100
0010
1000
0100
0010
0001
0100
0010
,  // measure 38
0001
0010
0100
0001
0010
0100
1001
0000
,  // measure 39
0100
0000
0011
1000
0001
0100
1000
0100
,  // measure 40
0001
0010
1000
0010
0001
0100
1000
0100
,  // measure 41
0011
0000
0000
0000
;

//---------------dance-single - ----------------
#NOTES:
     dance-single:
     :
     Medium:
     6:
     0.439,0.464,0.014,0.027,0.219:
0000
0000
0000
0000
,
0000
0000
0000
0000
,
1000
0000
0000
0001
0000
0100
0000
0010
0000
1000
0000
0000
0001
0000
0010
0000
,
0100
0000
0000
1000
0000
0001
0000
0100
0000
0010
0000
0000
1000
0000
0100
0000
,
0010
0000
0000
0001
0000
1000
0000
0010
0000
0100
0000
0000
0001
0000
1000
0000
,
0100
0000
0000
0010
0000
0001
0000
1000
0000
0100
0000
0000
1000
0000
0001
0000
,
0100
0000
0000
0010
0000
1000
0000
0001
0000
0100
0000
0000
0001
0000
0010
0000
,
0100
0000
0000
1000
0000
0001
0000
0100
0000
0010
0000
0000
1000
0000
0001
0000
,
0010
0000
0000
0100
0000
0010
0000
0001
0000
1000
0000
0000
0010
0000
0100
0000
,
0001
0000
0000
1000
0000
0100
0000
0010
0000
0001
0000
0000
0100
0000
0010
0000
,
1000
0100
0000
0001
0000
0100
0000
1000
,
0000
0100
0000
0001
0000
0100
0010
0001
,
0000
1000
0000
0010
0000
0001
0000
0010
,
0000
1000
0000
0010
0000
0100
0001
0000
,
1000
0100
0000
0001
0000
0100
0000
1000
,
0000
0100
0000
0001
0000
0100
0010
0001
,
0000
1000
0000
0010
0000
0001
0000
0010
,
0000
1000
0000
0010
0000
0100
0001
0000
,
1000
0100
1000
0000
1000
0100
1000
0000
,
0001
0100
0001
0000
0001
0100
0001
0000
,
1000
0100
0010
0000
0001
0100
0010
0000
,
1000
0100
0010
0000
0001
0100
0010
0000
,
0100
0010
0100
0000
0100
0010
0100
0000
,
0001
1000
0001
0000
0001
1000
0001
0000
,
0100
0010
1000
0000
0100
0010
0001
0000
,
0100
0010
1000
0000
0100
0010
0001
0000
,
1000
0001
0100
0001
0000
1000
0100
1000
,
0000
0001
0100
0001
0000
1000
0001
0010
,
0000
0100
1000
0100
0000
0010
0001
0010
,
0000
0100
1000
0100
0000
0010
0001
0000
,
1000
0100
0010
0100
0000
1000
0001
1000
,
0000
0100
0010
0100
0000
0010
0001
0010
,
0000
0100
0010
0100
0000
1000
0100
1000
,
0000
0001
0100
0001
0000
1000
0001
0000
,
1000
0010
1000
0010
0001
0010
0001
0010
,
1000
0010
1000
0010
0001
0010
0001
0010
,
1000
0100
1000
0100
0001
0100
0001
0100
,
1000
0100
1000
0100
0001
0100
0001
0100
,
1000
1001
0000
0000
,
0000
0000
0000
0000
,
0000
0000
0000
0000
;

//---------------dance-single - ----------------
#NOTES:
     dance-single:
     :
     Easy:
     4:
     0.300,0.382,0.123,0.027,0.000:
0000
0000
0000
0000
,
0000
0000
0000
0000
,
1000
0000
0000
0000
0000
0000
0001
0100
,
0001
0000
0000
0000
0000
0000
1000
0100
,
1000
0000
0000
0000
0000
0000
0001
0100
,
0001
1000
0001
1000
,
1001
1001
0001
0100
,
0110
0110
0010
1000
,
1001
1001
0001
0100
,
0110
0110
0010
1000
,
0001
0001
0001
0001
,
1000
1000
1000
1000
,
0100
0100
0100
0100
,
0010
0010
0010
0010
,
0001
0001
0001
0001
,
0010
0010
0010
0010
,
0100
0100
0100
0100
,
1000
1000
1000
1000
,
0001
0100
0010
1000
,
0001
0010
0100
1000
,
0001
0100
0010
1000
,
0001
0010
0100
1000
,
0001
1000
0100
0010
,
0001
1000
0010
0100
,
0001
1000
0100
0010
,
0001
1000
0010
0100
,
0001
0001
0001
0001
,
0001
0001
0001
0001
,
1000
1000
1000
1000
,
1000
1000
1000
1000
,
0010
0010
0010
0010
,
0010
0010
0010
0010
,
0100
0100
0100
0100
,
0100
0100
0100
0100
,
0001
0001
1000
1000
,
0100
0100
0010
0010
,
0001
0001
0010
0010
,
0100
0100
1000
1000
,
0001
1001
0000
0000
,
0000
0000
0000
0000
,
0000
0000
0000
0000
;
