#TITLE:Les Vague;
#SUBTITLE:;
#ARTIST:m@sumi;
#TITLETRANSLIT:;
#SUBTITLETRANSLIT:;
#ARTISTTRANSLIT:;
#GENRE:European Breakcore;
#CREDIT:padu;
#BANNER:[Friendly Vowels] - Les Vague.png;
#BACKGROUND:[Friendly Vowels] - Les Vague-bg.png;
#LYRICSPATH:;
#CDTITLE:;
#MUSIC:[Friendly Vowels] - Les Vague.mp3;
#OFFSET:-0.393;
#SAMPLESTART:81.000;
#SAMPLELENGTH:20.000;
#SELECTABLE:YES;
#DISPLAYBPM:100.000:180.000;
#BPMS:0.000=100.000
,21.000=180.000
,159.000=90.000
,167.000=180.000
,179.000=360.000
,181.000=90.000
,195.000=180.000
,196.000=360.000
,197.000=180.000
;
#STOPS:66.000=0.333,
97.000=0.333,
179.000=1.000,
195.000=0.111,
195.333=0.111,
195.667=0.111,
196.000=0.167,
196.333=0.167,
196.667=0.167,
271.000=0.167,
271.500=0.333,
272.500=0.167,
273.500=0.167,
274.000=0.167,
298.000=0.167
;
#BGCHANGES:;
#KEYSOUNDS:;
#ATTACKS:;

//---------------dance-single - ----------------
#NOTES:
     dance-single:
     :
     Hard:
     9:
     0.641,0.860,0.442,0.249,0.253,473.000,55.000,31.000,0.000,0.000,0.000,0.641,0.860,0.442,0.249,0.253,473.000,55.000,31.000,0.000,0.000,0.000:
0100
1000
0010
0100
0001
0010
0001
1000
,
0000
0000
0010
1000
0000
0000
0000
0000
0000
0000
0000
0000
0001
0000
0000
0100
0000
0000
0010
0000
0000
1000
0000
0000
,
0100
0000
0000
0010
0000
0000
0001
0000
0000
0000
0000
1000
0001
0000
0000
0100
0000
0000
0010
0000
0000
1000
0000
0000
,
0001
0010
0100
1000
0100
0010
0001
0100
,
0010
1000
0100
0010
0001
0100
1000
0100
,
0001
0100
2002
0000
0000
0000
3003
0010
,
1000
0000
0010
0000
0000
0000
0100
0000
0001
0100
0000
0001
0000
0000
1000
0000
,
0100
1000
0000
0001
0010
0001
0000
1000
,
0010
0001
0020
0000
0000
0000
0000
0030
,
0000
2020
0000
0000
3030
0000
0200
0000
,
0000
0000
0000
0300
0000
0101
0000
0101
,
0000
0000
1000
0010
0001
1000
0100
0001
,
1000
0010
0001
1000
0100
0001
0010
0000
,
1001
0000
0001
0010
1000
0010
0000
0001
,
0100
1000
0100
0010
1000
0001
1000
0000
,
0010
1000
0000
0001
0010
0100
0000
1000
,
0001
0100
1010
0000
1001
0100
0011
0000
,
1010
1010
0000
0101
0000
0001
0010
0100
,
1000
0100
0010
0001
0000
0100
0010
0001
,
0000
0100
0010
0002
0000
0013
0100
1000
,
0001
0100
0010
1000
0000
0000
0110
0000
,
1000
0100
0001
0100
0000
1000
0010
0100
,
0010
1000
0001
0010
0001
0000
0100
0001
,
0000
0010
0100
1000
0000
0001
0010
0100
,
1001
0000
1100
0010
1001
0000
0011
0011
,
0000
1100
0000
0001
0010
0100
1000
0100
,
0010
0001
0000
0100
0010
0001
0000
0100
,
0010
0002
0000
0000
0000
0000
0000
0000
,
1003
0000
0001
0010
1000
0001
0100
1000
,
0001
0010
1000
0001
0100
1000
0020
0000
,
1030
0100
0001
1000
0010
0001
1000
0100
,
0001
1000
0020
0000
0000
2030
0200
3000
,
0310
0001
0010
0001
0000
1000
0010
1000
,
0001
0000
0100
0001
0100
0001
0000
1000
,
0100
1000
0001
0010
1000
0001
0100
1000
,
0001
0010
1000
0001
0100
1000
0020
0000
,
1030
0100
0001
1000
0010
0001
1000
0100
,
0001
0000
1000
0000
0010
0000
0001
0000
1000
0000
0100
0000
0011
0000
0000
0001
,
0010
0000
1010
0000
0000
0010
1000
0000
1100
0000
0000
0100
1000
0000
0101
0000
,
0000
0001
0100
0000
0010
0000
0100
0000
0010
0100
0010
0000
2001
0000
0000
0000
,
0001
0000
0000
3001
0000
0000
0010
0010
0010
1002
0000
0000
,
0103
0000
0000
0000
0000
0000
0000
0000
0000
0101
0000
0000
1001
0000
1001
0000
1001
0000
0001
0000
0000
0100
0000
0000
,
0010
1000
0000
0100
0010
1000
0000
0100
,
0010
0000
0000
1000
0000
0000
0011
0000
0000
0000
0110
0000
0000
0000
1100
0000
0000
0000
1000
0000
0000
0001
0000
0000
,
0100
0000
0000
0010
0000
0000
1000
0000
0000
0001
0000
0000
0010
0000
0000
0100
0000
0000
2000
3000
0000
0000
0000
0000
,
0000
0000
0000
0001
1000
0010
1000
0001
0010
0100
1000
0100
,
0020
0000
0000
0030
0000
0000
0001
0000
0010
0000
0100
0000
1000
0000
0100
0000
0010
0000
0100
0000
1000
0000
0001
0000
,
0010
0001
1000
0101
0010
0100
1000
0100
0010
1100
0001
0010
,
0100
0010
0001
1100
0100
1000
0011
0010
0001
1100
0101
1001
,
1010
0011
1001
0100
0000
0010
0000
0100
0000
0001
0000
0010
,
0000
0001
0000
1000
0000
0100
0000
1000
0000
0002
0000
0000
,
0000
0000
0000
1003
0000
0010
0000
1000
0000
0001
0000
0100
,
0000
0001
0000
1000
0000
0100
0000
0010
0000
0100
0000
0010
,
0000
0000
0001
0000
0000
0000
1000
0000
0000
0001
0000
0000
0010
0000
0000
0100
0000
0000
1000
0000
0000
0001
0000
0000
,
0100
0010
1000
0100
0010
0001
0100
0010
,
0100
0001
0010
1000
0010
0001
0100
1000
,
0100
0001
2000
0000
0100
0000
0000
0000
,
3100
0000
0002
0000
0103
0000
1000
0010
,
0001
0010
2000
0000
0100
0000
0000
0000
,
3100
0000
0002
0000
0103
0000
0010
1000
,
0100
1000
0002
0000
0100
0000
0000
0000
,
0103
0000
2000
0000
3100
0000
0001
0010
,
0001
0010
2100
0000
0000
0000
0000
0000
,
0000
0002
0000
0000
3003
0000
0010
0100
,
1000
0100
0011
0000
0000
0000
0000
0000
,
0000
0000
0000
0000
0000
0000
0010
0010
,
0010
0010
0001
0010
0100
1000
0010
0100
,
0010
1000
0100
0010
0001
0010
1100
2010
,
3001
0110
1001
1001
0102
0013
0100
1000
,
0100
0010
0001
0100
0000
0010
0001
0100
,
0000
0010
0001
0200
0000
0310
0100
1000
,
0001
0010
0100
1000
0001
0010
1000
0001
,
0100
1000
0001
0010
1000
0010
0001
0000
,
1001
0000
0000
0110
0000
0000
1000
0000
1100
0000
0001
0000
,
0101
0000
0000
0000
0010
0000
0000
0000
1001
0000
0000
0000
0000
0000
0000
2020
0000
0000
0000
0000
0000
0000
0000
0000
,
0000
0000
0000
0000
,
0000
0000
3030
0000
;

//---------------dance-single - ----------------
#NOTES:
     dance-single:
     :
     Medium:
     8:
     0.462,0.488,0.345,0.185,0.145,337.000,43.000,23.000,8.000,0.000,0.000,0.462,0.488,0.345,0.185,0.145,337.000,43.000,23.000,8.000,0.000,0.000:
1000
0000
0001
0010
0000
0100
1000
0000
,
0010
0001
0000
0000
0100
0000
0010
1000
,
0000
0001
0100
0000
0000
0010
0000
0000
,
1000
0100
1000
0001
0100
0001
1000
0010
,
1000
0001
0010
0001
1000
0100
0010
0001
,
0010
0100
2000
0000
0000
0000
0000
3001
,
0000
1001
0000
0010
0100
0010
1000
0000
,
1100
0000
0000
0010
0000
0101
0000
0100
,
0010
0001
2000
0000
0000
0000
0000
0000
,
0000
0020
0000
0000
0000
3000
0200
0000
,
0000
0000
0000
0000
0030
0002
0000
0000
,
0000
0303
1001
0000
0000
0110
0000
0000
,
1010
0000
0000
0011
0000
0000
0010
0000
,
0010
0000
0001
0010
0001
0000
1000
0000
,
1000
0000
0010
1000
0010
0000
0100
0000
,
0001
0000
1000
0100
1000
0001
0000
0100
,
0001
0100
1001
0000
1001
0000
0010
0000
,
1000
0100
0000
0100
0000
0010
0100
0000
,
1000
0010
1000
0010
0000
1000
0010
1000
,
0000
0001
0010
0001
0000
0010
0100
0000
,
1000
0001
1000
0001
0000
0000
0100
0000
,
0010
0100
0010
0000
1000
0000
1000
0000
,
0001
0100
0001
0000
1000
0000
0010
1000
,
0000
0001
0010
0001
0000
1000
0001
1000
,
0110
0000
0110
0000
0100
0000
0010
0010
,
0000
0001
0000
1000
0100
0000
0010
0001
,
0010
0100
0000
1000
0010
1000
0000
0001
,
0010
0001
0000
0000
0010
0000
0100
0000
,
1000
0000
0101
0000
0000
0101
0000
0000
,
0101
0000
0000
0101
0000
0000
0020
0030
,
1100
0000
0000
1100
0000
0000
1100
0000
,
0000
1000
0100
0000
0000
1000
0001
0000
,
0010
0100
0010
0000
0001
0000
1000
0000
,
0010
0100
0010
0000
0100
0000
0001
0000
,
0101
0000
1010
0000
0000
1010
0000
0000
,
1010
0000
0000
1010
0000
0000
0200
0300
,
0011
0000
0000
0011
0000
0000
0011
0000
,
0000
0011
0000
0000
0010
0001
0110
0000
,
0000
1001
0000
0000
0010
0000
0000
0100
,
0000
0000
0001
0010
0100
1000
0010
0000
,
0010
0000
0010
0000
0002
0003
0010
0000
,
0100
0000
0000
0010
0002
0000
1003
0000
,
0010
0100
0000
0000
0010
0100
0000
0010
,
0100
0000
0000
0010
0000
1000
0000
0001
0000
0020
0000
0000
,
0032
0000
0000
0000
0000
0000
2003
0000
0000
0000
0000
0000
3020
0000
0000
0000
0000
0000
0230
0300
0000
0000
0000
0000
,
0000
0000
0000
0010
0000
1000
0010
0000
0100
0010
0000
1000
,
0001
0000
0000
0010
0000
0001
0100
0000
0010
0100
0000
0001
,
1000
0000
0000
1100
0000
0010
0100
0000
0000
0101
0000
0010
,
0100
0000
0000
1001
0000
0000
0110
0000
0000
0001
0001
0001
,
1000
1000
1000
0100
0000
0010
0000
0100
0000
0010
0000
0001
,
0000
0010
0000
0001
0000
0100
0000
0001
0000
2000
0000
0000
,
3000
0000
0000
0010
0000
1000
0000
0010
0000
0100
0000
0010
,
0000
0100
0000
0001
0000
1000
0000
0001
0000
1000
0000
0010
,
0000
0000
1000
0000
0000
0000
0001
0000
0000
0010
0000
0000
0001
0000
0000
0000
0000
0000
0100
0000
0000
0001
0000
0000
,
0100
0000
0010
1000
0010
0000
1000
0100
,
1000
0000
0010
0000
0100
0000
0001
1000
,
0001
1000
0002
0000
0000
0000
0003
0000
,
1000
1001
0000
0000
0000
0000
0001
0010
,
0001
2000
0000
3000
,
0100
1100
0000
0000
0000
0000
0010
0100
,
0010
0102
0000
0003
,
1000
1001
0000
0000
0000
0000
0010
1000
,
0010
2100
0000
3000
,
0010
1010
0000
0000
0100
0000
0001
0100
,
0010
1000
0000
0000
0000
0000
0000
0000
,
0000
0000
0000
0000
0000
0000
0000
0000
0000
0000
0000
0000
M000
0M00
00M0
000M
,
M000
0M00
00M0
000M
1000
0000
0010
0000
1000
0000
0000
0000
0001
0000
0010
0000
,
0001
0000
0001
0100
0001
1000
0010
0110
,
0000
1000
1100
0000
0101
0010
0001
0000
,
1000
0010
0100
0010
0000
0100
0001
0100
,
0000
0001
1000
0001
0000
0000
0000
0000
,
0000
0000
0000
0000
1000
0010
0100
0001
,
0000
0000
0001
0100
0010
1000
0000
0000
,
2000
0000
0000
3002
0000
0000
1003
0000
0100
0000
0010
0000
,
0100
0000
0000
0000
0010
0000
0000
0000
0001
0000
0000
0000
0000
0000
0000
0022
0000
0000
0000
0000
0000
0000
0000
0000
,
0000
0000
0000
0000
,
0033
0000
0000
0000
;

//---------------dance-single - ----------------
#NOTES:
     dance-single:
     :
     Easy:
     5:
     0.299,0.422,0.201,0.193,0.000,212.000,25.000,24.000,0.000,0.000,0.000,0.299,0.422,0.201,0.193,0.000,212.000,25.000,24.000,0.000,0.000,0.000: // measure 0
1000
0000
0000
0100
0000
0000
0010
0000
,  // measure 1
0000
0010
0000
0000
0001
0000
0000
0010
,  // measure 2
0000
0000
0100
0000
0000
0100
0000
0000
,  // measure 3
1000
0000
0000
0001
0000
0000
0010
0000
,  // measure 4
0000
0001
0000
0000
1000
0000
0000
0100
,  // measure 5
0000
0020
0000
0030
,  // measure 6
0001
0100
0001
1000
,  // measure 7
1000
0000
0001
0010
,  // measure 8
0001
0200
0000
0010
,  // measure 9
0000
0320
0000
2030
,  // measure 10
0000
0001
0000
3002
,  // measure 11
0000
1003
0001
1001
,  // measure 12
0100
0010
0110
0100
,  // measure 13
0010
0001
0001
0100
,  // measure 14
0010
1000
1000
0010
,  // measure 15
0100
0010
0100
0001
,  // measure 16
1000
0001
1001
0100
,  // measure 17
0001
0000
1000
0000
,  // measure 18
0010
0000
0100
0001
,  // measure 19
0010
0000
0100
1000
,  // measure 20
0001
0010
0001
0100
,  // measure 21
0010
0010
1000
0100
,  // measure 22
0010
0010
0001
0100
,  // measure 23
0001
0100
0010
1000
,  // measure 24
0010
0110
0001
1001
,  // measure 25
0000
1000
0000
0001
,  // measure 26
0000
0100
0000
0010
,  // measure 27
0000
1000
0001
1001
,  // measure 28
1001
0000
0010
0000
0000
0010
0000
0000
,  // measure 29
0010
0000
0000
0010
0000
0000
0000
0000
,  // measure 30
0100
0000
0000
0100
0000
0000
0100
0000
,  // measure 31
0000
0100
0010
0000
0001
0000
2000
0000
,  // measure 32
0001
0000
0001
0001
,  // measure 33
0001
0000
0001
3001
,  // measure 34
0001
0000
1000
0000
0000
1000
0000
0000
,  // measure 35
1000
0000
0000
1000
0000
0000
0000
0000
,  // measure 36
0001
0000
0000
0001
0000
0000
0001
0000
,  // measure 37
0000
0001
0000
0000
0010
0000
1001
0000
,  // measure 38
0000
1100
0000
0101
,  // measure 39
0000
0110
0000
2002
,  // measure 40
0000
0000
3003
0010
,  // measure 41
0100
0000
1001
0010
,  // measure 42
0001
0001
0010
0001
,  // measure 43
0001
1001
1001
0010
,  // measure 44
0001
0010
0100
1000
,  // measure 45
0000
0002
0013
2000
,  // measure 46
3010
0002
0103
2000
,  // measure 47
3100
1002
0103
2001
,  // measure 48
3100
0110
0110
2002
,  // measure 49
3003
1000
0100
1000
,  // measure 50
0000
0001
0010
0001
,  // measure 51
0000
1000
0010
1000
,  // measure 52
0010
0100
0001
0100
,  // measure 53
0000
0001
0010
0100
,  // measure 54
1000
0001
0010
0100
,  // measure 55
1000
0010
0100
0001
,  // measure 56
1000
0020
0000
0000
,  // measure 57
0000
0000
0000
0000
,  // measure 58
0030
0200
0000
0000
,  // measure 59
0300
0002
0000
0000
,  // measure 60
0003
0020
0000
0000
,  // measure 61
0000
0000
0000
0000
,  // measure 62
0030
0200
0000
0000
,  // measure 63
0300
2000
0000
0000
,  // measure 64
3000
1001
0000
0000
,  // measure 65
0000
0000
0000
0000
,  // measure 66
0000
0010
0001
1000
,  // measure 67
0010
0000
0100
0000
0001
0000
1000
1001
,  // measure 68
0000
0010
0110
0000
0100
0000
0001
0000
,  // measure 69
0010
0001
0000
1000
,  // measure 70
0001
1000
0000
0001
,  // measure 71
0010
0100
1000
0000
,  // measure 72
0000
1001
0000
0000
,  // measure 73
0010
0100
0010
0100
,  // measure 74
0010
0000
0100
0000
0000
0220
0000
0000
,  // measure 75
0330
0000
0000
0000
;
