#TITLE:KEEP IT REAL;
#SUBTITLE:;
#ARTIST:NAOKI ft. Tiffany;
#TITLETRANSLIT:;
#SUBTITLETRANSLIT:;
#ARTISTTRANSLIT:;
#GENRE:;
#CREDIT:hooky;
#BANNER:KEEP IT REAL.png;
#BACKGROUND:KEEP IT REAL-bg.png;
#LYRICSPATH:;
#CDTITLE:;
#MUSIC:KEEP IT REAL.ogg;
#OFFSET:-0.118000;
#SAMPLESTART:35.341000;
#SAMPLELENGTH:15.000000;
#SELECTABLE:YES;
#DISPLAYBPM:138.000000;
#BPMS:0.000000=138.000000
;
#STOPS:
;
#BGCHANGES:;
#KEYSOUNDS:;
#ATTACKS:;

//---------------dance-single - hooky----------------
#NOTES:
     dance-single:
     hooky:
     Easy:
     4:
     0.310173,0.338860,0.363960,0.112953,0.000000,135.000000,29.000000,9.000000,0.000000,0.000000,0.000000,0.310173,0.338860,0.363960,0.112953,0.000000,135.000000,29.000000,9.000000,0.000000,0.000000,0.000000:
0000
0000
0000
0000
,
1000
0000
1000
0000
,
0001
0000
0001
0000
,
2000
0000
0010
0000
,
3001
0000
0001
0001
,
1001
0000
0110
0000
,
0010
1000
0100
1000
,
0010
0000
0010
0000
,
0100
0001
0100
0001
,
0010
0000
0001
0001
,
1000
0000
1000
1000
,
0200
0300
0010
0000
,
0020
0030
0100
0000
,
1000
0011
1000
1010
,
0100
0011
0001
0101
,
1000
1100
0010
0110
,
0001
0001
1000
1000
,
0110
0011
1000
1010
,
0100
1100
0001
0101
,
0010
0110
0001
1000
,
2002
0000
0000
3003
,
1000
1000
0110
0000
,
0010
0010
1000
0001
,
1000
1000
0010
0010
,
0100
0101
0010
0011
,
1010
0100
1000
0010
,
0101
0010
0001
0100
,
1010
0100
0101
0010
,
1001
0110
1001
0000
,
0010
0010
0100
0000
,
0100
0100
0010
0000
,
1000
0001
0100
0000
,
0100
0001
0010
0000
,
0001
0001
1000
0000
,
1000
1000
0010
0000
,
0110
0000
1001
0000
,
0020
0000
0100
0031
,
0100
0100
0010
0000
,
0010
0010
1000
0000
,
1000
1000
0100
0000
,
0010
0001
0100
0000
,
0100
0100
0010
0000
,
1000
1000
0100
0000
,
2000
0000
3001
0000
,
2002
0000
0000
3003
,
0110
0000
0000
0000
;

//---------------dance-single - hooky----------------
#NOTES:
     dance-single:
     :
     Hard:
     8:
     0.555802,0.480051,0.251007,0.087853,0.188255,283.000000,20.000000,7.000000,0.000000,0.000000,0.000000,0.555802,0.480051,0.251007,0.087853,0.188255,283.000000,20.000000,7.000000,0.000000,0.000000,0.000000:
0000
0000
0000
0000
,
1000
0010
0001
0010
1000
0100
1000
0000
,
0001
0100
1000
0100
0001
0010
0001
0000
,
2200
3300
0022
0033
,
2002
0000
0003
0000
0001
0001
3001
0000
,
1000
0100
1000
0000
0010
0100
0001
0000
,
0010
0001
0100
1000
0100
0001
0010
0001
,
1000
0000
0001
0000
0100
0010
1000
0000
,
0001
0001
0010
0000
0100
0100
0010
0000
,
1001
0000
0100
0000
0001
0010
0100
0000
,
1000
0000
1000
0000
0001
0010
0100
0000
,
1000
0010
0001
0010
,
1000
0001
1000
0010
,
1000
1100
0001
0011
,
0001
0100
0010
1000
0100
0010
0001
0100
,
0010
0010
0110
0000
1000
1000
1100
0000
,
0001
0010
0001
0100
0001
1000
0001
0100
,
0001
0001
0011
0000
1000
1000
1100
0000
,
0010
0010
0110
0000
0100
0100
1001
0000
,
1000
0010
0001
0010
1000
0010
0001
0010
,
2001
0001
0010
3100
,
1100
0000
0000
0000
1000
0000
0010
0000
0100
0000
0000
0100
0000
0000
0100
0000
,
0001
0000
0010
0000
0001
0000
0100
0000
0001
0000
0000
0001
0000
0000
0001
0000
,
1000
0000
0100
0000
1000
0000
0100
0000
0010
0000
0000
0010
0000
0000
0010
0000
,
0001
0100
0010
1000
0100
0001
0100
1000
,
0010
0000
0100
0000
0010
0000
1000
0000
0100
0000
0000
0100
0000
0000
0100
0000
,
0010
0000
0001
0000
0100
0000
0010
0000
1000
0000
0000
1000
0000
0000
1000
0000
,
0100
0000
0000
0000
0010
0000
0001
0000
0100
0000
0000
0100
0000
0000
0100
0000
,
0001
0100
1000
0100
0001
0001
1100
0000
,
0011
0000
0000
0000
0001
0000
0100
0000
0010
0000
0000
0010
0000
0000
0010
0000
,
1000
0000
0100
0000
1000
0000
0010
0000
1000
0000
0000
1000
0000
0000
1000
0000
,
0001
0000
0010
0000
0001
0000
0010
0000
0100
0000
0000
0100
0000
0000
0100
0000
,
1000
0010
0100
0001
0010
1000
0010
0001
,
0100
0000
0010
0000
0100
0000
0001
0000
0010
0000
0000
0010
0000
0000
0010
0000
,
0100
0000
1000
0000
0001
0000
0010
0000
0100
0000
0000
0100
0000
0000
0100
0000
,
0010
0000
0000
0000
0001
0000
0100
0000
0010
0000
0000
0010
0000
0000
0010
0000
,
1000
0000
0010
0000
0001
0000
0010
0000
1000
0000
0100
1000
0000
0100
1000
0000
,
1100
0000
1000
0000
1000
0000
0000
0010
0000
0100
0000
0000
0010
0000
0100
0000
,
0001
0000
0010
0000
0100
0000
0000
1000
0000
0100
0000
0000
0010
0000
0001
0000
,
0100
0000
0010
0000
1000
0000
0000
0100
0000
0001
0000
0000
0100
0000
1000
0000
,
0010
0100
0001
0001
1000
0000
1001
0000
,
0011
0000
0001
0000
0001
0000
0000
0100
0000
0010
0000
0000
0100
0000
0010
0000
,
1000
0000
0100
0000
0010
0000
0000
0001
0000
0010
0000
0000
0100
0000
1000
0000
,
0010
0000
0100
0000
0001
0000
0000
0010
0000
1000
0000
0000
0010
0000
0001
0000
,
0100
0000
0010
0000
1000
0000
1000
0001
0000
0001
0000
0001
0000
0100
0010
0000
,
1001
0000
0000
0000
;

//---------------dance-single - hooky----------------
#NOTES:
     dance-single:
     :
     Beginner:
     2:
     0.168533,0.197668,0.188255,0.025101,0.000000,77.000000,15.000000,2.000000,0.000000,0.000000,0.000000,0.168533,0.197668,0.188255,0.025101,0.000000,77.000000,15.000000,2.000000,0.000000,0.000000,0.000000:
0000
0000
0000
0000
,
1000
0000
0000
0000
,
0001
0000
0000
0000
,
1000
0000
0010
0000
,
0001
0000
0000
0000
,
1001
0000
0000
0000
,
0010
0000
0000
0000
,
0100
0000
0010
0000
,
0001
0001
0001
0000
,
0010
0000
0000
0000
,
1000
0000
0000
0000
,
0100
0000
0010
0000
,
0010
0000
0100
0000
,
1001
0000
0000
0000
,
0001
0000
0001
0000
,
0001
0000
0000
0000
,
0100
0000
0100
0000
,
0100
0000
1000
0000
,
0100
0000
0001
0000
,
0010
0000
0000
0000
,
2002
0000
0000
3003
,
1000
0000
0110
0000
,
0010
0000
1001
0000
,
1000
1000
1000
0000
,
0001
0001
0001
0000
,
0110
0000
0000
0000
,
1001
0000
0000
0000
,
0110
0000
0000
0000
,
1000
1000
1000
0000
,
0001
0000
0110
0000
,
0100
0000
1001
0000
,
0001
0001
0001
0000
,
1000
1000
1000
0000
,
0110
0000
0000
0000
,
1001
0000
0000
0000
,
0110
0000
0000
0000
,
0001
0001
0001
0000
,
0100
0000
0010
0000
,
0010
0000
1000
0000
,
1000
0000
0100
0000
,
0010
0000
0000
0000
,
0100
0000
0010
0000
,
1000
0000
0100
0000
,
1000
0000
0001
0000
,
1001
0000
0000
0000
,
1001
0000
0000
0000
;

//---------------dance-single - hooky----------------
#NOTES:
     dance-single:
     :
     Medium:
     6:
     0.367546,0.395336,0.175705,0.150604,0.000000,179.000000,14.000000,12.000000,0.000000,0.000000,0.000000,0.367546,0.395336,0.175705,0.150604,0.000000,179.000000,14.000000,12.000000,0.000000,0.000000,0.000000:
// measure 0
0000
0000
0000
0000
,  // measure 1
1000
1000
0001
0000
,  // measure 2
0001
0001
0100
0000
,  // measure 3
0010
0000
0100
0000
,  // measure 4
0220
0000
0000
0330
,  // measure 5
0010
1000
0100
1000
,  // measure 6
0010
0100
0001
0010
,  // measure 7
0001
0001
1000
1000
,  // measure 8
0010
0100
0001
1000
,  // measure 9
0010
0100
0001
0001
,  // measure 10
1000
0000
1000
1000
,  // measure 11
0020
0000
1000
1030
,  // measure 12
0002
0000
0100
0103
,  // measure 13
1000
0100
1000
0000
0010
0000
0010
0000
,  // measure 14
0100
0001
0010
0001
,  // measure 15
1000
0001
1000
0000
0100
0000
0100
0000
,  // measure 16
0010
1000
0100
0000
1000
0000
1000
0000
,  // measure 17
0010
0100
0001
0000
0010
0000
0010
0000
,  // measure 18
0001
1000
0010
0000
0100
0000
0100
0000
,  // measure 19
0020
0000
0100
0130
,  // measure 20
2002
0000
0000
3003
,  // measure 21
1000
0100
1000
0000
0010
0000
0010
0000
,  // measure 22
0100
0001
0010
0000
0001
0000
0001
0000
,  // measure 23
0100
0010
1000
0000
0100
0000
0100
0000
,  // measure 24
1000
0100
0001
0000
0001
0100
1000
0000
,  // measure 25
0010
0100
0001
0000
0011
0000
0011
0000
,  // measure 26
0010
1000
0100
0000
1100
0000
1100
0000
,  // measure 27
0010
0100
0010
0000
1001
0000
0110
0000
,  // measure 28
0010
1000
0100
0000
0011
0000
0101
0000
,  // measure 29
0010
0000
0010
0000
1000
0100
1000
0000
,  // measure 30
0010
0000
0010
0000
0100
0001
0010
0000
,  // measure 31
0001
0000
0001
0000
1000
0100
1000
0000
,  // measure 32
0010
0000
0100
0000
0001
1000
0010
0000
,  // measure 33
0100
0000
0100
0000
0100
0001
0010
0000
,  // measure 34
0001
0000
0001
0000
1000
0010
0100
0000
,  // measure 35
1001
0000
0110
0000
,  // measure 36
0020
0000
1000
1030
,  // measure 37
0010
0000
0010
0000
0100
0001
0010
0000
,  // measure 38
0001
0000
0001
0000
1000
0010
0100
0000
,  // measure 39
0001
0000
0001
0000
1000
0100
0010
0000
,  // measure 40
1000
0001
0100
0000
,  // measure 41
0010
0000
0010
0000
1000
0100
1000
0000
,  // measure 42
0001
0000
0010
0000
0100
0010
0100
0000
,  // measure 43
2000
0000
0002
3003
,  // measure 44
0220
0000
0000
0000
0000
0000
0000
0330
,  // measure 45
1001
0000
0000
0000
;
