#TITLE:?でわっしょい;
#SUBTITLE:;
#ARTIST:阿澄佳奈, 水橋 かおり, 後藤 邑子 & 新谷良子;
#TITLETRANSLIT:Hatena de Wasshoi;
#SUBTITLETRANSLIT:;
#ARTISTTRANSLIT:Asumi Kana, Mizuhashi Kaori, Gotou Yuuko & Shintani Ryouko;
#GENRE:;
#CREDIT:;
#BANNER:[Friendly Vowels] - Hatena de Wasshoi.png;
#BACKGROUND:[Friendly Vowels] - Hatena de Wasshoi-bg.png;
#LYRICSPATH:;
#CDTITLE:cdtitle.png;
#MUSIC:[Friendly Vowels] - Hatena de Wasshoi.ogg;
#OFFSET:-0.402;
#SAMPLESTART:55.108;
#SAMPLELENGTH:13.000;
#SELECTABLE:YES;
#BPMS:0.000=186.000
;
#STOPS:
;
#BGCHANGES:;
#KEYSOUNDS:;
#ATTACKS:;

//---------------dance-single - ----------------
#NOTES:
     dance-single:
     :
     Hard:
     8:
     0.659,0.591,0.751,0.257,0.000,336.000,70.000,24.000,0.000,0.000,0.000,0.659,0.591,0.751,0.257,0.000,336.000,70.000,24.000,0.000,0.000,0.000: // measure 0
0000
0000
0000
0000
,  // measure 1
0000
0000
0000
0000
,  // measure 2
1000
1000
1000
0000
0001
0001
0001
0000
,  // measure 3
1000
0100
0010
0002
0000
0000
0000
0000
,  // measure 4
1003
0000
1010
0000
0001
0100
0202
0000
,  // measure 5
0000
0303
0000
0001
0000
0001
1000
0001
,  // measure 6
1000
0001
1000
0001
1000
0000
1000
0100
,  // measure 7
0000
0020
0230
1300
0000
1000
0001
1000
,  // measure 8
0001
1000
0001
1000
0001
0000
0101
0000
,  // measure 9
1010
1000
0000
2001
0000
0000
3001
0000
,  // measure 10
1000
0000
1100
0000
0011
0000
0001
1000
,  // measure 11
0000
1010
0000
0000
0001
0000
0101
0000
,  // measure 12
1000
1100
1001
0000
,  // measure 13
0110
0000
1001
0000
0001
0100
0001
1000
,  // measure 14
0000
1000
0001
1000
0000
0010
0100
0001
,  // measure 15
0000
1000
0100
0000
1000
0000
1010
0000
,  // measure 16
0001
0100
0101
0000
0000
0000
1001
0000
,  // measure 17
0000
0000
1001
0000
1000
0100
1000
0001
,  // measure 18
0000
0101
0000
1010
0000
0001
0010
0100
,  // measure 19
0000
0010
0001
0000
1000
0000
1010
0000
,  // measure 20
0001
0100
0101
0000
2000
0000
3100
0000
,  // measure 21
0200
1300
0001
1001
,  // measure 22
0000
1000
1001
0000
0001
0000
0100
0000
,  // measure 23
0020
0000
1030
0100
0001
0100
1000
0010
,  // measure 24
0000
0101
0000
0001
1000
0000
0100
0000
,  // measure 25
1100
0000
0011
0000
1000
0000
0010
1000
,  // measure 26
0000
1001
0000
0000
0001
0000
0100
0010
,  // measure 27
2000
0000
0000
3001
0010
0100
0000
1100
,  // measure 28
0000
1000
0001
0100
0010
0000
1001
0000
,  // measure 29
0100
1001
0010
0101
,  // measure 30
1010
1001
0100
0100
,  // measure 31
0100
0100
0010
0010
,  // measure 32
0010
0010
0001
0001
,  // measure 33
0001
1000
0001
0100
0010
0000
0010
1000
,  // measure 34
0000
2002
0000
3003
0100
0000
1000
0010
,  // measure 35
0000
0001
0000
0010
0000
1000
0001
1000
,  // measure 36
0000
0001
0100
0001
0010
0000
0100
1000
,  // measure 37
0000
0010
0100
0001
1000
0100
0000
1100
,  // measure 38
0000
0011
0000
0000
0001
0000
1000
0020
,  // measure 39
0000
0100
0130
0010
1000
0000
0001
0020
,  // measure 40
0000
0100
0130
0010
0001
0000
0101
0000
,  // measure 41
0001
1001
1000
1010
,  // measure 42
0001
0100
0101
0001
0000
0001
1000
0100
,  // measure 43
1000
0100
1000
0100
1000
0000
1000
0001
,  // measure 44
0000
0200
0320
1030
0000
1000
0001
0010
,  // measure 45
0001
0010
0001
0010
0001
0000
0011
0000
,  // measure 46
1100
1000
0000
2001
0000
0000
3001
0000
,  // measure 47
1000
0000
1010
0000
0101
0000
0001
1001
,  // measure 48
0000
2000
3100
0001
0100
1000
0000
1100
,  // measure 49
0000
0011
0000
0101
0000
1001
0000
1100
,  // measure 50
0000
1001
0000
0010
0000
0010
0100
0001
,  // measure 51
0100
0001
0100
0001
0100
0000
0100
0001
,  // measure 52
0000
2000
3200
0310
0000
0010
0100
1000
,  // measure 53
0100
1000
0100
1000
0100
0000
1100
0000
,  // measure 54
1000
0010
0100
0002
0000
0000
1003
0000
,  // measure 55
0001
0000
0011
0000
1100
0000
1000
0001
,  // measure 56
0000
1001
0000
0000
0001
0000
0101
0000
,  // measure 57
1000
1100
1001
0000
,  // measure 58
0110
1001
0001
1000
,  // measure 59
0001
0100
0001
0000
1000
0001
1000
0001
,  // measure 60
0011
0000
1100
0000
0001
0100
0010
0000
,  // measure 61
0100
0001
0010
0000
0100
1000
0001
2000
,  // measure 62
0000
0000
3000
0000
0002
0000
1003
0010
,  // measure 63
0100
0000
0101
0000
1000
0100
0010
0200
,  // measure 64
0000
0000
0300
0000
1000
0100
1000
0001
,  // measure 65
1001
0000
0101
0000
1000
0100
1000
0001
,  // measure 66
0000
0101
0000
1010
0000
0001
0010
0100
,  // measure 67
0000
0010
0001
0000
1000
0000
1010
0000
,  // measure 68
0001
0100
0101
0000
0001
0001
0010
0100
;

//---------------dance-single - ----------------
#NOTES:
     dance-single:
     :
     Medium:
     6:
     0.529,0.480,0.418,0.139,0.000,293.000,39.000,13.000,0.000,0.000,0.000,0.529,0.480,0.418,0.139,0.000,293.000,39.000,13.000,0.000,0.000,0.000:
0000
0000
0000
0000
,
0000
0000
0000
0000
,
1000
0001
1000
0000
0001
1000
0001
0000
,
1000
0000
0001
0200
0000
0000
0300
0000
,
0001
0101
0001
1001
,
0000
0000
0000
1000
0000
0001
0100
0000
,
0100
0000
0100
0000
0100
0000
0010
1000
,
0000
0001
1000
0001
0000
1000
0100
0000
,
0100
0100
0100
1000
,
0001
0100
0000
2010
0000
0000
0000
0000
,
3001
0000
0100
0000
0001
0000
1000
0001
,
0000
1001
0000
0000
1000
0000
1100
0000
,
0001
0101
1001
0000
,
0110
0000
1001
0000
1000
0100
1000
0001
,
0000
0100
0000
0010
0000
1000
0001
1000
,
0000
0001
0010
0000
0001
0000
0101
0000
,
0001
1001
0000
0110
,
0000
0000
1001
0000
0001
0100
0001
1000
,
0000
0100
0000
0010
0000
0100
1000
0001
,
0000
0001
1000
0000
0001
0000
0101
0000
,
0001
1001
0002
0000
,
0023
0000
0031
1002
,
0000
1000
1003
0000
1000
0000
0100
0000
,
0010
0000
0001
0000
1000
0001
0100
0001
,
0000
0010
0000
0100
1000
0000
0001
0000
,
1000
0000
0010
0000
2000
0000
3100
0010
,
0000
0001
0000
1000
0001
0000
0100
0010
,
0100
0000
0001
0000
0010
0000
0100
1000
,
0000
1000
0001
0000
1000
0000
1010
0000
,
0001
0101
1000
1100
,
0011
1001
0001
0001
,
0001
0001
0100
0100
,
0100
0100
0010
0010
,
0010
0000
0010
1000
0010
0000
0100
0001
,
0000
2000
0000
0000
3001
0000
0100
0001
,
0000
0010
0000
0100
0000
1000
0001
1000
,
0000
0000
0010
0000
0100
0000
0001
1000
,
0000
1000
0100
0000
0010
0001
0000
1000
,
0000
1001
0000
0000
0001
0000
0100
0020
,
0000
0000
0030
0010
1000
0000
0100
0020
,
0000
0000
0030
0010
0001
0000
1000
0000
,
0010
1000
0001
0101
,
0001
0000
1001
1000
0000
0100
0010
0000
,
0010
0000
0010
0000
0010
0000
0100
1000
,
0000
1000
0001
1000
0000
0010
0100
0000
,
0100
0100
0100
0001
,
1000
0100
0000
0012
0000
0000
0000
0000
,
1003
0000
0010
0000
1000
0000
0001
1000
,
0000
1001
0000
0000
0001
0100
0000
0010
,
0000
1000
0000
1100
0000
1100
0000
0011
,
0000
0011
0000
1000
0000
0001
0100
0000
,
0100
0000
0100
0000
0100
0000
0010
1000
,
0000
0001
1000
0001
0000
1000
0100
0000
,
0100
0100
0100
0010
,
0001
1000
0010
2000
0000
0000
0000
0000
,
3001
0000
0100
0000
0001
0000
1000
0001
,
0000
1001
0000
0000
1000
0000
1100
0000
,
0001
0101
1001
0000
,
0110
1001
1000
1000
,
0001
0100
0001
0000
1000
0001
1000
0001
,
0100
0010
1000
0100
,
1000
0010
0100
0000
0001
0000
0001
0020
,
0000
0000
0000
0000
0130
0000
1000
0001
,
1000
0000
0001
0000
0100
0010
0100
0002
,
0000
0000
0000
0000
1003
0100
1000
0100
,
0010
0000
0011
0000
0001
0100
0001
1000
,
0000
0100
0000
0010
0000
0100
1000
0001
,
0000
0001
1000
0000
0001
0000
0101
0000
,
0001
0000
1001
0000
0001
0010
0100
1000
;

//---------------dance-single - ----------------
#NOTES:
     dance-single:
     :
     Easy:
     4:
     0.351,0.369,0.268,0.097,0.000,195.000,25.000,9.000,0.000,0.000,0.000,0.351,0.369,0.268,0.097,0.000,195.000,25.000,9.000,0.000,0.000,0.000:
0000
0000
0000
0000
,
0000
0000
0000
0000
,
1000
1000
0001
0001
,
1000
0200
0000
0000
,
1300
1000
0001
0101
,
0000
0000
0001
0001
,
0001
0001
0001
0000
,
1001
0000
1000
1000
,
1000
1000
1000
0001
,
1000
0000
1001
0000
,
0001
0100
0001
0000
,
1010
0000
1000
1000
,
0100
0100
0020
0000
,
0031
1000
0001
0001
,
0100
0000
0010
1000
,
0001
0000
1000
1000
,
0001
0101
0000
1010
,
0000
1001
0001
0001
,
0010
0000
0100
1000
,
0001
0000
1000
1000
,
0001
0202
0000
0000
,
0000
0303
1000
2002
,
0000
3003
0001
0100
,
0001
0000
1000
0100
,
0010
0001
1000
0010
,
1000
0000
0001
0100
,
0010
1000
0001
0001
,
0010
0000
0001
0000
,
1001
0000
1000
0010
,
0100
0010
1000
1000
,
0001
0001
2000
0000
,
0000
0000
3200
0000
,
0000
0000
0320
0000
,
0000
0000
0031
0000
,
1000
0000
0001
0100
,
0001
0000
1000
0100
,
1000
0000
0001
0100
,
0010
0000
1000
0000
,
1001
0000
0001
0000
,
0101
0000
1000
0000
,
1100
0000
1000
1000
,
0001
0001
1000
1000
,
0001
0101
0100
0100
,
0100
0100
0100
0000
,
0101
0000
0010
0010
,
0010
0010
0010
0000
,
1000
0000
1001
0000
,
0001
0010
0001
0000
,
1100
0000
1000
1000
,
0001
0001
0101
0000
,
1010
0000
0001
0001
,
0001
0001
0001
0000
,
1001
0000
1000
1000
,
1000
1000
1000
0000
,
0001
0000
1001
0000
,
1000
0010
1000
0000
,
0101
0000
0001
0001
,
1000
1000
1100
0000
,
0001
0100
0001
0001
,
1000
1000
0001
1000
,
0001
0010
0001
0000
,
1000
0000
0001
0100
,
0001
0000
1000
0001
,
1000
0000
0001
0010
,
0001
0000
1000
0100
,
1000
0000
0001
0001
,
0010
0000
0100
1000
,
0001
0000
1000
1000
,
0001
0101
0001
1001
;
