#TITLE:Give Me All Your Luvin';
#SUBTITLE:;
#ARTIST:Madonna feat. M.I.A. & Nicki Minaj;
#TITLETRANSLIT:;
#SUBTITLETRANSLIT:;
#ARTISTTRANSLIT:;
#CREDIT:hooky;
#BANNER:Give Me All Your Luvin.png;
#BACKGROUND:Give Me All Your Luvin-bg.png;
#LYRICSPATH:;
#CDTITLE:;
#MUSIC:Give Me All Your Luvin.ogg;
#OFFSET:-0.262;
#SAMPLESTART:48.280;
#SAMPLELENGTH:15.000;
#SELECTABLE:YES;
#BPMS:0.000=145.000,180.000=72.500,228.000=145.000;
#STOPS:;
#BGCHANGES:;

//---------------dance-single - hooky----------------
#NOTES:
     dance-single:
     hooky:
     Hard:
     8:
     0.497,0.749,0.440,0.239,0.174:
0000
0000
0000
0000
,
0000
0000
0000
0000
,
0000
0000
0000
0000
,
0000
0000
0000
0000
,
0000
0000
0000
0000
,
1000
0000
0100
0000
1000
0100
1000
0000
,
0010
0000
0001
0000
0010
0001
0010
0000
,
1100
0000
0011
0000
0100
0010
0100
0000
,
1010
0000
0101
0000
0010
0100
0010
0000
,
0100
0000
0001
0000
0100
0010
1000
0000
,
1000
0000
0100
0000
0010
0001
0100
0000
,
0110
0000
0011
0000
1000
0100
1000
0000
,
0110
0000
0101
0000
0010
0001
0100
0000
,
2000
0100
0010
0100
,
0001
0010
0001
3100
,
0002
0010
1000
0103
,
2000
0100
0010
3001
,
0200
1000
0010
1000
,
0001
0010
1000
1300
,
0020
0100
0001
1000
,
0100
0001
0100
1030
,
0100
0010
0000
1000
0000
1000
0000
0010
,
0001
0010
0000
0100
0000
0100
0000
0001
,
0010
0001
0000
1000
0000
1000
1000
0000
,
2000
0010
0100
3001
,
0010
0100
0000
0001
0000
0001
0000
0100
,
1000
0100
0000
0010
0000
0010
0000
1000
,
0100
1000
0000
0001
0000
0001
0001
0000
,
0002
0100
0010
1003
,
1000
0100
1000
0100
1000
0100
1000
0000
,
0010
0001
0010
0001
0011
0000
0011
0000
,
0100
0010
0100
0010
0110
0000
0110
0000
,
2000
0001
0010
3100
,
0001
0010
0001
0010
0011
0000
0011
0000
,
0100
1000
0100
1000
1100
0000
1100
0000
,
0010
0100
0010
0000
0110
0000
0110
0000
,
1001
0000
0100
0010
0000
0010
0100
0000
,
1000
0000
1100
0000
0010
0001
0010
0000
,
0010
0100
0010
1000
0100
0010
0100
0000
,
0100
0010
0100
0010
0100
0001
0010
0001
,
0100
0010
0100
0001
1000
0100
0010
0000
,
1000
0100
1000
0010
0200
0010
0310
0000
,
0010
0001
1000
0100
0020
0100
0130
0000
,
2000
0100
3100
0000
0002
0010
0013
0000
,
0220
0330
2002
3003
,
1001
0000
0000
1001
0000
0000
1001
0000
0110
0000
0000
0000
0001
0000
0000
0000
0100
0000
0010
0000
0100
0000
0000
0000
2200
0000
0000
0000
3300
0000
0000
0000
,
0002
0000
0003
0000
1001
0000
0100
0000
0010
0000
0000
0200
0020
0000
0330
0000
,
0110
0000
0000
0110
0000
0000
0110
0000
1001
0000
0000
0000
0110
0000
0000
0000
0001
0000
0010
0000
0001
0000
0000
0000
2200
0000
0000
0000
3300
0000
0000
0000
,
0010
0000
0100
0000
0001
0010
0001
0000
0200
0000
0000
0000
0010
0010
0300
0000
,
1000
0100
1000
0100
1100
0000
1100
0000
0010
0001
0010
0001
0011
0000
0011
0000
,
0100
0001
1000
0100
0010
0001
0100
0010
1000
0100
1000
0000
1100
0000
0011
0000
,
0100
0010
0100
0000
0110
0000
0110
0000
1000
0100
1000
0000
2200
0000
3300
0000
,
0010
0001
0010
0000
0011
0000
0110
0000
1000
0100
1000
0100
0220
0000
0330
0000
,
0010
0100
0000
0001
0000
0001
0000
0100
1000
0100
0000
0010
0000
0010
0000
1000
,
0100
1000
0000
0001
0000
0001
0001
0000
0002
0000
0100
0000
0010
0000
1003
0000
,
0100
0010
0000
1000
0000
1000
0000
0010
0001
0010
0000
0100
0000
0100
0000
0001
,
0010
0001
0000
1000
0000
1000
1000
0000
2000
0000
0010
0000
0100
0000
3001
0000
,
0001
0010
0001
0010
0001
0010
0001
0000
,
0100
1000
0100
1000
1100
0000
1100
0000
,
0010
0100
0010
0100
0110
0000
0110
0000
,
0002
1000
0100
0013
,
1000
0100
1000
0100
1100
0000
1100
0000
,
0010
0001
0010
0001
0011
0000
0011
0000
,
0100
0010
0100
0000
0110
0000
0110
0000
,
1001
0000
0010
0100
0000
0100
0010
0000
;

//---------------dance-single - hooky----------------
#NOTES:
     dance-single:
     hooky:
     Medium:
     5:
     0.327,0.450,0.255,0.216,0.000: // measure 1
0000
0000
0000
0000
,  // measure 2
0000
0000
0000
0000
,  // measure 3
0000
0000
0000
0000
,  // measure 4
0000
0000
0000
0000
,  // measure 5
0000
0000
0000
0000
,  // measure 6
1000
0100
1000
0010
,  // measure 7
0100
0001
0010
0001
,  // measure 8
0100
0000
0100
0000
,  // measure 9
0010
0000
0000
0100
0010
0100
0000
0000
,  // measure 10
0001
0001
1000
0100
,  // measure 11
0010
0100
0001
0100
,  // measure 12
0100
0000
0010
0000
,  // measure 13
0100
0000
0000
1000
0001
1000
0000
0000
,  // measure 14
0100
0010
1000
0100
,  // measure 15
1000
0010
0100
0001
,  // measure 16
0010
0001
0100
0010
,  // measure 17
2000
0000
0002
3003
,  // measure 18
0100
0010
1000
0100
,  // measure 19
0010
0001
0010
0001
,  // measure 20
0100
0010
1000
0100
,  // measure 21
0010
0010
0100
0100
,  // measure 22
2002
3003
0001
0001
,  // measure 23
2000
3000
1000
1000
,  // measure 24
0010
0010
0100
0100
,  // measure 25
0220
0000
0000
0330
,  // measure 26
0001
0000
0001
0001
,  // measure 27
1000
0000
1000
1000
,  // measure 28
0100
0100
0010
0010
,  // measure 29
2002
0000
0000
3003
,  // measure 30
1000
0100
1000
0100
,  // measure 31
0010
0001
0011
0011
,  // measure 32
0100
0010
0100
0010
,  // measure 33
0110
1010
0202
0303
,  // measure 34
0010
0001
0100
0010
,  // measure 35
1000
0100
1000
0010
,  // measure 36
0100
0100
0020
0030
,  // measure 37
0001
0001
1000
0001
,  // measure 38
0100
0100
0010
0010
,  // measure 39
0100
0010
1000
0100
,  // measure 40
1000
0010
0100
0001
,  // measure 41
0010
0001
1000
0010
,  // measure 42
0220
0330
1000
1000
,  // measure 43
0001
0100
0022
0033
,  // measure 44
0100
0010
2200
3300
,  // measure 45
0022
0033
0100
0100
,  // measure 46
0110
0000
0110
0000
0001
1000
0001
0000
,  // measure 47
0100
0110
1000
1010
,  // measure 48
0001
0001
0101
0000
0100
0100
0110
0000
,  // measure 49
0010
0010
1010
0000
1100
0000
1010
0000
,  // measure 50
0100
0100
0110
0100
0001
1000
0100
0010
,  // measure 51
1000
0100
1000
0010
0100
0001
0010
0010
,  // measure 52
0001
0100
0010
1000
0100
1000
0010
0100
,  // measure 53
0001
0001
1000
1000
0010
0100
0110
0110
,  // measure 54
1000
1000
0001
0001
,  // measure 55
1000
1000
2002
3003
,  // measure 56
0100
0100
0010
0010
,  // measure 57
0100
0010
0100
0010
0220
0000
0330
0000
,  // measure 58
0001
0010
0001
0010
,  // measure 59
0100
1000
1100
1100
,  // measure 60
0010
0100
0010
0100
,  // measure 61
0110
0101
2020
3030
,  // measure 62
0100
1000
0010
0100
,  // measure 63
0001
0010
0001
0100
,  // measure 64
0010
0010
0220
0330
,  // measure 65
1000
1000
0001
1001
;

//---------------dance-single - hooky----------------
#NOTES:
     dance-single:
     hooky:
     Easy:
     3:
     0.224,0.275,0.185,0.139,0.000:
0000
0000
0000
0000
,
0000
0000
0000
0000
,
0000
0000
0000
0000
,
0000
0000
0000
0000
,
0000
0000
0000
0000
,
1000
0000
1000
0000
,
0010
0010
0100
0100
,
0110
0000
0110
0000
,
1001
0000
1001
0000
,
1000
0000
0010
0000
,
0100
0001
0100
0000
,
0110
0000
1010
0000
,
0101
0000
1100
0000
,
0010
0001
0100
0000
,
0010
1000
0100
0000
,
0100
0000
0010
0000
,
0220
0000
0000
0330
,
0001
0000
1000
0000
,
0010
0000
0100
0000
,
0001
1000
0001
0010
,
0100
0000
0100
0010
,
0100
0000
1000
0000
,
0001
0000
1000
0000
,
0010
0000
0100
0000
,
0220
0000
0000
0330
,
0001
0000
1000
0000
,
0100
0000
0010
0000
,
0001
0001
1000
1000
,
2002
0000
0000
3003
,
0100
0000
0010
0000
,
0100
0100
0110
0000
,
0001
0000
1000
0010
,
2002
0000
0000
3003
,
0100
0000
0010
0000
,
1000
0010
0100
0000
,
0001
0010
0001
0000
,
0100
0010
0001
0100
,
1001
0000
0010
0000
,
0100
0000
0100
0000
,
0010
0000
0100
0000
,
0001
1000
2002
3003
,
0100
0000
0010
0000
,
1000
0100
1000
0000
,
0010
0100
0001
0000
,
2002
0000
0000
3003
,
0100
0010
0100
0010
,
0100
0110
0010
0110
,
0010
0001
1000
0100
,
0010
0001
1000
0110
,
0001
1000
0100
0010
,
0100
1000
0010
0100
,
0001
0010
0001
0100
,
0010
1000
0010
0110
,
0001
1000
0100
1000
,
0010
0100
2002
3003
,
0100
0010
0100
0010
,
0100
0010
2002
3003
,
0010
0000
0100
0000
,
0010
0010
0110
0000
,
1000
0000
0001
0100
,
2002
0000
0000
3003
,
0010
0000
0100
0000
,
0001
0100
0010
0000
,
1000
0100
1000
0000
,
0010
0100
1000
0010
;

//---------------dance-single - hooky----------------
#NOTES:
     dance-single:
     hooky:
     Beginner:
     1:
     0.129,0.174,0.154,0.031,0.000:
0000
0000
0000
0000
,
0000
0000
0000
0000
,
0000
0000
0000
0000
,
0000
0000
0000
0000
,
0000
0000
0000
0000
,
1000
0000
0000
0000
,
0010
0000
0100
0000
,
0110
0000
0000
0000
,
1001
0000
0000
0000
,
1000
0000
0000
0000
,
0100
0000
0100
0000
,
0110
0000
0000
0000
,
1001
0000
0000
0000
,
0010
0000
0100
0000
,
0010
0000
0100
0000
,
0100
0000
0010
0000
,
0110
0000
0000
0000
,
0001
0000
0000
0000
,
0010
0000
0000
0000
,
0001
0000
0001
0000
,
0100
0000
0000
0000
,
0100
0000
0000
0000
,
0001
0000
0000
0000
,
0010
0000
0000
0000
,
0110
0000
0000
0000
,
0001
0000
0000
0000
,
0100
0000
0000
0000
,
0001
0000
1000
0000
,
2002
0000
0000
3003
,
0100
0000
0000
0000
,
0100
0000
0110
0000
,
0001
0000
1000
0000
,
1001
0000
0000
0000
,
0100
0000
0000
0000
,
1000
0000
0100
0000
,
0001
0000
0001
0000
,
0100
0000
0001
0000
,
1001
0000
0000
0000
,
0100
0000
0000
0000
,
0010
0000
0000
0000
,
0001
0000
1001
0000
,
0100
0000
0000
0000
,
1000
0000
1000
0000
,
0010
0000
0001
0000
,
2002
0000
0000
3003
,
0100
0000
0010
0000
,
0100
0000
0000
0110
,
1001
0000
1000
0000
,
0010
0000
1000
0110
,
0001
0000
0100
0000
,
0010
0000
0100
0000
,
0001
0000
1000
0000
,
0010
0000
0100
0110
,
0001
0000
0100
0000
,
0010
0000
1001
0000
,
0100
0000
0010
0000
,
0100
0000
1001
0000
,
0010
0000
0000
0000
,
0010
0000
0110
0000
,
1000
0000
0000
0000
,
1001
0000
0000
0000
,
0010
0000
0000
0000
,
0001
0000
0010
0000
,
1000
0000
1000
0000
,
0010
0000
0001
0000
;
