#TITLE:E Raffaella e mia;
#SUBTITLE:;
#ARTIST:Tiziano Ferro;
#TITLETRANSLIT:E Raffaella e mia;
#SUBTITLETRANSLIT:;
#ARTISTTRANSLIT:;
#GENRE:;
#CREDIT:;
#BANNER:[Friendly Vowels] - E Raffaella e mia.png;
#BACKGROUND:;
#LYRICSPATH:;
#CDTITLE:;
#MUSIC:[Friendly Vowels] - E Raffaella e mia.mp3;
#OFFSET:-0.065557;
#SAMPLESTART:36.920002;
#SAMPLELENGTH:15.000000;
#SELECTABLE:YES;
#BPMS:0.000000=125.999992
;
#STOPS:
;
#BGCHANGES:0.000=[Friendly Vowels] - E Raffaella e mia.avi=1.000=0=0=0=StretchNoLoop====,
99999=-nosongbg-=1.000=0=0=0 // don't automatically add -songbackground-
;
#KEYSOUNDS:;
#ATTACKS:;

//---------------dance-single - ----------------
#NOTES:
     dance-single:
     :
     Easy:
     3:
     0.245238,0.206000,0.157361,0.000000,0.000000,109.000000,11.000000,0.000000,0.000000,0.000000,0.000000,0.245238,0.206000,0.157361,0.000000,0.000000,109.000000,11.000000,0.000000,0.000000,0.000000,0.000000:
0000
0000
0000
0000
,
1000
0000
1000
0000
,
0001
0000
0001
0000
,
0010
0000
0010
0000
,
0100
0000
0100
0000
,
1000
0000
0010
0000
,
1000
0000
0001
0000
,
0010
0000
0100
0000
,
0010
0000
0001
0000
,
0100
0110
0010
0000
,
0010
0010
1000
0000
,
1000
1000
0001
0000
,
0001
0001
0010
0000
,
0100
0110
0100
0000
,
1000
1000
0001
0000
,
0001
0001
0100
0000
,
1000
0100
0001
0100
,
0010
1000
0010
0001
,
0010
1000
0100
0001
,
0100
0000
0010
0010
,
0100
1000
0001
0100
,
0110
0000
0100
0100
,
0001
0010
0100
1000
,
1001
0000
1000
1000
,
0010
0110
0000
0100
,
0001
0001
1000
1000
,
0100
0110
0000
0010
,
0001
0100
0001
1000
,
0100
0100
0010
0010
,
0011
0000
0001
0001
,
1000
0010
0001
0010
,
0110
0000
0010
0010
,
1000
1100
0000
0100
,
0010
0001
0100
0001
,
0010
0011
0000
0010
,
0100
0100
1000
0001
,
1001
0000
0000
0000
;

//---------------dance-single - ----------------
#NOTES:
     dance-single:
     :
     Hard:
     8:
     0.543610,0.489249,0.514999,0.028611,0.164514,228.000000,36.000000,2.000000,0.000000,0.000000,0.000000,0.543610,0.489249,0.514999,0.028611,0.164514,228.000000,36.000000,2.000000,0.000000,0.000000,0.000000:
0000
0000
0000
0000
0000
0000
0000
0000
0000
0000
0000
0000
0000
0000
0000
0001
,
0010
0000
0100
0000
0010
0000
0010
0000
0001
0000
0000
0000
1000
0000
0000
0001
,
0000
1000
0010
0000
0100
0000
0100
0000
0010
0000
0000
0000
1000
0000
0000
0001
,
0000
0010
0100
0000
0010
0000
0010
0000
0100
0000
0000
0000
1000
0000
0000
0001
,
0000
1000
0010
0000
0100
0000
0100
0000
0001
0000
0000
0000
0010
0000
0000
0100
,
0010
0000
0001
0000
1000
0000
0010
0000
1000
0000
0000
0000
0001
0000
0000
1000
,
0000
0010
0100
0000
0001
0000
0001
0000
0010
0000
0000
0000
0100
0000
0000
0010
,
0000
0001
1000
0000
0010
0000
0010
0000
0100
0000
0000
0000
0001
0000
0000
1000
,
0000
0000
0001
0000
0010
0000
0000
0100
0000
0100
0000
0000
1000
0000
0001
0100
,
0000
0001
1010
1000
0001
0000
0010
0010
,
0100
0000
1000
0100
0001
0100
1000
0010
,
0001
0000
0010
0010
0100
0000
0001
0001
,
0010
0000
0100
0010
0001
1000
0010
0100
,
0001
1000
0011
0001
0100
0000
0100
0100
,
0010
0000
1000
0010
0001
0010
1000
0100
,
0001
0000
0100
0100
0010
0000
0100
0100
,
1100
0000
0000
0000
0110
0000
0000
0000
0011
0000
0000
0000
0001
0010
0100
1000
,
0001
0000
0000
0000
0101
0000
0000
0000
0110
0000
0000
0000
0010
1000
0001
0010
,
0100
0000
0000
0000
0110
0000
0000
0000
1001
0000
0000
0000
1000
0010
0100
0001
,
1000
0000
0000
0001
0010
0001
0100
0010
,
0110
0000
1010
0000
0101
0000
0001
0010
,
0001
0100
0001
1000
0001
0010
0100
0010
,
0110
0000
1001
0000
1100
0000
1000
0010
,
1000
0100
1000
0001
1000
0010
1000
0001
,
0100
1010
1010
1010
,
1001
0000
0001
0010
0100
0001
1000
0010
,
0001
1100
1100
1100
,
1001
0000
0001
0100
0010
0100
0010
1000
,
1100
0000
1001
0000
0201
0000
0310
0100
,
0010
1000
0010
0100
0010
0001
0010
1000
,
1001
0000
0011
0000
0120
0000
0130
0010
,
0100
0001
0100
0010
0100
1000
0100
0010
,
0001
1010
1010
1010
,
1001
0000
0001
0010
0100
1000
0010
0100
,
0010
0101
0101
0101
,
0001
0000
1000
0000
0100
0000
1000
0000
0001
0000
0001
0000
0000
0000
0100
0010
,
0100
0000
0000
0000
;

//---------------dance-single - ----------------
#NOTES:
     dance-single:
     :
     Medium:
     5:
     0.373988,0.309000,0.114444,0.000000,0.000000,175.000000,8.000000,0.000000,0.000000,0.000000,0.000000,0.373988,0.309000,0.114444,0.000000,0.000000,175.000000,8.000000,0.000000,0.000000,0.000000,0.000000:
0000
0000
0000
0000
,
0010
1000
0010
1000
0001
0000
0010
0000
,
0001
0010
0001
0010
0100
0000
0010
0000
,
0001
1000
0001
1000
0010
0000
0100
0000
,
0010
1000
0010
1000
0100
0000
0010
0000
,
0100
1000
0100
1000
0001
0000
0100
0000
,
0001
0100
0001
0100
0010
0000
1000
0000
,
0001
1000
0001
1000
0010
0000
0100
0000
,
0001
0011
0000
1100
,
1000
0000
1001
0000
0001
0000
0010
0100
,
0010
0000
0100
1000
0100
0000
1000
0001
,
1000
0000
0001
0100
0001
0000
0100
0010
,
0100
0000
0010
1000
0010
0000
1000
0001
,
1000
0000
1001
0000
0001
0000
0010
0100
,
0010
0000
0100
1000
0100
0000
1000
0001
,
1000
0000
0001
0100
0001
0000
0100
0010
,
0100
0000
0010
0000
1000
0000
0001
0010
,
0100
0000
1000
0000
0001
0000
0010
0001
,
0100
0000
0010
0000
1000
0000
0001
1000
,
0001
0000
0000
0010
0100
0010
0100
0000
,
1000
0000
1000
0000
0001
0000
0001
0100
,
0000
0010
0000
1000
0000
0001
0000
0000
,
0010
0000
0010
0000
0100
0000
0100
1000
,
0000
0001
0000
0100
0001
0100
0001
0000
,
0010
0000
0110
0000
0100
0000
0000
1000
,
0000
0001
0000
1000
0000
0001
0000
0000
,
0100
0000
0110
0000
0010
0000
0000
1000
,
0000
0001
0000
1000
0010
1000
0010
0000
,
0100
0000
0100
0000
0001
0000
0001
1000
,
0000
0010
0000
0100
0000
0010
0000
0000
,
1000
0000
1000
0000
0100
0000
0100
0010
,
0000
0001
0000
0100
0001
0100
0001
0000
,
1000
0000
1001
0000
1000
0000
0000
0010
,
0000
0010
0000
0100
0000
0100
0000
0000
,
0001
0000
1001
0000
1000
0000
0000
0100
,
0000
0100
0010
0100
0010
0010
0000
0001
,
0100
0000
0000
0000
;

//---------------dance-single - ----------------
#NOTES:
     dance-single:
     :
     Beginner:
     1:
     0.077659,0.103000,0.042917,0.000000,0.000000,35.000000,3.000000,0.000000,0.000000,0.000000,0.000000,0.077659,0.103000,0.042917,0.000000,0.000000,35.000000,3.000000,0.000000,0.000000,0.000000,0.000000:
// measure 0
0000
0000
0000
0000
,  // measure 1
0000
0000
0000
0000
,  // measure 2
0000
0000
0000
0000
,  // measure 3
0000
0000
0000
0000
,  // measure 4
0000
0000
0000
0000
,  // measure 5
1000
0000
0000
0000
,  // measure 6
1000
0000
0000
0000
,  // measure 7
0001
0000
0000
0000
,  // measure 8
0001
0000
0000
0000
,  // measure 9
0000
0110
0000
0000
,  // measure 10
0100
0000
0000
0000
,  // measure 11
0100
0000
0000
0000
,  // measure 12
0100
0000
0000
0000
,  // measure 13
0000
1001
0000
0000
,  // measure 14
0001
0000
0000
0000
,  // measure 15
0001
0000
0000
0000
,  // measure 16
0001
0000
0001
0000
,  // measure 17
1000
0000
1000
0000
,  // measure 18
0010
0000
0010
0000
,  // measure 19
0100
0000
0000
0000
,  // measure 20
0001
0000
0000
0000
,  // measure 21
0001
0000
0000
0000
,  // measure 22
1000
0000
0000
0000
,  // measure 23
1000
0000
0000
0000
,  // measure 24
0010
0010
0000
0000
,  // measure 25
0000
0000
0000
0000
,  // measure 26
0010
0010
0000
0000
,  // measure 27
0000
0000
0000
0000
,  // measure 28
0100
0000
0000
0000
,  // measure 29
0100
0000
0000
0000
,  // measure 30
0001
0000
0000
0000
,  // measure 31
0001
0000
0000
0000
,  // measure 32
1000
1000
0000
0000
,  // measure 33
0000
0000
0000
0000
,  // measure 34
1000
1000
0000
0000
,  // measure 35
0000
0000
0000
0000
,  // measure 36
1001
0000
0000
0000
;
