#TITLE:ChaiN De/structioN;
#SUBTITLE:;
#ARTIST:キョトンP;
#TITLETRANSLIT:;
#SUBTITLETRANSLIT:;
#ARTISTTRANSLIT:kyotnP;
#GENRE:;
#CREDIT:Meseki;
#MENUCOLOR:0.0,0.3,0.8,1.0;
#BANNER:ChaiN DestructioN-bn.png;
#BACKGROUND:ChaiN DestructioN-bg.png;
#LYRICSPATH:;
#CDTITLE:cdtitle.png;
#MUSIC:ChaiN DestructioN.mp3;
#OFFSET:-0.037;
#SAMPLESTART:93.830;
#SAMPLELENGTH:23.448;
#SELECTABLE:YES;
#LISTSORT:;
#DISPLAYBPM:174.000;
#BPMS:0.000=174.000,63.000=348.000,64.000=174.000,160.000=43.500,161.250=87.000,161.500=174.000,267.000=348.000,268.000=174.000;
#STOPS:63.000=0.043
,63.250=0.043
,63.500=0.043
,63.750=0.043
,267.000=0.043
,267.250=0.043
,267.500=0.043
,267.750=0.043
;
#TICKCOUNT:0.000=2;
#BGCHANGES:;
#KEYSOUNDS:;
#ATTACKS:;

//---------------dance-single - ----------------
#NOTES:
     dance-single:
     :
     Medium:
     5:
     0.225,0.252,0.074,0.060,0.000: // measure 1
0000
0000
0000
0000
,  // measure 2
0000
0000
0000
0000
,  // measure 3
0000
0000
0000
0000
,  // measure 4
0000
0000
0000
0000
,  // measure 5
0000
0000
0000
0000
,  // measure 6
0000
0000
0000
0000
,  // measure 7
0000
0000
0000
0000
,  // measure 8
0000
0000
0000
0000
,  // measure 9
1000
0001
0000
0000
0100
0000
0000
0010
,  // measure 10
0000
1000
0000
0000
,  // measure 11
0000
0100
0000
0000
0010
0000
0000
0000
,  // measure 12
0000
0001
0000
0000
,  // measure 13
1000
0010
0000
0000
0100
0000
0000
0001
,  // measure 14
0000
0000
0010
0000
0000
0000
0000
0001
,  // measure 15
0100
0010
0000
0000
,  // measure 16
2000
0000
0000
3001
,  // measure 17
0100
0000
0000
0100
0000
0000
0000
0010
,  // measure 18
0000
1000
0010
0000
,  // measure 19
0100
0000
0000
0100
0000
0000
0000
0001
,  // measure 20
0000
0010
0001
0000
,  // measure 21
1000
0000
0000
1000
0000
0000
0000
0010
,  // measure 22
0000
0100
0010
0000
,  // measure 23
1000
0000
0000
1000
0000
0000
0000
0001
,  // measure 24
0000
0010
0001
0000
,  // measure 25
1000
0000
0000
0100
0000
0000
0000
0010
,  // measure 26
0000
0001
0010
0000
,  // measure 27
0001
0000
0000
0100
0000
0000
0000
0010
,  // measure 28
0000
1000
0010
0000
,  // measure 29
0100
0000
0000
0010
0000
0000
0000
1000
,  // measure 30
0000
0001
1000
0000
,  // measure 31
0100
0000
0000
0010
0000
0000
0000
0001
,  // measure 32
0000
0100
1000
0000
,  // measure 33
0100
0010
0000
0000
1000
0000
0000
0001
,  // measure 34
0000
0010
0000
0001
,  // measure 35
0000
0000
1000
0000
0000
1000
0000
0100
,  // measure 36
1000
0010
0000
0100
,  // measure 37
0000
0001
0000
0000
0100
0000
0000
0010
,  // measure 38
0000
1000
0000
0100
,  // measure 39
0000
0000
0010
0000
0000
0010
0000
0001
,  // measure 40
0010
0100
0000
1000
,  // measure 41
1001
0000
0000
0001
,  // measure 42
0100
0000
0010
0000
0000
0010
0000
1000
,  // measure 43
0001
0010
0000
0100
,  // measure 44
1000
0010
0000
0000
0100
0000
0000
0001
,  // measure 45
0000
0010
0000
0001
,  // measure 46
0100
0010
0000
0000
1000
0000
0000
0000
,  // measure 47
0000
0000
0000
0000
0001
0010
0100
0000
,  // measure 48
0110
0000
0000
0100
0000
0000
1000
0000
,  // measure 49
0000
0000
0000
0000
0000
0010
0100
0000
,  // measure 50
0001
0000
0000
1000
0000
0000
1100
0000
,  // measure 51
0000
0000
0100
0000
,  // measure 52
0010
0000
0000
0001
0000
0000
0101
0000
,  // measure 53
0000
0000
0000
0100
,  // measure 54
0010
0000
0000
1000
0000
0000
1001
0000
,  // measure 55
0000
0000
0001
0010
,  // measure 56
0100
0000
0000
1000
0000
0000
1010
0000
,  // measure 57
0000
0000
0000
0010
,  // measure 58
0100
0000
0000
0001
0000
0000
0011
0000
,  // measure 59
0000
0000
0100
0000
,  // measure 60
1000
0000
0000
0010
0000
0000
0110
0000
,  // measure 61
0000
0000
0000
0001
,  // measure 62
0010
0000
0000
0100
0000
0000
1001
0000
,  // measure 63
0000
0000
0000
1000
0010
0000
0000
0000
,  // measure 64
0200
0000
0000
0000
,  // measure 65
0000
0000
0000
0000
0000
0000
0000
0300
,  // measure 66
0000
0000
0000
0000
,  // measure 67
0002
0000
0000
1003
,  // measure 68
0100
0000
0000
0100
0000
0000
0000
0010
,  // measure 69
0000
0100
0010
0000
0001
0000
0000
0000
,  // measure 70
0100
0000
0000
0100
0000
0000
0000
0010
,  // measure 71
0000
0100
0010
0000
1000
0000
0000
0000
,  // measure 72
0001
0000
0000
0001
0000
0000
0000
1000
,  // measure 73
0000
0010
1000
0000
0100
0000
0000
0000
,  // measure 74
0010
0000
0000
0010
0000
0000
0000
0001
,  // measure 75
0000
0100
0001
0000
1000
0000
0000
0000
,  // measure 76
0100
0000
0000
0100
0000
0000
0100
0010
,  // measure 77
0000
0010
0100
0000
1000
0000
0000
0000
,  // measure 78
0001
0000
0000
0001
0000
0000
0100
0010
,  // measure 79
0000
0010
0100
0000
0001
0000
0000
0000
,  // measure 80
1000
0000
0000
0100
0000
0000
1000
0010
,  // measure 81
0000
0100
0001
0000
1000
0000
0000
0000
,  // measure 82
0001
0000
0000
0100
0000
0000
0001
0010
,  // measure 83
0000
0100
1000
0000
0001
0000
0000
0000
,  // measure 84
1200
0000
0000
0010
0000
0000
0000
0001
,  // measure 85
0000
1000
1300
0000
,  // measure 86
0001
0000
0000
0100
0000
0000
0000
0010
,  // measure 87
0000
1000
0001
1000
,  // measure 88
0020
0000
0000
0001
0000
0000
0000
1030
,  // measure 89
0000
0000
0000
0001
0010
0000
0000
0100
,  // measure 90
2000
0000
0000
0010
0000
0000
3000
0001
,  // measure 91
0200
0000
0010
0300
,  // measure 92
2002
0000
0000
0000
,  // measure 93
0000
0000
0000
0000
,  // measure 94
0000
0000
0000
0000
,  // measure 95
3003
0000
0000
0000
;

//---------------dance-single - ----------------
#NOTES:
     dance-single:
     :
     Easy:
     3:
     0.164,0.220,0.074,0.080,0.000: // measure 1
0000
0000
0000
0000
,  // measure 2
0000
0000
0000
0000
,  // measure 3
0000
0000
0000
0000
,  // measure 4
0000
0000
0000
0000
,  // measure 5
0000
0000
0000
0000
,  // measure 6
0000
0000
0000
0000
,  // measure 7
0000
0000
0000
0000
,  // measure 8
0000
0000
0000
0000
,  // measure 9
0000
0001
0000
0000
1000
0000
0000
0010
,  // measure 10
0000
1000
0000
0000
,  // measure 11
0000
0100
0000
0000
0100
0000
0000
0000
,  // measure 12
0000
0000
0000
0000
,  // measure 13
0000
0010
0000
0000
0001
0000
0000
1000
,  // measure 14
0000
0001
0000
0000
,  // measure 15
0000
0000
0000
0000
,  // measure 16
0200
0000
0000
0300
,  // measure 17
0010
0000
0000
1000
0000
0000
0000
0001
,  // measure 18
0000
0000
0010
0000
,  // measure 19
0100
0000
0000
1000
0000
0000
0000
0001
,  // measure 20
0000
0000
1000
0000
,  // measure 21
0010
0000
0000
0100
0000
0000
0000
0001
,  // measure 22
0000
0000
0010
0000
,  // measure 23
0100
0000
0000
0010
0000
0000
0000
0001
,  // measure 24
0000
0000
1000
0000
,  // measure 25
0010
0000
0000
0100
0000
0000
0000
0001
,  // measure 26
0000
0000
0100
0000
,  // measure 27
0010
0000
0000
1000
0000
0000
0000
0001
,  // measure 28
0000
0000
1000
0000
,  // measure 29
0100
0000
0000
0010
0000
0000
0000
0001
,  // measure 30
0000
0000
0010
0000
,  // measure 31
0001
0000
0000
0100
0000
0000
0000
1000
,  // measure 32
0000
0000
0100
0000
,  // measure 33
0000
0001
0000
0000
0100
0000
0000
0010
,  // measure 34
0000
1000
0000
0000
,  // measure 35
0000
0100
0000
0000
0100
0000
0000
0000
,  // measure 36
0000
0000
0000
0000
,  // measure 37
0000
0010
0000
0000
0100
0000
0000
1000
,  // measure 38
0000
0010
0000
0000
,  // measure 39
0000
0100
0000
0000
0100
0000
0000
0000
,  // measure 40
0000
0000
0000
0000
,  // measure 41
0001
0000
0000
0000
,  // measure 42
0000
0000
0010
0000
0000
0010
0000
0000
,  // measure 43
0000
0100
0000
1000
,  // measure 44
0000
0000
0001
0000
0000
0001
0000
0000
,  // measure 45
0000
0100
0000
0010
,  // measure 46
0000
0000
1000
0000
0000
1000
0000
0000
,  // measure 47
0000
0100
0010
0100
,  // measure 48
0110
0000
0000
1000
,  // measure 49
0000
0000
0000
0001
,  // measure 50
0100
0000
0000
0101
,  // measure 51
0000
0000
0001
0000
,  // measure 52
1000
0000
0000
1100
,  // measure 53
0000
0000
0000
0100
,  // measure 54
0010
0000
0000
0011
,  // measure 55
0000
0000
0001
1000
,  // measure 56
0001
0000
0000
1001
,  // measure 57
0000
0000
0000
1000
,  // measure 58
0010
0000
0000
1010
,  // measure 59
0000
0000
0010
0000
,  // measure 60
0100
0000
0000
0101
,  // measure 61
0000
0000
0000
0001
,  // measure 62
1000
0000
0000
0110
,  // measure 63
0000
0000
0001
0000
,  // measure 64
2000
0000
0000
0000
,  // measure 65
0000
0000
0000
0000
0000
0000
0000
3000
,  // measure 66
0000
0000
0000
0000
,  // measure 67
0020
0000
0000
0030
,  // measure 68
0100
0000
0000
0001
0000
0000
0000
0010
,  // measure 69
0000
0001
1000
0000
,  // measure 70
0100
0000
0000
1000
0000
0000
0000
0010
,  // measure 71
0000
0100
0001
0000
,  // measure 72
0010
0000
0000
0100
0000
0000
0000
1000
,  // measure 73
0000
0001
0100
0000
,  // measure 74
0010
0000
0000
1000
0000
0000
0000
0001
,  // measure 75
0000
0010
0100
0000
,  // measure 76
2000
0000
0000
3001
0000
0000
0000
0100
,  // measure 77
0000
1000
0100
0000
,  // measure 78
0020
0000
0000
1030
0000
0000
0000
0100
,  // measure 79
0000
0001
0100
0000
,  // measure 80
0020
0000
0000
0031
0000
0000
0000
1001
,  // measure 81
0000
1000
0010
0000
,  // measure 82
2000
0000
0000
3100
0000
0000
0000
0110
,  // measure 83
0000
0010
0001
0000
,  // measure 84
2001
0000
0000
0000
,  // measure 85
0000
0000
3000
0000
,  // measure 86
0001
0000
0000
0100
0000
0000
0000
0010
,  // measure 87
0000
1000
0010
1000
,  // measure 88
0020
0000
0000
0000
0000
0000
0000
0030
,  // measure 89
0000
0000
0100
0000
,  // measure 90
0002
0000
0000
0000
,  // measure 91
0020
0003
0000
0000
0000
0000
0000
0000
,  // measure 92
0200
0000
0000
0000
,  // measure 93
0000
0000
0000
0000
,  // measure 94
0000
0000
0000
0000
,  // measure 95
0330
0000
0000
0000
;

//---------------dance-single - ----------------
#NOTES:
     dance-single:
     :
     Hard:
     8:
     0.331,0.440,0.161,0.127,0.127: // measure 1
0000
0000
0000
0000
,  // measure 2
0000
0000
0000
0000
,  // measure 3
0000
0000
0000
0000
,  // measure 4
0000
0000
0000
0000
,  // measure 5
0000
0000
0000
0000
,  // measure 6
0000
0000
0000
0000
,  // measure 7
0000
0000
0000
0000
,  // measure 8
0000
0000
0000
0000
,  // measure 9
1000
0000
0001
0000
0000
0001
0000
0000
0100
0000
0000
0100
0000
0000
0010
0000
,  // measure 10
0000
0010
0000
0000
1000
0000
0000
0000
0000
0000
0000
0000
0000
0000
0000
0000
,  // measure 11
0000
0000
0100
0000
0000
0100
0000
0000
0100
0000
0000
0000
0000
0000
0000
0000
,  // measure 12
0000
0000
0010
0001
0000
0000
0001
0100
,  // measure 13
0010
0000
1000
0000
0000
1000
0000
0000
0100
0000
0000
0100
0000
0000
0010
0000
,  // measure 14
0000
0010
0000
0000
0001
0000
0000
0000
0000
0000
0000
0000
0000
0000
0100
0000
,  // measure 15
0010
1000
0002
0000
0000
0000
0000
0000
,  // measure 16
0023
0000
0000
0000
0000
0000
0130
1000
,  // measure 17
0200
0000
0300
0010
0000
0000
0001
1000
,  // measure 18
0000
0010
1000
0000
0010
0000
0000
0000
,  // measure 19
0200
0000
0300
0001
0000
0000
0010
0001
,  // measure 20
0000
1000
0010
0000
1000
0000
0000
0000
,  // measure 21
0200
0000
0300
0010
0000
0000
0001
0100
,  // measure 22
0000
0010
1000
0000
0100
0000
0000
0000
,  // measure 23
0020
0000
0030
0001
0000
0000
1000
0010
,  // measure 24
0000
0100
0001
0000
0010
0000
0000
0000
,  // measure 25
0200
0000
0300
1000
0000
0000
0010
0001
,  // measure 26
0000
0010
1000
0000
0100
0000
0000
0000
,  // measure 27
0020
0000
0030
0001
0000
0000
0100
1000
,  // measure 28
0000
0100
0001
0000
0010
0000
0000
0000
,  // measure 29
0002
0000
0003
1000
0000
0000
0100
0001
,  // measure 30
0000
0100
0010
0000
0001
0000
0000
0000
,  // measure 31
2000
0000
3000
0001
0000
0000
0010
1000
,  // measure 32
0000
0010
0100
0000
1000
0000
0000
0000
,  // measure 33
0001
0000
1000
0000
0000
0010
0000
0000
0100
0000
0000
0010
0000
0000
1000
0000
,  // measure 34
0000
0001
0000
0000
0010
0000
0000
0000
0000
0000
0000
0000
0100
0000
0000
1000
,  // measure 35
0000
0000
0010
0000
0000
0010
0000
0100
,  // measure 36
0001
0100
0000
0000
0010
0000
0000
1000
0000
0000
0000
0000
0001
0000
0000
0010
,  // measure 37
0000
0000
0100
0000
0000
0010
0000
0000
0100
0000
0000
1000
0000
0000
0010
0000
,  // measure 38
0000
1000
0000
0000
0001
0000
0000
0000
0000
0000
0000
0000
1000
0000
0000
0010
,  // measure 39
0000
0000
0100
0000
0000
0100
0000
0010
,  // measure 40
1000
0010
0000
0000
0100
0000
0000
0001
0000
0000
0000
0000
1000
0000
0001
0000
,  // measure 41
1000
0000
0010
0000
0000
1000
0000
0000
0100
0000
0000
0010
0000
0000
0001
0000
0000
1000
0000
0000
0010
0000
0000
0000
0000
0000
0000
0000
0000
0000
0000
0000
0000
0000
0000
0000
0000
0000
0000
0000
0000
0000
0000
0000
0000
0000
0000
0000
0100
0000
0000
0000
0000
0000
0000
0000
0000
0000
0000
0000
0001
0000
0000
0000
,  // measure 42
0000
0000
1000
0000
0000
1000
0000
0100
,  // measure 43
0010
0100
0000
0000
1000
0000
0000
0010
0000
0000
0000
0000
0100
0000
0001
0000
,  // measure 44
0010
0000
0001
0000
0000
0100
0000
0000
0010
0000
0000
0100
0000
0000
0010
0000
,  // measure 45
0000
1000
0000
0000
0100
0000
0000
0000
0000
0000
0000
0000
0010
0000
0000
0001
,  // measure 46
1000
0000
0010
0000
0000
0100
0000
0000
0100
0000
0000
0000
0000
0000
0000
0000
,  // measure 47
0000
0000
0000
0000
0001
0010
0100
1000
,  // measure 48
1001
0000
0000
1000
0000
0000
1010
0000
,  // measure 49
0000
0000
0000
0000
0000
0010
0100
0001
,  // measure 50
0010
0000
0000
0100
0000
0000
1100
0000
,  // measure 51
0000
0000
0000
0000
0000
0000
0000
0000
1000
0000
0000
0010
0000
0000
0100
0000
,  // measure 52
0010
0000
0000
1000
0000
0000
1001
0000
,  // measure 53
0000
0000
0000
0001
,  // measure 54
0010
0000
0000
1000
0000
0000
0110
0000
,  // measure 55
0000
0000
1000
0001
,  // measure 56
0101
0000
0000
0100
0000
0000
1010
0000
,  // measure 57
0000
0000
0000
0000
0000
0001
0010
0001
,  // measure 58
1000
0000
0000
0100
0000
0000
0101
0000
,  // measure 59
0000
0000
0000
0000
0000
0000
0000
0000
0100
0000
0000
1000
0000
0000
0001
0000
,  // measure 60
0100
0000
0000
0010
0000
0000
1010
0000
,  // measure 61
0000
0000
0000
1000
,  // measure 62
1100
0000
0000
0010
0000
0000
0101
0000
,  // measure 63
0000
0000
0000
0000
0000
0000
0100
0000
1000
0000
0000
0010
0000
0000
0001
0000
,  // measure 64
2000
0000
0000
0000
,  // measure 65
0000
0000
0000
0000
0000
0000
0000
3000
,  // measure 66
0000
0000
0000
0000
,  // measure 67
0201
0000
0000
0000
0000
0000
0310
1000
,  // measure 68
0001
0000
0000
0011
0000
0000
0100
1000
,  // measure 69
0000
0001
0100
0000
0010
0000
1000
0000
,  // measure 70
0100
0000
0000
0101
0000
0000
0010
0001
,  // measure 71
0000
1000
0010
0000
0100
0000
0001
0000
,  // measure 72
0010
0000
0000
1100
0000
0000
0001
0100
,  // measure 73
0000
0010
1000
0000
0100
0000
0010
0000
,  // measure 74
0001
0000
0000
1001
0000
0000
0100
0001
,  // measure 75
0000
0010
1000
0000
0010
0000
0001
0000
,  // measure 76
1000
0000
0000
1010
0000
0000
0100
0001
,  // measure 77
0000
0010
0100
0000
1000
0000
0010
0000
,  // measure 78
0100
0000
0000
0101
0000
0000
0010
1000
,  // measure 79
0000
0100
0010
0000
0001
0000
0100
0000
,  // measure 80
0010
0000
0000
0101
0000
0000
0010
1000
,  // measure 81
0000
0100
0001
0000
0100
0000
0010
0000
,  // measure 82
0001
0000
0000
1100
0000
0000
0010
0001
,  // measure 83
0000
0100
1000
0000
0101
0000
0000
0000
,  // measure 84
0120
0000
0000
1000
0000
0000
0000
0001
,  // measure 85
0000
0100
0100
0000
1030
0000
0000
0000
,  // measure 86
0002
0000
0003
0011
0000
0000
0100
1000
,  // measure 87
0000
0001
0100
0000
0001
0000
1000
0000
,  // measure 88
0200
0000
0000
0001
0000
0000
1300
0010
,  // measure 89
0000
0000
0000
0000
0100
0000
0001
0000
0010
0000
0000
0100
0000
0000
1000
0000
,  // measure 90
0002
0000
0000
0100
0000
0000
1003
0010
,  // measure 91
0200
0010
0010
0000
0010
0000
0300
0000
,  // measure 92
2002
0000
0000
0000
,  // measure 93
0000
0000
0000
0000
,  // measure 94
0000
0000
0000
0000
,  // measure 95
3003
0000
0000
0000
;

//---------------dance-single - ----------------
#NOTES:
     dance-single:
     :
     Beginner:
     1:
     0.087,0.126,0.027,0.067,0.000: // measure 1
0000
0000
0000
0000
,  // measure 2
0000
0000
0000
0000
,  // measure 3
0000
0000
0000
0000
,  // measure 4
0000
0000
0000
0000
,  // measure 5
0000
0000
0000
0000
,  // measure 6
0000
0000
0000
0000
,  // measure 7
0000
0000
0000
0000
,  // measure 8
0000
0000
0000
0000
,  // measure 9
0000
0001
0000
0000
0000
0000
0000
1000
,  // measure 10
0000
0000
0000
0000
,  // measure 11
0000
0100
0000
0000
0000
0000
0000
0000
,  // measure 12
0000
0000
0000
0000
,  // measure 13
0000
0010
0000
0000
0000
0000
0000
0001
,  // measure 14
0000
0000
0000
0000
,  // measure 15
0000
0000
0000
0000
,  // measure 16
1000
0000
0000
0000
,  // measure 17
0001
0000
0000
0000
0000
0000
0000
0010
,  // measure 18
0000
0000
0000
0000
,  // measure 19
0100
0000
0000
0000
0000
0000
0000
1000
,  // measure 20
0000
0000
0000
0000
,  // measure 21
0100
0000
0000
0000
0000
0000
0000
0010
,  // measure 22
0000
0000
0000
0000
,  // measure 23
0001
0000
0000
0000
0000
0000
0000
1000
,  // measure 24
0000
0000
0000
0000
,  // measure 25
0001
0000
0000
0000
0000
0000
0000
0100
,  // measure 26
0000
0000
0000
0000
,  // measure 27
0010
0000
0000
0000
0000
0000
0000
0100
,  // measure 28
0000
0000
0000
0000
,  // measure 29
0010
0000
0000
0000
0000
0000
0000
1000
,  // measure 30
0000
0000
0000
0000
,  // measure 31
0001
0000
0000
0000
0000
0000
0000
0010
,  // measure 32
0000
0000
0000
0000
,  // measure 33
1001
0000
0000
0000
,  // measure 34
0000
0000
0000
0000
,  // measure 35
0000
1000
0000
0000
0000
0000
0000
0000
,  // measure 36
0000
0000
0000
0000
,  // measure 37
0000
0001
0000
0000
0000
0000
0000
0010
,  // measure 38
0000
0000
0000
0000
,  // measure 39
0000
0100
0000
0000
0000
0000
0000
0000
,  // measure 40
0000
0000
0000
0000
,  // measure 41
0110
0000
0000
0000
,  // measure 42
0000
1000
0000
0000
,  // measure 43
0000
0001
0000
0001
,  // measure 44
0000
0001
0000
0000
,  // measure 45
0000
1000
0000
1000
,  // measure 46
0000
1000
0000
0000
,  // measure 47
0000
0000
0000
0000
,  // measure 48
1001
0000
0000
0001
,  // measure 49
0000
0000
0000
0000
,  // measure 50
0100
0000
0000
0010
,  // measure 51
0000
0000
0000
0000
,  // measure 52
1000
0000
0000
0010
,  // measure 53
0000
0000
0000
0000
,  // measure 54
1000
0000
0000
0001
,  // measure 55
0000
0000
0000
0000
,  // measure 56
0010
0000
0000
0001
,  // measure 57
0000
0000
0000
0000
,  // measure 58
0100
0000
0000
0010
,  // measure 59
0000
0000
0000
0000
,  // measure 60
0100
0000
0000
0001
,  // measure 61
0000
0000
0000
0000
,  // measure 62
1000
0000
0000
1001
,  // measure 63
0000
0000
0000
0000
,  // measure 64
0002
0000
0000
0000
,  // measure 65
0000
0000
0000
0000
0000
0000
0000
0003
,  // measure 66
0000
0000
0000
0000
,  // measure 67
0100
0000
0000
0000
,  // measure 68
0010
0000
0000
0000
0000
0000
0000
1000
,  // measure 69
0000
0000
0000
0000
,  // measure 70
0100
0000
0000
0000
0000
0000
0000
1000
,  // measure 71
0000
0000
0000
0000
,  // measure 72
0001
0000
0000
0000
0000
0000
0000
0100
,  // measure 73
0000
0000
0000
0000
,  // measure 74
0001
0000
0000
0000
0000
0000
0000
0010
,  // measure 75
0000
0000
0000
0000
,  // measure 76
0200
0000
0000
0300
0000
0000
0000
1000
,  // measure 77
0000
0000
0000
0000
,  // measure 78
0002
0000
0000
0003
0000
0000
0000
1000
,  // measure 79
0000
0000
0000
0000
,  // measure 80
0020
0000
0000
0030
0000
0000
0000
1000
,  // measure 81
0000
0000
0000
0000
,  // measure 82
0002
0000
0000
0003
0000
0000
0000
0010
,  // measure 83
0000
0000
0000
0000
,  // measure 84
0200
0000
0000
0000
,  // measure 85
0000
0000
0300
0000
,  // measure 86
1000
0000
0000
0000
0000
0000
0000
0001
,  // measure 87
0000
0000
0000
0000
,  // measure 88
0200
0000
0000
0000
0000
0000
0000
0310
,  // measure 89
0000
0000
0000
0000
,  // measure 90
2000
0000
0000
0000
,  // measure 91
3002
0000
0000
0000
,  // measure 92
2000
0000
0000
0000
,  // measure 93
0000
0000
0000
0000
,  // measure 94
0000
0000
0000
0000
,  // measure 95
3003
0000
0000
0000
;
