#TITLE:Business Transactions should always come before a fight;
#SUBTITLE:;
#ARTIST:Audio Highs;
#TITLETRANSLIT:;
#SUBTITLETRANSLIT:;
#ARTISTTRANSLIT:;
#GENRE:;
#CREDIT:;
#BANNER:[Friendly Vowels] - Business Transactions should always come before a fight.png;
#BACKGROUND:[Friendly Vowels] - Business Transactions should always come before a fight - bg.png;
#LYRICSPATH:;
#CDTITLE:chen.png;
#MUSIC:[Friendly Vowels] - Business Transactions should always come before a fight.ogg;
#OFFSET:0.015;
#SAMPLESTART:35.489;
#SAMPLELENGTH:27.300;
#SELECTABLE:YES;
#BPMS:0.000=142.000,208.000=228.500,212.000=142.000;
#STOPS:208.000=0.040
,208.250=0.040
,208.500=0.040
,208.750=0.040
,209.000=0.040
,209.250=0.040
,209.500=0.040
,209.750=0.040
,210.000=0.040
,210.250=0.040
,210.500=0.040
,210.750=0.040
,211.000=0.040
,211.250=0.040
,211.500=0.040
,211.750=0.040
,212.000=0.040
;
#BGCHANGES:;
#KEYSOUNDS:;

//---------------dance-single - Rikame----------------
#NOTES:
     dance-single:
     Rikame:
     Challenge:
     11:
     0.878,0.858,0.197,0.421,1.000:
0000
0000
0000
0000
,
0000
0000
0000
0000
,
0000
0000
0000
0000
,
0000
0000
0000
0000
,
0000
0000
0000
0000
,
1001
0000
0001
0000
0010
0001
0010
0100
0000
0100
1000
0010
0200
0000
0000
0000
,
0301
0000
1000
0000
0010
0100
0010
1000
0000
1000
0100
0010
0002
0000
0000
0000
,
1003
0000
0100
0000
1000
0001
0010
0001
0000
0001
0100
0010
2000
0000
0000
0000
,
3001
0000
0100
0000
0010
1000
0010
0100
0000
0100
0001
1000
0200
0000
0000
0000
,
0310
0000
0011
0000
0001
1000
0001
0100
0000
0100
0010
1000
0002
0000
0000
0000
,
0103
0000
0010
0000
1000
0001
1000
0100
0000
0100
0010
0001
2000
0000
0000
0000
,
3001
0000
0010
0000
0001
1000
0001
0100
0000
0100
0010
1000
0002
0000
0000
0000
,
2003
0000
3100
0010
0100
1000
0010
0000
0100
0001
1000
0100
0010
0000
0000
0000
,
0012
0000
1003
0000
0010
0000
0100
0002
0000
0000
0013
0000
0100
2000
0000
0000
,
3010
0000
0100
0001
1000
0000
0001
0010
0000
0110
0000
0000
0100
2000
0000
0000
,
3001
0000
0010
0001
1000
0000
0010
0100
0000
0100
0001
1000
0010
0200
0000
0000
,
0301
0000
1000
0001
0010
0000
0001
1000
0000
1000
0100
0010
0004
0000
0000
0000
,
0103
0000
0010
1000
0001
0000
1000
0200
0000
0000
0310
0000
0001
2000
0000
0000
,
3010
0000
0100
0001
0010
0000
0100
1000
0000
1000
0001
0000
0100
0020
0000
0000
,
1030
0000
0001
0010
0100
0000
1000
0020
0000
0000
0130
0000
0001
2000
0000
0000
,
3100
0000
0010
0001
0010
0001
1000
0000
0100
1000
0100
1000
0001
0000
0000
0000
,
1001
0000
1000
0000
0010
0000
0100
0001
0000
0000
0010
0000
0100
1000
0001
0100
,
0010
0000
0100
0000
0101
0000
0001
1000
0100
1000
0001
1000
0100
0010
0001
0100
,
0010
1000
0001
1000
0100
1000
0001
0100
0010
0000
0100
0001
1000
0010
0100
0001
,
0010
0001
1000
0010
0100
0000
0000
0001
0100
0001
0010
0100
1000
0001
1000
0100
,
0010
0000
0100
0000
1000
0000
0001
1000
0000
0000
0010
0000
0100
0001
1000
0100
,
0010
0000
0100
0000
1100
0000
1000
0010
0100
0010
1000
0001
0010
0001
1000
0010
,
0100
0010
1000
0001
0010
0000
0001
0100
0000
0000
0001
1000
0010
0100
0010
1000
,
0001
1000
0100
0010
0001
1000
0001
0010
0001
1000
0010
1000
0001
0100
0010
1000
,
0100
0000
1000
0010
0100
0000
0010
0002
0000
0000
0013
0000
1000
0200
0000
0000
,
0310
0000
0001
1000
0100
0000
0010
1000
0000
1010
0000
0000
0010
0002
0000
0000
,
0103
0000
0010
0100
0001
0000
0100
2000
0000
0000
3100
0000
0001
0020
0000
0000
,
0031
0000
0100
0010
1000
0000
0100
0001
0000
0101
0000
0100
0010
0000
0001
0000
,
0011
0000
0010
0100
1000
0000
0010
0200
0000
0000
0301
0000
1000
0200
0000
0000
,
0310
0000
0000
0000
0000
0000
0000
0000
0001
0000
0000
0000
1000
0000
0000
0000
0100
0000
0000
0000
0000
0000
0000
0000
0010
0000
0000
0000
0100
0000
0000
0000
0000
0000
0000
0000
1100
0000
0000
0000
0000
0000
0000
0000
0000
0000
0000
0000
1000
0000
0000
0000
0020
0000
0000
0000
0000
0000
0000
0000
0000
0000
0000
0030
,
0110
0000
0000
0000
0000
0000
0000
0000
0001
0000
0000
0000
1000
0000
0000
0000
0100
0000
0000
0000
0000
0000
0000
0000
0010
0000
0000
0000
0002
0000
0000
0000
0000
0000
0000
0000
0000
0000
0000
0000
0103
0000
0000
0000
0000
0000
0000
0000
0010
0000
0000
0000
2000
0000
0000
0000
0000
0000
0000
0000
0000
0000
0000
3000
,
1001
0000
0001
0100
0001
0100
0010
0000
1000
0100
1000
0100
0010
0000
0000
0000
,
0001
1000
0001
1000
0000
0000
0000
0000
0000
0000
0000
0000
0000
0000
0000
0000
,
0000
0000
0000
0000
,
0001
0010
0001
0010
0000
0000
0000
0000
0000
0000
0000
0000
0000
0000
0000
0000
,
0101
0000
0000
1010
0000
0000
0000
0000
,
2100
0000
0000
3001
0100
0001
0200
0000
0000
0310
1000
0100
0020
0000
0000
0000
,
0230
0000
0000
1300
0001
1000
0002
0000
0000
0013
0100
1000
0020
0000
0000
0000
,
0230
0000
0000
0301
1000
0001
2000
0000
0000
3001
0010
0001
0200
0000
0000
0000
,
0320
0000
0000
1030
0100
1000
0100
0000
1000
0001
1000
0001
0010
0100
0010
0100
,
1000
0000
0100
1000
0010
0100
0001
0100
0000
0100
0010
1000
0002
0000
0000
0000
,
0013
0000
0100
0010
0001
1000
0001
0100
0000
0100
0010
1000
0200
0000
0000
0000
,
0310
0000
0001
0100
0001
1000
0010
0100
0000
0100
0001
0010
0200
0000
0000
0000
,
0310
0000
0000
0000
0000
0000
0000
0000
0001
0000
0000
0000
0100
0000
0000
0000
0001
0000
0000
0000
0010
0000
0000
0000
0100
0000
0000
0000
0010
0000
0000
0000
0000
0000
0000
0000
0010
0000
0000
0000
0001
0000
0000
0000
1000
0000
0000
0000
0020
0000
0000
0000
0000
0000
0000
0000
0000
0000
0000
0000
0000
0000
0000
0030
,
0110
0000
0100
0001
1000
0100
0010
0100
0000
0100
1000
0001
0020
0000
0000
0000
,
0031
0000
0000
0000
0000
0000
0000
0000
0100
0000
0000
0000
0010
0000
0000
0000
0100
0000
0000
0000
0001
0000
0000
0000
1000
0000
0000
0000
0001
0000
0000
0000
0000
0000
0000
0000
0001
0000
0000
0000
0010
0000
0000
0000
0100
0000
0000
0000
2000
0000
0000
0000
0000
0000
0000
0000
0000
0000
0000
0000
0000
0000
0000
3000
,
1001
0000
0001
0010
0001
0100
0010
1000
0000
1000
0100
0010
0002
0000
0000
0000
,
1003
0010
1000
0100
0010
0001
1000
0010
0100
0010
1000
0001
0010
0100
1000
0010
,
0100
0000
0001
0000
0010
0000
0100
0010
0000
0000
0001
0000
0100
0010
1000
0000
,
0100
0000
1000
0000
0001
0000
0010
0100
0010
0001
1000
0010
0100
0010
1000
0001
,
0100
0000
0010
0000
1000
0000
0100
0010
0000
0000
0100
1000
0001
0100
0010
1000
,
0001
0010
0001
1000
0100
0010
0001
1000
0001
0100
0001
0010
0100
1000
0001
0100
,
0010
0000
0100
0001
1000
0000
0100
0010
0000
0000
0100
0000
1000
0010
0100
0000
,
0001
0000
1000
0001
0010
0000
0100
0010
0001
1000
0001
0000
0100
0010
1000
0000
,
1100
0000
0100
0010
0001
0000
1000
0010
0000
0000
0100
0000
0010
1000
0100
0000
,
0110
0000
0010
0001
1000
0100
0010
0000
0100
1000
0001
0010
0100
0000
0000
0000
,
1100
0000
1000
0000
0010
0000
0100
0001
0000
0000
0100
0000
0001
1000
0100
0000
,
0010
0000
0100
0010
0001
0000
1000
0010
0100
0001
0100
0000
0010
1000
0001
0000
,
0010
0000
0100
0010
0001
0000
1000
0010
0000
0000
0100
0010
1000
0001
0010
0001
,
0100
0000
0001
1000
0100
1000
0010
0000
0100
0001
0010
0100
0010
0000
0000
0000
,
2002
0000
0000
0000
,
3003
0000
0000
0000
;

//---------------dance-single - C. Yakumo----------------
#NOTES:
     dance-single:
     C. Yakumo:
     Beginner:
     1:
     0.083,0.087,0.018,0.000,0.000:
0000
0000
0000
0000
,
0000
0000
0000
0000
,
0000
0000
0000
0000
,
0000
0000
0000
0000
,
0000
0000
0000
0000
,
1001
0000
0000
0000
,
0001
0000
0000
0000
,
1000
0000
0000
0000
,
0010
0000
0000
0000
,
0100
0000
0000
0000
,
0010
0000
0000
0000
,
1000
0000
0000
0000
,
0001
0000
0000
0000
,
0010
0000
0010
0000
,
0100
0000
0000
0000
,
1000
0000
1000
0000
,
0001
0000
0000
0000
,
0100
0000
0100
0000
,
0010
0000
0000
0000
,
0100
0000
0100
0000
,
0001
0000
0000
0000
,
1000
0000
0000
0000
,
0010
0000
0000
0000
,
1000
0000
0000
0000
,
0100
0000
0000
0000
,
0010
0000
0000
0000
,
0001
0000
0000
0000
,
0100
0000
0000
0000
,
0001
0000
0000
0000
,
0010
0000
0000
0000
,
0100
0000
0000
0000
,
0010
0000
0000
0000
,
0001
0000
0000
0000
,
1000
0000
0000
0000
,
0010
0000
0000
0000
,
1000
0000
0000
0000
,
0100
0000
0100
0000
,
0100
0000
0000
0000
,
0000
0000
0000
0000
,
0000
0000
0000
0000
,
1000
0000
0000
0000
,
0001
0000
0000
0000
,
0001
0000
0000
0000
,
0001
0000
0000
0000
,
0001
0000
0000
0000
,
1000
0000
0000
0000
,
0010
0000
0000
0000
,
0100
0000
0000
0000
,
0010
0000
0000
0000
,
1000
0000
0000
0000
,
0001
0000
0000
0000
,
0010
0000
0000
0000
,
0100
0000
0000
0000
,
0000
0000
0000
0000
,
1000
0000
0000
0000
,
0001
0000
0000
0000
,
0010
0000
0000
0000
,
0100
0000
0000
0000
,
1000
0000
0000
0000
,
0001
0000
0000
0000
,
1000
0000
0000
0000
,
0100
0000
0000
0000
,
1000
0000
0000
0000
,
0010
0000
0000
0000
,
0100
0000
0000
0000
,
1001
0000
0000
0000
;

//---------------dance-single - C. Yakumo----------------
#NOTES:
     dance-single:
     C. Yakumo:
     Easy:
     2:
     0.156,0.175,0.018,0.027,0.000:
0000
0000
0000
0000
,
0000
0000
0000
0000
,
0000
0000
0000
0000
,
0000
0000
0000
0000
,
0000
0000
0000
0000
,
1000
0000
0001
0100
,
0001
0000
0010
0000
,
0100
0000
1000
0001
,
1000
0000
0010
0000
,
0100
0000
0001
0010
,
0001
0000
1000
0000
,
0100
0000
0010
0001
,
0010
0000
0100
0000
,
1000
0000
0001
0000
,
0100
0000
0001
0000
,
1000
0000
0100
0000
,
1000
0000
0010
0000
,
0100
0000
0001
0000
,
0010
0000
0001
0000
,
0100
0000
0010
0000
,
1000
0000
0010
0000
,
0100
0000
0000
0000
,
0002
0000
0000
0000
,
0013
0000
0000
0000
,
0100
0000
1000
0000
,
0001
0000
0000
0000
,
0200
0000
0000
0000
,
0310
0000
0000
0000
,
1000
0000
0001
0000
,
0010
0000
0010
0000
,
0001
0000
0001
0000
,
0100
0000
0100
0000
,
0010
0000
0010
0000
,
1000
0000
1000
0000
,
0100
0000
0100
0000
,
1000
0000
1000
0000
,
0001
0000
0001
0000
,
0001
0000
0000
0000
,
0000
0000
0000
0000
,
1000
0000
0000
0000
,
1001
0000
0000
0000
,
0001
0000
0000
0100
,
0001
0000
0000
0010
,
0100
0000
0000
0010
,
0001
0000
1000
1000
,
1000
0000
0100
0001
,
0100
0000
0010
1000
,
0010
0000
1000
0001
,
1000
0000
0001
0010
,
0001
0000
1000
0100
,
1000
0000
0010
0100
,
0010
0000
0100
0001
,
2000
0000
0000
0000
,
3001
0000
0000
0000
,
1000
0000
0100
0000
,
0010
0000
0000
0000
,
0001
0000
0100
0000
,
0010
0000
0000
0000
,
1000
0000
0001
0000
,
0010
0000
0000
0000
,
0100
0000
0100
0000
,
0001
0000
0010
0000
,
0001
0000
0010
0000
,
0100
0000
0001
0000
,
0100
0000
0010
0000
,
1001
0000
0000
0000
;

//---------------dance-single - C. Yakumo----------------
#NOTES:
     dance-single:
     C. Yakumo:
     Medium:
     6:
     0.369,0.414,0.072,0.323,0.000:
0000
0000
0000
0000
,
0000
0000
0000
0000
,
0000
0000
0000
0000
,
0000
0000
0000
0000
,
0000
0000
0000
0000
,
1000
0000
0000
0010
0000
0000
2000
0000
,
3100
0000
0000
0010
0000
0000
0200
0000
,
1300
0000
0000
0001
0000
0000
0200
0000
,
0310
0000
0000
0100
0000
0000
0002
0000
,
0013
0000
0000
0100
0000
0000
0020
0000
,
0031
0000
0000
0100
0000
0000
0020
0000
,
1030
0000
0000
0100
0000
0000
2000
0000
,
3010
0100
0010
1000
0000
1000
0001
0000
,
1001
0000
1000
0010
0000
0010
0100
0000
,
0001
0000
0010
0001
0000
0001
1000
0000
,
0010
0000
0100
0001
0000
0001
0010
0000
,
0100
0000
0010
0001
0000
0001
0100
0000
,
0010
0000
1000
0100
0000
0100
0010
0000
,
0100
0000
1000
0001
0000
0001
0100
0000
,
0010
0000
1000
0001
0000
0001
0010
0000
,
0001
0000
0100
0010
0000
0010
1000
0000
,
1001
0000
1000
0100
0000
1000
0001
0000
,
0100
0020
0000
0000
,
0130
0000
0001
0010
0000
0001
0100
0000
,
0010
1000
0200
0000
,
0310
0000
0001
0100
0000
0010
0100
0000
,
0001
0020
0000
0000
,
0130
0000
1000
0010
0000
1000
0100
0000
,
0020
0000
0000
0000
,
0031
0100
0001
0100
0000
0010
1000
0000
,
0100
0010
0100
0010
0000
0001
1000
0000
,
0100
1000
0100
1000
0000
0001
0100
0000
,
0010
1000
0010
1000
0000
0100
0010
0000
,
0001
1000
0001
0100
0000
0100
0010
0000
,
0010
1000
0010
0100
0000
0100
0001
0000
,
0010
0001
0010
0100
0000
0100
1000
0000
,
0100
1000
0001
1000
0010
0100
0010
0000
,
0010
1000
0000
0000
0000
0000
0000
0000
,
0000
0000
0000
0000
,
1001
0000
0000
0000
,
0101
0000
0000
0011
0000
0000
0000
0000
,
0010
0000
0000
0100
0000
0000
2000
0000
,
3010
0000
0000
0100
0000
0000
0002
0000
,
0013
0000
0000
0001
0000
0000
0200
0000
,
0310
0000
0000
1000
0100
0010
0100
0010
,
0001
0000
0000
0100
0000
0000
0020
0000
,
1030
0000
0000
0001
0000
0000
0020
0000
,
0130
0000
0000
1000
0000
0000
0002
0000
,
0103
0000
0000
0010
0000
0000
2000
0000
,
3100
0000
0000
0010
0000
0000
0002
0000
,
0013
0000
0000
0100
0000
0000
2000
0000
,
3001
0000
0000
0100
0000
0000
0020
0000
,
1030
0001
1000
0001
1000
0001
1000
0001
,
1000
0010
1000
0100
0000
0020
0000
0000
,
0000
0000
0000
0000
,
0031
1000
0010
0100
0000
0100
0002
0000
,
0000
0000
0000
0003
,
0011
0000
0010
0200
0000
0000
2300
0000
,
0000
3020
0000
0000
0130
0001
0020
0000
,
0130
1000
0001
0200
0000
0000
0320
0000
,
0000
1030
0100
1000
0001
0100
0001
0000
,
0011
0000
0010
0200
0000
0000
2300
0000
,
0000
3002
0000
0000
1003
0100
0010
0000
,
0100
1000
0001
0020
0000
0000
0230
0000
,
0310
0001
1000
0001
0100
0010
1000
0000
,
2002
0000
0000
0000
,
3003
0000
0000
0000
;

//---------------dance-single - C. Yakumo----------------
#NOTES:
     dance-single:
     C. Yakumo:
     Hard:
     9:
     0.577,0.710,0.125,0.538,0.381:
0000
0000
0000
0000
,
0000
0000
0000
0000
,
0000
0000
0000
0000
,
0000
0000
0000
0000
,
0000
0000
0000
0000
,
1002
0000
0103
0010
0000
0010
2000
0000
,
3200
0000
0310
0001
0100
0001
2000
0000
,
3100
0000
0010
0100
0000
0100
2000
0000
,
3020
0000
0130
0001
0100
0010
1000
0000
,
0012
0000
0103
0010
0000
0010
2000
0000
,
3010
0000
0100
0001
1000
0001
0020
0000
,
0130
0000
0010
0001
0000
0001
0200
0000
,
0310
0000
1000
0001
1000
0001
1000
0000
0001
0100
0001
0100
0001
0000
0000
0000
,
1001
0000
1000
0000
0100
0000
0010
0002
0000
0000
0103
0000
0020
0000
0000
0000
,
1030
0000
0001
0000
0010
0000
0100
1000
0000
1000
0000
0000
0020
0000
0000
0000
,
0130
0000
0001
0000
0010
0000
0001
2000
0000
0000
0000
0000
3200
0000
0000
0000
,
0310
0000
0001
0000
1000
0000
0010
0100
0000
0100
0000
0100
0001
0000
1000
0000
,
1001
0000
0001
0000
0010
0000
0100
0020
0000
0000
0031
0000
2000
0000
0000
0000
,
3010
0000
0100
0000
0001
0000
0010
0100
0000
0100
0000
0000
1000
0000
0000
0000
,
1001
0000
0001
0000
0100
0000
0010
2000
0000
0000
3100
0000
0010
0000
0000
0000
,
0012
0000
1003
0010
1000
0010
1000
0000
0100
1000
0100
1000
0100
0000
0000
0000
,
0110
0010
0001
2000
0000
3020
0000
0000
,
0000
0000
0000
0000
,
1030
0001
1000
0100
0000
1000
0020
0000
,
0000
0000
0000
0000
,
0130
0001
0100
0020
0000
2030
0000
0000
,
0000
0000
0000
0000
,
3100
0010
0100
1000
0000
1000
0002
0000
,
0000
0000
0000
0000
,
0103
0000
0010
0000
0100
0000
0001
0020
0000
0000
0031
0000
2000
0000
0000
0000
,
3100
0000
0010
0000
0100
0000
1000
0001
0000
0001
0000
0000
0020
0000
0000
0000
,
0130
0000
1000
0000
0001
0000
0100
0020
0000
0000
1030
0000
0200
0000
0000
0000
,
0310
0000
0001
0000
1000
0000
0010
0100
0000
0100
0000
0100
0001
0000
0000
0000
,
0011
0000
0010
0000
1000
0000
0010
0200
0000
0000
1300
0000
0002
0000
0000
0000
,
0103
0000
1000
0000
0100
0000
0010
1000
0000
1000
0000
0000
0001
0000
0000
0000
,
0101
0000
0100
0000
1000
0000
0100
0020
0000
0000
1030
0000
0002
0000
0000
0000
,
0013
0000
0100
1000
0100
1000
0100
0000
1000
0010
1000
0010
1000
0000
0000
0000
,
0001
0100
0001
0100
0000
0000
0000
0000
0000
0000
0000
0000
0000
0000
0000
0000
,
0000
0000
0000
0000
,
0001
0010
0001
0010
0000
0000
0000
0000
0000
0000
0000
0000
0000
0000
0000
0000
,
0011
0000
0000
0101
0000
0000
0000
0000
,
1000
0010
1000
0100
1000
0010
0200
0000
,
0301
0010
0001
0100
0001
0010
0200
0000
,
0310
0001
1000
0001
0100
0001
0020
0000
,
0130
0000
1000
0000
0001
0000
1000
0000
0100
0010
0100
0010
0100
1000
0100
1000
,
0001
0000
0100
0001
0100
0001
1000
0001
0000
0001
1000
0001
0020
0000
0000
0000
,
0130
0000
1000
0100
1000
0100
0010
0100
0000
0100
1000
0001
2000
0000
0000
0000
,
3010
0000
0100
0001
0100
0001
1000
0001
0000
0001
0010
0001
2000
0000
0000
0000
,
3100
0000
1000
0001
1000
0001
0010
0001
0000
0001
0100
0001
1000
0000
0000
0000
,
1100
0000
0100
1000
0100
1000
0001
1000
0000
1000
0001
1000
0020
0000
0000
0000
,
0130
0000
0001
0100
0001
0100
0010
0100
0000
0100
0001
1000
0002
0000
0000
0000
,
0013
0000
0100
1000
0100
1000
0001
1000
0000
1000
0010
1000
0002
0000
0000
0000
,
1003
0001
1000
0001
1000
0001
1000
0001
1000
0100
0010
0001
0010
0100
1000
0001
,
1000
0010
0100
2000
0000
3200
0000
0000
,
0000
0000
0000
0000
,
0310
1000
0001
0010
0000
0100
0002
0000
,
0000
0000
0000
0000
,
0103
0010
0100
2000
0000
0000
3200
0000
,
0000
0320
0000
0000
1030
0100
0010
0000
,
0100
1000
0001
0200
0000
0000
0320
0000
,
0000
0032
0000
0000
0013
1000
0001
0000
,
0011
0010
0100
0002
0000
0000
0203
0000
,
0000
0320
0000
0000
0031
0100
0010
0000
,
1000
0100
0010
2000
0000
0000
3020
0000
,
0000
0230
0000
0000
1300
0001
0100
0000
,
2002
0000
0000
0000
,
3003
0000
0000
0000
;
