#TITLE:Blue Zenith;
#SUBTITLE:;
#ARTIST:xi;
#TITLETRANSLIT:;
#SUBTITLETRANSLIT:;
#ARTISTTRANSLIT:;
#GENRE:;
#CREDIT:Meseki;
#MENUCOLOR:0.0,0.0,1.0,1.0;
#BANNER:Blue Zenith-bn.png;
#BACKGROUND:Blue Zenith-bg.png;
#LYRICSPATH:;
#CDTITLE:cdtitle.png;
#MUSIC:Blue Zenith.mp3;
#OFFSET:-0.012;
#SAMPLESTART:115.212;
#SAMPLELENGTH:19.200;
#SELECTABLE:YES;
#LISTSORT:;
#DISPLAYBPM:100.000:200.000;
#BPMS:0.000=100.000,4.000=200.000,180.000=100.000,216.000=200.000,408.000=100.000,416.500=66.667,417.000=100.000;
#STOPS:;
#TICKCOUNT:0.000=2;
#BGCHANGES:;
#KEYSOUNDS:;
#ATTACKS:;

//---------------dance-single - ----------------
#NOTES:
     dance-single:
     :
     Medium:
     8:
     0.540,0.887,0.228,0.764,0.007:
0000
0000
0000
0000
,
1000
1000
1000
1000
,
0001
0001
0001
0001
,
2000
3200
0320
0032
,
0003
0000
1000
0010
,
0100
0100
0100
0100
,
0001
0001
0001
0001
,
0010
0100
0020
0000
0031
0100
0002
0000
,
0003
0100
0000
0010
0000
0100
0010
0000
,
1000
1000
1000
1000
,
0010
0010
0010
0010
,
0200
0000
0301
0100
0002
0000
0013
0001
,
0020
0031
0001
0001
,
2001
3002
1003
1000
,
0100
0100
0100
0100
,
2000
3020
0230
0302
,
0003
0000
0200
2300
,
3200
0001
0301
0001
,
1000
1000
1000
1000
,
0002
1003
0002
1003
0002
1003
0002
1003
,
0000
0000
0000
0000
0000
0100
0000
0000
0000
0000
0000
0000
0000
0000
0000
0000
0000
0000
0000
0000
0000
0000
0000
0000
0000
0000
0000
0000
0100
0000
0000
0000
,
2000
0100
3100
0100
,
0010
0000
0010
0000
0002
0003
0200
0300
,
0202
0300
0020
0030
2003
0000
3200
0000
,
0300
0010
0000
0001
0000
0100
0001
0000
,
0020
0001
0001
0001
,
0032
0100
0100
0100
,
0203
0010
0010
0010
,
0320
1000
1000
1000
,
2030
0001
0001
0001
,
3002
0100
0100
0100
,
0203
0010
0010
0010
,
0320
0000
1000
0000
1000
0000
1000
0030
,
2020
0000
0000
0000
0000
0000
0000
3030
,
2002
0000
0000
0000
0000
0000
0000
3003
,
0202
0000
0000
0000
0000
0000
0000
0303
,
0022
0000
0000
0030
0200
0000
0000
0303
,
2002
0000
0000
0000
0000
0000
0000
3003
,
2200
0000
0000
0000
0000
0000
0000
3300
,
2020
0000
0000
0000
0000
0000
0000
3030
,
0220
0000
0000
0000
0000
0000
0000
0330
,
0201
0000
0000
0000
,
0000
0000
0000
0000
,
1000
0010
0002
0000
,
0300
0000
0000
0000
,
1003
0010
0000
0100
,
0001
0100
0000
1000
,
0100
0001
0000
0010
,
0100
0000
1000
0000
0000
0020
0230
0320
,
2030
0000
3020
0230
,
0302
0000
0000
0000
0023
0230
2300
0000
,
3002
0000
0000
0000
0203
0000
0000
0000
0000
0000
0320
0000
0230
0000
0302
0003
,
0202
0000
0000
0303
0220
0000
0000
0330
2020
0000
0000
3030
2002
0000
3003
0000
,
0102
0000
0000
0000
1003
1000
1000
1000
,
2010
0010
0010
3010
,
1002
1000
1000
1003
,
0201
0001
0001
0301
,
0120
0100
0100
0130
,
1000
0010
0100
0010
0000
0010
1000
0001
,
1000
0100
1000
0010
0000
1000
0001
0100
,
0001
0100
0010
1000
,
0001
0010
0100
1000
,
1000
0100
1000
0100
0000
0100
1000
0100
,
0010
0100
0010
0100
0000
0010
0100
0010
,
0001
0010
0001
0010
0000
0001
0010
0001
,
1000
0001
1000
0001
0000
0001
0010
0100
,
1000
1000
1000
1000
,
0010
0000
0010
0000
0010
0000
0010
0100
,
0010
0100
0010
0100
0010
0100
0010
0100
,
0100
0001
1000
0001
1000
1000
0001
0001
,
1000
0010
1000
0010
1000
0010
1000
0001
,
0100
0010
0100
0010
0100
0010
0100
0010
,
1000
0100
1000
0100
1000
0100
1000
0001
,
0010
0001
0010
0001
0010
0001
0010
0100
,
1000
0100
1000
0100
1000
0100
1000
0010
,
0100
0010
0100
0010
0100
0010
0100
0001
,
1000
0010
1000
0010
1000
0010
1000
0001
,
0100
0001
0100
0001
0100
0001
0100
0010
,
0100
0010
0100
0010
0100
0010
0100
0001
,
1000
0001
1000
0001
1000
0001
1000
0010
,
1000
0100
1000
0100
1000
0100
1000
0001
,
0010
0001
0010
0001
0010
0001
0010
0000
,
0011
0000
0000
0000
,
0101
0000
0000
0000
,
0110
0000
1010
0000
,
1001
1001
1001
1001
,
2001
0000
3200
0000
,
0000
0000
0302
0000
,
0203
0000
2300
0000
,
0000
0000
3020
0000
,
0230
0000
0302
0000
,
0000
0000
0023
0000
,
2030
0000
3020
0000
,
0001
0000
0000
0031
,
0002
0000
0203
0000
,
0000
0000
2300
0000
,
3200
0000
0302
0000
,
0000
0000
0000
0000
0203
0000
0000
0300
,
0201
0000
0320
0000
,
1000
0000
0000
0000
0032
0000
0000
0003
,
0010
0000
0010
0000
0000
0000
1000
0000
1000
0000
0000
0100
0000
0000
0001
0000
,
0100
0101
0110
1100
,
2001
0000
3020
0230
,
0302
0000
0000
0000
0023
0230
0302
0000
,
0203
2300
0001
0000
,
0000
0000
0000
0001
0000
0000
0000
3000
;

//---------------dance-single - ----------------
#NOTES:
     dance-single:
     :
     Challenge:
     11:
     0.737,1.000,0.168,0.677,0.338:
0000
0000
0000
0000
,
1000
1000
1000
1000
,
0100
0100
0100
0100
,
0002
0023
2030
3200
,
0300
0000
0000
0000
0000
0000
0000
0000
0000
0000
0000
0000
0010
0100
0000
0000
0000
0000
0100
1000
0000
0000
0000
0000
,
1000
0002
0000
0000
0000
0000
0100
0000
0000
0000
0000
0000
0103
0000
0000
0000
0000
0000
0100
0000
0000
0000
0000
0000
,
0010
0010
0010
0010
,
1000
0100
0020
0000
1030
0010
0002
0000
,
0003
0000
0010
0000
0000
0000
0001
0000
1000
0001
1000
0000
0001
0010
0001
0000
,
0100
0100
0100
0100
,
0010
0010
0010
0010
,
1000
0010
1000
0000
0001
0100
0001
0000
1000
0100
1000
0000
0001
0010
0001
0000
,
0010
0010
0010
0010
,
0100
0020
0000
0000
0000
0030
0100
2000
0000
0000
0000
0000
3100
0000
0000
0000
0000
0000
0100
0000
0000
0000
0000
0000
,
1000
1000
1000
1000
,
0002
0100
0003
0000
0002
0010
0003
0000
0002
0100
0003
0000
0002
0010
0003
0000
,
0000
0000
0000
0000
0000
0000
0000
0000
0000
0000
0000
0000
0001
0020
0000
0000
0000
0030
0001
0200
0000
0000
0000
0300
,
0010
2000
0000
0000
0000
0000
0100
0000
0000
0000
0000
0000
3100
0000
0000
0000
0000
0000
0100
0000
0000
0000
0000
0000
,
0010
0010
0010
0010
,
0000
0000
0000
0000
0000
0000
0000
0000
0001
0000
0000
0000
0000
0000
0000
0000
0000
0000
0000
0000
0000
0100
0000
0000
0000
0000
0000
0000
0000
0000
0000
0000
,
0000
0000
0000
0000
0000
0010
0000
0000
0000
0000
0000
0000
0000
0000
0000
0000
0000
0000
0000
0000
0000
0000
0000
0000
0000
0000
0000
0000
0100
0000
0000
0000
,
0001
0020
0000
0000
0000
0000
0100
0000
0000
0000
0000
0000
0130
0000
0000
0000
0000
0000
0100
0000
0000
0000
0000
0000
,
1000
0000
0000
0000
0000
0000
1000
0000
0000
0000
0000
0000
0001
0010
0000
0000
0000
0000
0010
0100
0000
0000
0000
0000
,
0200
0000
2000
0000
0000
0000
0000
0000
0000
0300
0000
0000
0020
0000
0000
0000
0000
0000
3000
0000
0000
0030
0000
0000
0200
0000
0000
0000
0000
0000
0000
0000
0000
0000
0000
0000
0302
0000
0000
0000
0000
0000
0000
0000
0000
0000
0000
0000
,
0003
0000
0000
0000
0010
0001
0000
0000
0000
0000
0000
0000
0100
0001
0000
0000
1000
0000
0010
0000
1000
0000
0000
0000
0001
0000
0010
0000
0001
0000
0000
0000
,
1000
0010
0100
0001
1000
0010
0100
0001
,
1000
0100
0001
0100
1000
0100
0001
0100
,
1000
0010
0100
1000
0100
0001
0010
0100
,
1000
0010
0001
0010
1000
0010
0001
0010
,
1000
0100
0010
1000
0010
0001
0100
0010
,
1000
0010
0001
0010
0100
1000
0100
0001
,
0010
0100
1000
0010
0001
0100
0001
0010
,
0100
0001
1000
0100
0001
0100
0010
0100
,
2000
0100
0010
3001
,
0200
1000
0010
0301
,
0020
1000
0100
0031
,
0200
0000
1000
0000
0010
0000
0301
1000
,
1000
0000
0001
0000
1000
0000
0001
0000
1000
0000
0001
0000
1000
0000
0001
1000
,
0001
0000
0010
0000
0001
0000
0010
0000
0001
0000
0010
0000
0001
0000
0010
0001
,
0010
0000
0100
0000
0010
0000
0100
0000
0010
0000
0100
0000
0010
0000
0100
0010
,
0100
0000
1000
0000
0100
0000
1000
0100
1000
0000
0010
1000
0010
0000
1000
0001
,
2000
0000
0000
0000
,
0000
0000
0000
0000
,
0010
0100
0002
0000
,
3000
0000
0000
0000
,
0103
0000
0000
0010
0000
0000
0000
0000
0000
1000
0010
0100
,
0001
0100
0000
1000
,
0100
0000
0000
0001
0000
0000
0000
0000
0000
0001
0010
0100
,
1000
0000
0010
0000
0000
2000
3020
0032
,
0023
0000
2030
3002
,
0203
0000
0000
0000
0000
0000
0000
0000
0000
0000
0000
0000
0302
0000
0000
0023
0000
0000
0230
0000
2300
0000
3200
0000
,
0320
0000
0000
0000
0230
0000
0000
0000
0000
0000
0302
0000
0203
0000
2300
3000
,
0022
0000
0000
0033
2200
0000
0000
3300
2020
0000
0000
3030
2002
0000
0000
3003
,
0001
0000
0100
0000
0001
0000
0100
0000
0001
0000
0100
0000
0001
0000
0100
0000
0001
0000
0100
0010
0000
0000
0100
0000
0001
0000
0010
0000
0100
0000
0000
0000
,
2100
0001
0100
3010
,
1002
0100
1000
0013
,
1200
0010
0001
1300
,
0021
1000
0100
0031
,
0001
0100
0001
0000
0100
0010
0000
0010
0000
0000
1000
0000
0010
0100
0010
0000
,
1000
0001
1000
0000
0100
0010
0000
0010
0000
0000
0100
0000
1000
0010
1000
0000
,
1000
0010
1000
0010
1000
0010
1000
0010
,
0001
0010
0001
0010
0001
0010
0001
0010
,
1000
0010
1000
0000
0100
0010
0100
0000
1000
0000
0100
0000
0001
0100
0000
0000
,
1000
0010
1000
0000
0001
0010
0001
0000
1000
0000
0010
0000
0001
0010
0000
0000
,
0100
0001
0100
0000
0001
0010
0001
0000
0100
0000
0010
0000
0001
0010
0000
0000
,
1000
0010
0100
0000
0001
0010
0100
0000
1000
0000
0010
0000
0100
0001
0000
0000
,
0001
0100
0010
0000
1000
0100
0010
0000
0001
0000
0010
0000
1000
0010
0000
0000
,
0001
1000
0010
0000
0100
0001
1000
0000
0100
0000
0010
0000
0001
0100
0000
0000
,
0010
0000
1000
0000
0010
0000
1000
0000
0010
0000
1000
0000
0010
0000
1000
0010
,
0100
0000
0010
0000
0100
0000
0010
0000
0100
0010
1000
0000
0100
0010
0001
0000
,
0010
0000
0001
0000
0100
0000
0010
0000
0001
0000
0010
0000
1000
0000
0001
1000
,
0001
0010
1000
0001
0100
1000
0010
0100
,
0001
0000
0010
0000
0100
0000
1000
0000
0100
0000
0001
0000
0100
0000
0010
0001
,
0010
0000
0001
0000
1000
0000
0010
0000
0001
0000
0010
0000
0100
0000
0001
1000
,
0001
0000
0100
0000
1000
0000
0001
0000
1000
0000
0100
0000
0001
0000
0100
0010
,
0100
0000
0001
0000
0100
0000
0010
0000
1000
0000
0001
0000
0100
0000
0010
1000
,
0010
0000
1000
0000
0100
0000
0001
0000
0100
0000
1000
0000
0010
0000
0100
0001
,
0100
0000
0010
0000
1000
0000
0010
0000
0100
0000
1000
0000
0100
0000
0001
1000
,
0001
0000
0100
0000
0010
0000
0100
0000
1000
0000
0100
0000
0010
0000
1000
0100
,
1000
0000
0001
0000
0010
0000
1000
0000
0010
0000
0100
0000
1000
0000
0010
0100
,
0010
0000
1000
0000
0001
0000
0100
0000
0010
0000
0001
0000
0010
0000
1000
0001
,
1000
0010
0100
0001
0100
0010
1000
0100
,
1100
0000
0100
0000
1000
0000
0100
0000
1000
0000
0100
0000
1000
0000
0020
0030
,
1001
0000
0100
0000
0001
0000
0100
0000
0001
0000
0100
0000
0001
0000
2000
3000
,
0011
0100
1010
0001
,
1100
0000
0000
0000
0101
0000
0000
0000
1100
0000
0000
0000
1000
0010
0100
0010
,
2000
0000
0000
0000
0001
0000
0000
0000
0200
3000
0000
0000
0001
0000
0000
0000
,
0001
0000
0000
0001
0000
0000
0302
0000
0203
0000
2300
0000
,
3020
0000
0000
0000
1000
0000
0000
0000
0200
0030
0000
0000
1000
0000
0000
0000
,
1000
1000
0302
0010
,
0203
0010
0302
1000
,
1000
0000
0000
1000
0000
0000
0203
0000
2300
0000
3200
0000
,
0302
0000
0000
0000
0010
0000
0000
0000
2000
0003
0000
0000
0100
0000
0000
0000
,
0020
0000
0000
0000
0000
3000
0230
0300
,
0200
0010
0302
0010
,
0010
0000
0000
0010
0000
0000
0203
0000
2300
0000
3200
0000
,
0320
0000
0000
0000
1000
0000
0000
0000
0200
0030
0000
0000
1000
0000
0000
0000
,
1000
1000
0302
1003
,
0210
0001
0320
1000
,
0002
0000
0000
0003
0000
0000
0000
0000
0000
0000
0000
0000
1000
0000
0000
0000
0000
0000
0030
0000
0000
0000
0000
0000
0002
0000
0000
0000
0000
0000
0000
0000
0203
0000
0000
0000
0000
0000
0000
0000
2300
0000
0000
0000
0000
0000
0000
0000
,
3100
0000
1100
0000
0000
0000
0010
0000
0110
0000
0000
1001
0000
0000
0011
0000
,
0101
1010
0011
1100
,
2001
0000
3020
0032
,
0203
0000
0000
0000
0000
0000
0000
0000
0000
0000
0000
0000
2300
0000
0000
3200
0000
0000
0302
0000
0023
0000
0230
0000
,
0301
2000
0000
0000
0000
0000
3020
0000
0000
0000
0000
0000
0001
0000
0000
0000
0000
0000
0000
0000
0000
0000
0000
0000
,
0000
0000
0000
1000
0000
0000
0000
0030
;

//---------------dance-single - ----------------
#NOTES:
     dance-single:
     :
     Hard:
     9:
     0.683,0.958,0.141,0.670,0.214:
0000
0000
0000
0000
,
1000
1000
1000
1000
,
0001
0001
0001
0001
,
2000
3020
0230
0302
,
0003
0000
0000
0000
0000
0000
0000
0000
0000
0000
0000
0000
0010
0100
0000
0000
0000
0000
0100
1000
0000
0000
0000
0000
,
1000
0002
0000
0000
0000
0000
0010
0000
0000
0000
0000
0000
0013
0000
0000
0000
0000
0000
0010
0000
0000
0000
0000
0000
,
0100
0100
0100
0100
,
1000
0001
0200
0000
0310
1000
0200
0000
,
0300
0010
0000
0001
0100
0100
0010
0010
,
1000
1000
1000
1000
,
0100
0100
0100
0100
,
2000
0010
3000
0000
2000
0100
3000
0000
2000
0010
3000
0000
2000
0001
3000
0000
,
1000
1000
0001
0001
,
1000
0020
0000
0000
0000
0030
0100
0002
0000
0000
0000
0003
0100
0000
0000
0000
0000
0000
0100
0000
0000
0000
0000
0000
,
0001
0001
0001
0001
,
0020
0000
0031
0100
0020
0000
1030
0100
,
0020
0000
0000
0000
0000
0000
0030
0000
0000
0000
0000
0000
0001
0200
0000
0000
0000
0300
1000
0200
0000
0000
0000
0300
,
0010
2000
0000
0000
0000
0000
0001
0000
0000
0000
0000
0000
3001
0000
0000
0000
0000
0000
0001
0000
0000
0000
0000
0000
,
0100
0100
0100
0100
,
0000
0000
0000
0000
0000
0000
0000
0000
0010
0000
0000
0000
0000
0000
0000
0000
0000
0000
0000
0000
0000
1000
0000
0000
0000
0000
0000
0000
0000
0000
0000
0000
,
0000
0000
0000
0000
0000
0001
0000
0000
0000
0000
0000
0000
0000
0000
0000
0000
0000
0000
0000
0000
0000
0000
0000
0000
0000
0000
0000
0000
0010
0000
0000
0000
,
0100
2000
0000
0000
0000
0000
0001
0000
0000
0000
0000
0000
3001
0000
0000
0000
0000
0000
0001
0000
0000
0000
0000
0000
,
0100
0000
0000
0000
0000
0000
0100
0000
0000
0000
0000
0000
0001
0010
0000
0000
0000
0000
0100
1000
0000
0000
0000
0000
,
0010
0200
0000
0000
0000
0000
0002
0000
0000
0300
0000
0003
2000
0000
0000
0000
0000
0000
3200
0000
0000
0000
0000
0000
,
0300
0000
0010
0000
0000
0000
0001
0000
1000
0000
1000
0000
0001
1000
0001
0000
,
0010
0100
1000
0001
0100
0010
1000
0000
,
0001
0100
1000
0100
0001
1000
0100
0000
,
0010
0001
0100
0001
1000
0100
0010
0000
,
0001
0010
1000
0010
0001
1000
0010
0000
,
0100
0001
0010
0100
1000
0001
0100
0000
,
0010
1000
0100
0010
0001
1000
0010
0000
,
0001
0010
0100
0001
0010
0100
1000
0000
,
0001
0100
1000
0100
0010
1000
0001
0000
,
0020
0100
1000
0031
,
0200
1000
0010
0301
,
0020
0001
1000
0130
,
2000
0000
0100
0000
3020
0000
0130
0001
,
1000
0010
1000
0010
1000
0010
1000
0001
,
0001
0010
0001
0010
0001
0010
0001
0100
,
0100
0010
0100
0010
0100
0010
0100
0001
,
0001
1000
0001
1000
1000
0001
0001
1000
,
2000
0000
0000
0000
,
0000
0000
0000
0000
,
0010
0100
0002
0000
,
3000
0000
0000
0000
,
0103
0000
0000
0010
0000
0000
0000
0000
0000
1000
0010
0100
,
0001
0010
0000
0100
,
0100
0000
0000
0010
0000
0000
0000
0000
0000
0001
0010
0100
,
1000
0000
0010
0000
0000
2000
3002
0023
,
0230
0000
0320
0230
,
2300
0000
0000
0000
0000
0000
0000
0000
0000
0000
0000
0000
3002
0000
0000
0023
0000
0000
0230
0000
2300
0000
3200
0000
,
0320
0000
0000
0000
0230
0000
0000
0000
0000
0000
2300
0000
3200
0000
0302
0003
,
0202
0000
0000
0003
0020
0300
0000
0030
0002
0000
0000
0003
2000
0000
3000
0000
,
0001
0000
0100
0000
0001
0000
0100
0000
0001
0000
0100
0000
0001
0000
0100
0000
0001
0000
0100
0010
0000
0000
0100
0000
0001
0000
0010
0000
0100
0000
0000
0000
,
2100
0001
0100
3010
,
1002
0100
1000
0013
,
1200
0010
0001
1300
,
0021
1000
0100
0031
,
0001
0000
0001
0000
1000
0010
0000
0010
0000
0000
0100
0000
0010
0000
1000
0000
,
0100
0000
0100
0000
1000
0010
0000
0010
0000
0000
0100
0000
0001
0000
0010
0000
,
0100
1000
0100
1000
0100
1000
0100
0000
,
0100
0001
0100
0001
0100
0001
0100
0000
,
1000
0000
1000
0000
0010
0000
0010
0000
0100
0000
0001
0000
0010
0001
0000
0000
,
0100
0000
0100
0000
0001
0000
0001
0000
1000
0000
0010
0000
0100
0001
0000
0000
,
0010
0000
0010
0000
0100
0000
0100
0000
1000
0000
0010
0000
0001
0010
0000
0000
,
1000
0000
1000
0000
0001
0000
0001
0000
0100
0000
1000
0000
0100
0010
0000
0000
,
1000
0010
0000
0000
1000
0001
0000
0000
0010
0000
0100
0000
1000
0100
0000
0000
,
0010
0001
0000
0000
0001
0100
0000
0000
0010
0000
1000
0000
0001
0010
0000
0000
,
0100
0000
1000
0000
0100
0000
1000
0000
0100
0000
1000
0000
0100
0000
1000
0100
,
1000
0000
0001
0000
0100
0000
0001
0000
0100
0001
0100
0000
0001
0100
0001
0000
,
1000
0100
1000
0010
1000
0100
0010
0001
,
0001
0100
0001
0010
0100
1000
0010
0100
,
0001
1000
0010
1000
0001
0010
0100
0010
,
0010
0001
1000
0010
0100
0001
0010
0100
,
0100
1000
0010
1000
0001
0100
0010
1000
,
1000
0001
0100
0001
0010
0100
0010
0001
,
0001
0100
0010
1000
0001
1000
0100
0010
,
0010
0100
1000
0010
0100
0001
0010
0100
,
0100
1000
0001
0100
0010
1000
0010
0001
,
0001
0010
0100
0001
0010
0001
0100
1000
,
1000
0100
0010
1000
0001
0010
0100
0001
,
0001
0100
1000
0010
0100
0001
0010
0001
,
1001
0000
1000
0000
0010
0000
1000
0000
0010
0000
1000
0000
0010
0000
0200
0300
,
1001
0000
0001
0000
0010
0000
0001
0000
0010
0000
0001
0000
0010
0000
0200
0300
,
1001
0100
1010
0100
,
0011
0000
0000
0000
1100
0000
0000
0000
1001
0000
0000
0000
1000
0010
1000
0010
,
2000
0001
3200
0010
,
0010
0000
0000
0010
0000
0000
0302
0000
0203
0000
2300
0000
,
3002
0010
0203
0010
,
0010
0010
0302
0010
,
2003
0100
3020
0100
,
0100
0000
0000
0100
0000
0000
2030
0000
3200
0000
0320
0000
,
0032
1000
0023
1000
,
0200
0000
0030
1300
,
2000
0001
3200
0010
,
0010
0000
0000
0010
0000
0000
0302
0000
0203
0000
2300
0000
,
3020
0100
2030
0001
,
0001
0001
3200
0310
,
0210
1000
0320
0001
,
2000
0000
0000
3000
0000
0000
0000
0000
0000
0000
0000
0000
0100
0000
0000
0000
0000
0000
0000
0000
0000
0000
0000
0000
0032
0000
0000
0000
0000
0000
0000
0000
0023
0000
0000
0000
0000
0000
0000
0000
0230
0000
0000
0000
0000
0000
0000
0000
,
1300
0000
1100
0000
0000
0000
0100
0000
0110
0000
0000
0011
0000
0000
0001
0000
,
0101
0110
1001
1010
,
2100
0000
3002
0023
,
2030
0000
0000
0000
0000
0000
0000
0000
0000
0000
0000
0000
3020
0000
0000
0032
0000
0000
2003
0000
3200
0000
0320
0000
,
0031
2000
0000
0000
0000
0000
3200
0000
0000
0000
0000
0000
0001
0000
0000
0000
0000
0000
0000
0000
0000
0000
0000
0000
,
0000
0000
0000
1000
0000
0000
0000
0300
;

//---------------dance-single - ----------------
#NOTES:
     dance-single:
     :
     Easy:
     5:
     0.315,0.426,0.080,0.462,0.003: // measure 1
0000
0000
0000
0000
,  // measure 2
1000
0000
1000
0000
,  // measure 3
0001
0000
0001
0000
,  // measure 4
2000
0000
0000
3000
0200
0000
0000
0300
,  // measure 5
0000
0000
1000
0100
,  // measure 6
0010
0000
0010
0000
,  // measure 7
0001
0000
0001
0000
,  // measure 8
1000
2000
3001
0002
,  // measure 9
0003
0010
0000
0100
0000
0000
0000
0000
,  // measure 10
1000
0000
1000
0000
,  // measure 11
0100
0000
0100
0000
,  // measure 12
0020
0000
0000
0030
0002
0000
0000
0003
,  // measure 13
1000
0000
1000
0000
,  // measure 14
1010
0020
0030
0000
,  // measure 15
0100
0000
0100
0000
,  // measure 16
0001
0002
1003
2000
,  // measure 17
3000
0000
0020
0000
,  // measure 18
2030
0000
3001
0000
,  // measure 19
0010
0000
0010
0000
,  // measure 20
0100
1000
0000
0000
,  // measure 21
0000
0000
0000
0000
0000
0001
0000
0000
0000
0000
0000
0000
0000
0000
0000
0000
0000
0000
0000
0000
0000
0000
0000
0000
0000
0000
0000
0000
0000
0000
0000
0000
,  // measure 22
0020
0000
0130
0000
,  // measure 23
0100
0000
0001
0100
,  // measure 24
2000
0000
0000
3000
0020
0000
0000
0030
,  // measure 25
0000
0100
0000
0001
0000
0000
0010
0000
,  // measure 26
0020
0000
0100
0030
,  // measure 27
0200
0000
1000
0300
,  // measure 28
2000
0000
0100
3000
,  // measure 29
0200
0000
0010
0300
,  // measure 30
0020
0000
0001
0030
,  // measure 31
0002
0000
1000
0003
,  // measure 32
2000
0000
0010
3000
,  // measure 33
0020
0000
0130
0000
,  // measure 34
0220
0000
0300
0000
,  // measure 35
2000
0030
0000
0000
,  // measure 36
0200
3000
0000
0000
,  // measure 37
0020
0300
0000
0000
0002
0030
0000
0000
,  // measure 38
0200
0003
0000
0000
,  // measure 39
0020
0300
0000
0000
,  // measure 40
2000
0030
0000
0000
,  // measure 41
0002
3000
0000
0000
,  // measure 42
2000
0003
0000
0000
,  // measure 43
0000
0000
0000
0000
,  // measure 44
0100
0000
0020
0000
,  // measure 45
3000
0000
0000
0000
,  // measure 46
0130
0001
0000
0010
,  // measure 47
0100
1000
0000
1000
,  // measure 48
0100
0010
0000
0001
,  // measure 49
0100
0010
0000
1000
,  // measure 50
0200
0300
0010
0001
,  // measure 51
0200
0300
0010
1000
,  // measure 52
0001
2000
3000
0100
,  // measure 53
0020
0230
2300
3020
,  // measure 54
0130
0000
0001
1000
,  // measure 55
0002
0000
1000
0003
,  // measure 56
0020
0000
0100
0030
,  // measure 57
0200
0000
0010
0300
,  // measure 58
2000
0000
0001
3000
,  // measure 59
0001
0010
0000
0010
,  // measure 60
0100
0010
0000
0001
,  // measure 61
0100
0100
0100
0000
,  // measure 62
0010
0010
0010
0000
,  // measure 63
1000
0100
1000
0100
,  // measure 64
0010
0001
0100
0000
,  // measure 65
0010
1000
0010
1000
,  // measure 66
0001
0010
0100
0000
,  // measure 67
1000
0010
1000
0010
,  // measure 68
0100
0001
0100
0001
,  // measure 69
1000
0100
0100
2000
,  // measure 70
3001
0010
0001
0002
,  // measure 71
1003
0001
1000
0001
,  // measure 72
0100
0010
0100
0001
,  // measure 73
0010
0100
0010
0001
,  // measure 74
1000
0001
1000
0000
,  // measure 75
0010
1000
0010
0100
,  // measure 76
0001
1000
0100
0010
,  // measure 77
0100
1000
0001
0100
,  // measure 78
0001
0100
0010
0000
,  // measure 79
1000
0100
1000
0001
,  // measure 80
0010
0001
1000
0010
,  // measure 81
0100
0001
0100
0010
,  // measure 82
1000
0001
1000
0000
,  // measure 83
1001
0000
0000
0000
,  // measure 84
0110
0000
0000
0000
,  // measure 85
0011
0000
1100
0000
,  // measure 86
1001
0000
0110
0000
,  // measure 87
2001
0000
3200
0000
,  // measure 88
0000
0300
0020
0000
,  // measure 89
0230
0000
2300
0000
,  // measure 90
0000
3000
0100
0000
,  // measure 91
0200
0000
0320
0000
,  // measure 92
0000
0030
0002
0000
,  // measure 93
2003
0000
3010
0000
,  // measure 94
0020
0000
0000
1030
,  // measure 95
2000
0000
3200
0000
,  // measure 96
0000
0300
0020
0000
,  // measure 97
0032
0000
0203
0000
,  // measure 98
0000
0300
2000
0000
,  // measure 99
3200
0000
0302
0000
,  // measure 100
1003
0000
0100
0000
,  // measure 101
0010
0100
0000
0000
0110
0000
0000
0000
,  // measure 102
1001
0001
0010
0100
,  // measure 103
2100
0000
3010
0100
,  // measure 104
0002
0000
0000
0000
0013
0100
1000
0000
,  // measure 105
0002
2003
0000
0000
,  // measure 106
0000
0000
0000
0000
0000
0000
0000
3000
;

//---------------dance-single - First Heavy chart----------------
#NOTES:
     dance-single:
     First Heavy chart:
     Edit:
     11:
     0.731,1.000,0.174,0.690,0.305:
0000
0000
0000
0000
,
1000
1000
1000
1000
,
0100
0100
0100
0100
,
0002
0023
2030
3200
,
0300
0000
0000
0000
0000
0000
0000
0000
0000
0000
0000
0000
0010
0100
0000
0000
0000
0000
0100
1000
0000
0000
0000
0000
,
1000
0002
0000
0000
0000
0000
0100
0000
0000
0000
0000
0000
0103
0000
0000
0000
0000
0000
0100
0000
0000
0000
0000
0000
,
0010
0010
0010
0010
,
1000
0100
0020
0000
1030
0010
0002
0000
,
0003
0000
0010
0000
0000
0000
0001
0000
0100
0001
0100
0000
0010
0001
0010
0000
,
0100
0100
0100
0100
,
1000
1000
1000
1000
,
1000
0010
1000
0000
0100
0010
0100
0000
1000
0010
1000
0000
0001
0010
0001
0000
,
0010
0010
0010
0010
,
0100
0020
0000
0000
0000
0030
0100
2000
0000
0000
0000
0000
3100
0000
0000
0000
0000
0000
0100
0000
0000
0000
0000
0000
,
1000
1000
1000
1000
,
0002
0100
0000
0003
0002
0010
0000
0003
0002
0100
0000
0003
0002
0010
0000
0003
,
0000
0000
0000
0000
0000
0000
0000
0000
0000
0000
0000
0000
0001
0020
0000
0000
0000
0030
0001
0200
0000
0000
0000
0300
,
0010
2000
0000
0000
0000
0000
0100
0000
0000
0000
0000
0000
3100
0000
0000
0000
0000
0000
0100
0000
0000
0000
0000
0000
,
0010
0010
0010
0010
,
0000
0000
0000
0000
0000
0000
0000
0000
0001
0000
0000
0000
0000
0000
0000
0000
0000
0000
0000
0000
0000
0100
0000
0000
0000
0000
0000
0000
0000
0000
0000
0000
,
0000
0000
0000
0000
0000
0010
0000
0000
0000
0000
0000
0000
0000
0000
0000
0000
0000
0000
0000
0000
0000
0000
0000
0000
0000
0000
0000
0000
0100
0000
0000
0000
,
0001
0020
0000
0000
0000
0000
0100
0000
0000
0000
0000
0000
0130
0000
0000
0000
0000
0000
0100
0000
0000
0000
0000
0000
,
1000
0000
0000
0000
0000
0000
1000
0000
0000
0000
0000
0000
0001
0010
0000
0000
0000
0000
0010
0100
0000
0000
0000
0000
,
0200
0000
2000
0000
0000
0000
0000
0000
0000
0300
0000
0000
0020
0000
0000
0000
0000
0000
3000
0000
0000
0030
0000
0000
0200
0000
0000
0000
0000
0000
0000
0000
0000
0000
0000
0000
0302
0000
0000
0000
0000
0000
0000
0000
0000
0000
0000
0000
,
0003
0000
0000
0000
0010
0001
0000
0000
0000
0000
0000
0000
0100
0001
0000
0000
0100
0000
0010
0000
0100
0000
0000
0000
0001
0000
0010
0000
0001
0000
0000
0000
,
0001
0010
0100
1000
0001
0010
0100
1000
,
0001
0100
1000
0100
0001
0100
1000
0100
,
0001
0010
0100
0001
0100
1000
0010
0100
,
0001
0010
1000
0010
0001
0010
1000
0010
,
0001
0100
0010
0001
0010
1000
0100
0010
,
0001
0010
1000
0010
0100
0001
0100
1000
,
0010
0100
0001
0010
1000
0100
0001
0010
,
0100
1000
0100
0001
0010
1000
0010
0100
,
0002
0100
0010
1003
,
0200
0001
0010
1300
,
0020
1000
0100
0031
,
0200
0000
0001
0000
0010
0000
1300
1000
,
1000
0000
0001
0000
1000
0000
0001
0000
1000
0000
0001
0000
1000
0000
0001
1000
,
0001
0000
0010
0000
0001
0000
0010
0000
0001
0000
0010
0000
0001
0000
0010
0001
,
0010
0000
0100
0000
0010
0000
0100
0000
0010
0000
0100
0000
0010
0000
0100
0010
,
0100
0000
1000
0000
0100
0000
1000
0100
1000
0000
1000
0010
1000
0000
1000
0001
,
2000
0000
0000
0000
,
0000
0000
0000
0000
,
0100
0010
0002
0000
,
3000
0000
0000
0000
,
0103
0000
0000
0010
0000
0000
0000
0000
0000
1000
0010
0100
,
0001
0100
0000
1000
,
0100
0000
0000
0001
0000
0000
0000
0000
0000
0001
0010
0100
,
1000
0000
0010
0000
0000
2000
3020
0032
,
0023
0000
2030
3002
,
0203
0000
0000
0000
0000
0000
0000
0000
0000
0000
0000
0000
0302
0000
0000
0023
0000
0000
0230
0000
2300
0000
3200
0000
,
0320
0000
0000
0000
0230
0000
0000
0000
0000
0000
0302
0000
0203
0000
2300
3000
,
0202
0000
0000
0303
2200
0000
0000
3300
2020
0000
0000
3030
2002
0000
0000
3003
,
0001
0000
0100
0000
0001
0000
0100
0000
0001
0000
0100
0000
0001
0000
0100
0000
0001
0000
0100
0010
0000
0000
0100
0000
0001
0000
0010
0000
0100
0000
0000
0000
,
2100
0001
0100
3010
,
1002
0100
1000
0013
,
1200
0010
0001
1300
,
0021
1000
0100
0031
,
0001
0100
0001
0000
0100
0010
0000
0010
0000
0000
1000
0000
0010
0100
0010
0000
,
1000
0001
1000
0000
0100
0010
0000
0010
0000
0000
0100
0000
1000
0010
1000
0000
,
1000
0010
1000
0010
1000
0010
1000
0010
,
0001
0010
0001
0010
0001
0010
0001
0010
,
1000
0010
1000
0000
0100
0010
0100
0000
1000
0000
0100
0000
0001
0100
0000
0000
,
1000
0010
1000
0000
0001
0010
0001
0000
1000
0000
0010
0000
0001
0010
0000
0000
,
0100
0001
0100
0000
0001
0010
0001
0000
0100
0000
0010
0000
0001
0010
0000
0000
,
1000
0010
0100
0000
0001
0010
0100
0000
1000
0000
0010
0000
0100
0001
0000
0000
,
0001
0100
0010
0000
1000
0100
0010
0000
0001
0000
0010
0000
1000
0010
0000
0000
,
0001
1000
0010
0000
0010
1000
0001
0000
0100
0000
0010
0000
0001
0100
0000
0000
,
1000
0000
0010
0000
1000
0000
0010
0000
1000
0000
0010
0000
1000
0000
0010
1000
,
0100
0000
0010
0000
0100
0000
0010
0000
0100
0010
0001
0000
0010
0100
1000
0000
,
0010
1000
0100
0010
1000
0100
0010
0001
,
0001
0010
1000
0001
0100
1000
0010
0100
,
0001
0010
0100
1000
0100
0001
0010
1000
,
1000
0001
0100
1000
0010
0001
0010
1000
,
1000
0100
0001
0010
0100
0001
0100
0010
,
0010
0001
0100
0010
1000
0001
0100
0010
,
0010
1000
0100
0001
0100
1000
0010
0001
,
0001
0010
0100
0001
0010
0100
1000
0010
,
0010
0100
0001
0010
0001
0100
0010
1000
,
1000
0010
0100
0001
0100
1000
0100
0010
,
0010
1000
0001
0100
0010
0001
0010
1000
,
1000
0010
0100
0001
0100
0010
1000
0100
,
1100
0000
0100
0000
1000
0000
0100
0000
1000
0000
0100
0000
1000
0000
0020
0030
,
1001
0000
0100
0000
0001
0000
0100
0000
0001
0000
0100
0000
0001
0000
2000
3000
,
0011
0100
1010
0001
,
1100
0000
0000
0000
0101
0000
0000
0000
1100
0000
0000
0000
1000
0010
0001
0010
,
2000
0001
3200
0001
,
0001
0000
0000
0001
0000
0000
0302
0000
0023
0000
2030
0000
,
3020
1000
0230
0001
,
0001
0001
2300
0001
,
3200
0010
0302
1000
,
1000
0000
0000
1000
0000
0000
0023
0000
0032
0000
0023
0000
,
2030
0001
3020
0100
,
2000
0000
0000
0000
0000
0030
3002
0003
,
0002
0010
0203
0010
,
0010
0000
0000
0010
0000
0000
2300
0000
3020
0000
0032
0000
,
0023
0100
2030
0001
,
0001
0000
0001
0000
3200
0000
0001
0300
,
1200
1000
0320
1000
,
0001
0000
0000
1000
0000
0000
0032
0000
0203
0000
0302
0000
,
0013
0000
0011
0000
0000
0000
1010
0000
1010
0000
0000
1100
0000
0000
0101
0000
,
0101
0000
0000
0000
1020
0000
0000
0030
0021
0000
0000
0030
0201
0000
0000
0300
,
2100
0000
3020
0032
,
0203
0000
0000
0000
0000
0000
0000
0000
0000
0000
0000
0000
2300
0000
0000
3200
0000
0000
0302
0000
0023
0000
0230
0000
,
0301
2000
0000
0000
0000
0000
3020
0000
0000
0000
0000
0000
0001
0000
0000
0000
0000
0000
0000
0000
0000
0000
0000
0000
,
0000
0000
0000
1000
0000
0000
0000
0030
;

//---------------dance-single - ----------------
#NOTES:
     dance-single:
     :
     Beginner:
     3:
     0.215,0.319,0.020,0.375,0.003: // measure 1
0000
0000
0000
0000
,  // measure 2
1000
0000
0000
0000
,  // measure 3
0001
0000
0000
0000
,  // measure 4
2000
3000
0002
0003
,  // measure 5
0000
0000
0001
0000
,  // measure 6
1000
0000
0000
0000
,  // measure 7
0010
0000
0000
0000
,  // measure 8
0200
0300
0002
0003
,  // measure 9
0000
0000
0000
0000
,  // measure 10
1000
0000
0000
0000
,  // measure 11
0100
0000
0000
0000
,  // measure 12
0020
0000
0000
0030
,  // measure 13
0001
0000
0000
0000
,  // measure 14
1000
1000
0000
0000
,  // measure 15
0010
0000
0000
0000
,  // measure 16
0200
0300
0200
0300
,  // measure 17
0000
0000
0001
0000
,  // measure 18
2000
0000
3000
0000
,  // measure 19
0100
0000
0000
0000
,  // measure 20
0000
0001
0000
0000
,  // measure 21
0000
0000
0000
0000
0000
0100
0000
0000
0000
0000
0000
0000
0000
0000
0000
0000
0000
0000
0000
0000
0000
0000
0000
0000
0000
0000
0000
0000
0000
0000
0000
0000
,  // measure 22
0020
0000
0030
0000
,  // measure 23
0001
0000
0000
0000
,  // measure 24
2000
3000
0002
0003
,  // measure 25
0000
0000
0000
0000
,  // measure 26
2000
0000
0000
3000
,  // measure 27
0020
0000
0000
0030
,  // measure 28
0200
0000
0000
0300
,  // measure 29
0002
0000
0000
0003
,  // measure 30
0020
0000
0000
0030
,  // measure 31
0200
0000
0000
0300
,  // measure 32
0020
0000
0000
0030
,  // measure 33
0002
0000
0000
0003
,  // measure 34
2000
0000
0000
0000
,  // measure 35
3002
0000
0000
0000
,  // measure 36
0203
0000
0000
0000
,  // measure 37
0310
0000
1000
0000
,  // measure 38
0200
0000
0000
0000
,  // measure 39
0320
0000
0000
0000
,  // measure 40
0032
0000
0000
0000
,  // measure 41
2003
0000
0000
0000
,  // measure 42
3002
0000
0000
0000
,  // measure 43
0000
0000
0000
0000
,  // measure 44
0000
0000
0000
0000
,  // measure 45
0000
0000
0000
0000
,  // measure 46
1003
0010
0000
0000
,  // measure 47
0010
0100
0000
0000
,  // measure 48
0100
0001
0000
0000
,  // measure 49
0001
0010
0000
0000
,  // measure 50
0200
0300
1000
0000
,  // measure 51
0002
0003
0100
0000
,  // measure 52
0010
2000
3000
0000
,  // measure 53
0002
1003
2000
3001
,  // measure 54
1001
0000
0000
0000
,  // measure 55
2000
0000
0000
3000
,  // measure 56
0020
0000
0000
0030
,  // measure 57
0200
0000
0000
0300
,  // measure 58
0002
0000
0000
0003
,  // measure 59
1000
1000
0000
0000
,  // measure 60
0001
0001
0000
0000
,  // measure 61
0100
0000
0100
0000
,  // measure 62
0010
0010
0010
0000
,  // measure 63
1000
1000
0001
0000
,  // measure 64
0001
0001
0010
0000
,  // measure 65
0100
0100
1000
0000
,  // measure 66
0010
0010
0100
0000
,  // measure 67
0001
1000
0001
0000
,  // measure 68
1000
0001
1000
0000
,  // measure 69
0010
0000
0100
0100
,  // measure 70
0001
0000
0010
0010
,  // measure 71
0001
0000
1000
0000
,  // measure 72
0001
1000
0001
0000
,  // measure 73
1000
0000
0010
0000
,  // measure 74
1000
0010
1000
0000
,  // measure 75
0100
0000
0010
0000
,  // measure 76
0100
0010
0100
0000
,  // measure 77
0010
0000
0001
0000
,  // measure 78
0010
0001
0010
0000
,  // measure 79
0001
0000
0100
0000
,  // measure 80
0010
0100
0010
0000
,  // measure 81
1000
0000
0100
0000
,  // measure 82
0010
0100
0010
0000
,  // measure 83
0110
0000
0000
0000
,  // measure 84
1001
0000
0000
0000
,  // measure 85
1000
0000
0100
0000
,  // measure 86
0010
0000
0001
0000
,  // measure 87
2000
3000
0020
0000
,  // measure 88
0030
0000
0000
0000
,  // measure 89
0200
0300
0002
0000
,  // measure 90
0003
0000
1000
0000
,  // measure 91
2000
3000
0020
0000
,  // measure 92
0030
0000
0100
0000
,  // measure 93
0002
0003
0010
0000
,  // measure 94
0020
0000
0030
0000
,  // measure 95
0200
0300
2000
0000
,  // measure 96
3000
0000
0000
0000
,  // measure 97
0002
0003
0200
0000
,  // measure 98
0300
0000
0010
0000
,  // measure 99
0020
0030
2000
0000
,  // measure 100
3000
0000
0000
0000
,  // measure 101
0200
0300
0020
0000
,  // measure 102
0030
0000
0001
0000
,  // measure 103
2000
0000
3010
0100
,  // measure 104
0002
0000
0013
0100
,  // measure 105
2000
3002
0000
0000
,  // measure 106
0000
0000
0000
0000
0000
0000
0000
0003
;
