#TITLE:Billy Herrington's Dreamland;
#SUBTITLE:;
#ARTIST:Billy Herrington;
#TITLETRANSLIT:;
#SUBTITLETRANSLIT:;
#ARTISTTRANSLIT:;
#CREDIT:Dossar;
#BANNER:bn.png;
#BACKGROUND:bg.png;
#LYRICSPATH:;
#CDTITLE:cd.png;
#MUSIC:Billy_Herringtons_Dreamland.mp3;
#OFFSET:0.100;
#SAMPLESTART:6.727;
#SAMPLELENGTH:15.000;
#SELECTABLE:YES;
#BPMS:0.000=175.600,123.000=180.000,124.000=175.600,163.000=180.000,164.000=175.600,216.000=159.000,220.000=170.000;
#STOPS:;
#BGCHANGES:;

//---------------dance-single - ----------------
#NOTES:
     dance-single:
     :
     Hard:
     11:
     0.992,1.000,0.250,0.761,0.897: // measure 1
0000
0000
0000
0000
,  // measure 2
2000
0000
3200
0000
,  // measure 3
0320
0000
0032
0000
,  // measure 4
1003
0100
0001
0100
,  // measure 5
1000
0000
0000
0000
0010
0000
0000
0000
0100
0000
0001
0000
1000
0010
0100
0001
,  // measure 6
1000
0000
0100
0010
0001
0000
0100
0010
1000
0000
0100
0010
0002
0000
0003
0000
,  // measure 7
0100
0000
0010
1000
0100
0000
0010
0001
0100
0000
0110
0000
2002
0000
3003
0000
,  // measure 8
1000
0000
0100
0010
0001
0000
0100
0010
1000
0000
0100
0010
0002
0000
0003
0000
,  // measure 9
1000
0100
0010
0001
1000
0010
0100
0001
1000
0000
1001
0000
0202
0000
0303
0000
,  // measure 10
0001
0100
1000
0100
0001
0100
1000
0100
,  // measure 11
0001
0000
1000
0001
1000
0000
0010
0100
0001
1000
0100
1000
0001
0000
0000
0000
,  // measure 12
1000
0100
0001
0100
1000
0100
0001
0100
,  // measure 13
1000
0001
0000
0100
0001
0000
1000
0000
0200
0000
0000
0000
0300
0000
0010
0001
,  // measure 14
0100
0000
0010
1000
0100
0000
0010
0001
0100
0000
0010
1000
0100
0000
0010
0001
,  // measure 15
0100
0000
0010
1000
0100
0000
0010
0000
0001
0000
0001
0000
0001
0000
0100
0010
,  // measure 16
1000
0000
0100
0010
0001
0000
0100
0010
1000
0000
0100
0010
0001
0000
0000
0000
,  // measure 17
1000
0010
0001
0010
0101
1001
1100
0000
,  // measure 18
1000
0000
0000
1000
0001
0000
0001
0100
0010
0000
0001
0000
0020
0000
0030
0000
,  // measure 19
1000
0000
1000
0100
0010
0000
0010
0100
1000
0001
0100
0010
2000
0000
3000
0000
,  // measure 20
0001
0000
0001
0100
0010
0000
0010
1000
0001
1000
0100
0010
0001
0000
0100
0000
,  // measure 21
1000
0000
0100
0010
0100
0000
0002
0000
2000
0000
0000
0000
0000
0000
3003
0000
,  // measure 22
1000
0000
0100
0000
0001
0000
0100
0010
0001
0000
1000
0000
0010
0000
0100
0001
,  // measure 23
1000
0000
0100
0000
0001
0000
0100
0010
0001
0000
1000
0000
0010
0000
0100
0001
,  // measure 24
1000
0000
0010
0000
0001
0000
0010
0100
0001
0000
1000
0000
0100
0000
0010
0001
,  // measure 25
1000
0000
0010
0000
0001
0000
0010
1000
0001
0000
0100
0000
0010
0000
1000
0001
,  // measure 26
0100
0000
0100
0000
0100
0010
0000
0010
1000
0000
1000
0000
1000
0001
0000
0001
,  // measure 27
0100
0001
0100
0000
0100
0010
1000
0000
1000
0000
0001
1000
0200
0320
0032
2003
,  // measure 28
3010
0000
1000
0100
0010
0000
0001
0100
0010
0000
1000
0100
0020
0000
0030
0000
,  // measure 29
0100
0000
1000
0010
0100
0000
0001
0010
0100
0000
1100
0000
2002
0000
3003
0000
,  // measure 30
1000
0000
0010
0100
0001
0000
0010
0100
1000
0000
0010
0100
0002
0000
0003
0000
,  // measure 31
1000
0010
1000
0001
0100
0001
1000
0100
0010
0000
0011
0000
2002
0000
3003
0000
,  // measure 32
1000
0100
0000
0000
1000
0001
0000
0000
,  // measure 33
0100
0001
0000
0100
1000
0000
0100
0001
1000
0000
0000
0000
0000
0000
0000
0000
,  // measure 34
1000
0000
0100
0000
0001
0100
0000
0000
2000
0000
0000
0000
0002
0000
0000
0000
,  // measure 35
30M3
0000
0M00
M000
00M0
0000
0M00
0000
000M
0000
00M0
0000
000M
0000
0000
1000
,  // measure 36
0100
0000
0000
0001
0100
0000
0000
1000
0010
0000
0000
0001
0010
0000
0000
0100
,  // measure 37
0001
0000
0000
0100
1000
0000
0000
0100
0002
0000
0000
0000
0003
0000
0000
1000
,  // measure 38
0100
0000
0000
0010
1000
0000
0000
0010
0001
0000
0200
0000
0000
0000
0300
0000
,  // measure 39
1001
0000
0200
0300
2002
3003
0220
0330
,  // measure 40
1000
0000
0000
1000
0100
0000
0100
0010
0001
0000
1001
0000
2200
0000
3300
0000
,  // measure 41
0001
0000
0001
0100
0010
0000
0010
1000
0001
1000
0100
0020
0000
0000
0030
0000
,  // measure 42
0001
1000
0100
0010
0001
0010
0100
1000
0001
1000
0100
0010
0002
0000
2003
0000
,  // measure 43
3010
0000
0010
0000
0010
0000
0010
0000
0200
0302
2003
3200
0320
0230
2300
3002
,  // measure 44
0103
0000
0100
0000
0100
0000
0001
1000
0100
0000
0100
0000
0100
0000
1000
0001
,  // measure 45
0100
0100
0100
0010
1000
0010
0001
0010
,  // measure 46
0100
0000
0100
0000
0100
0000
0001
1000
0100
0000
0100
0000
0100
0000
1000
0001
,  // measure 47
0100
0100
0100
0010
0001
0010
1000
0010
,  // measure 48
0100
0000
0100
0001
0100
0000
0001
1000
0100
0000
0100
0010
0100
0000
1000
0001
,  // measure 49
1000
0100
0010
0001
1000
0010
0100
0001
2000
3200
0302
0203
2300
3020
0032
0023
,  // measure 50
0130
0000
0001
0010
0100
0000
1000
0010
0100
0000
0001
0010
0200
0000
0300
0000
,  // measure 51
1000
0000
0010
0100
0001
0000
0010
0100
1000
0000
1001
0000
0202
0000
0303
0000
,  // measure 52
0001
0000
1000
0100
0010
0000
0001
0100
0010
0000
1000
0100
0020
0000
0030
0000
,  // measure 53
0010
0001
1000
0010
0100
0001
1000
0100
0010
0000
0011
0000
2002
0000
0000
0000
,  // measure 54
0000
0000
0000
3003
,  // measure 55
0000
0000
0000
0000
,  // measure 56
1000
0100
0001
0100
1000
0010
0100
0000
0001
2000
0000
3000
,  // measure 57
0001
0100
1000
0100
0001
0010
0100
0000
1000
0020
0000
0030
,  // measure 58
0100
0001
0010
1000
0010
0001
0100
0000
0010
0200
0000
0301
,  // measure 59
0010
1000
0010
0001
0100
0010
1000
0100
0010
0001
0000
0000
,  // measure 60
1001
0000
0000
M000
,  // measure 61
000M
0M00
0000
0000
;

//---------------dance-single - ----------------
#NOTES:
     dance-single:
     :
     Medium:
     10:
     0.873,0.912,0.024,0.428,0.778:
0000
0000
0000
0000
,
2000
0000
3200
0000
,
0320
0000
0032
0000
,
1003
0100
0010
0001
,
1000
0000
0010
0000
0100
0001
1000
0100
,
1000
0000
0001
0100
0001
0000
1000
0010
1000
0000
0001
0010
0002
0000
0003
0000
,
1000
0000
0010
0100
0010
0000
1000
0001
1000
0000
0001
0000
0200
0000
0300
0000
,
0001
0000
1000
0100
1000
0000
0100
0010
0100
0000
0010
0001
0020
0000
0030
0000
,
0001
1000
0001
1000
0001
1000
0001
1000
0001
0000
0100
0000
0010
0000
0000
0000
,
1000
0100
0001
0100
1000
0100
0001
0100
,
1000
0001
1000
0001
0100
0010
1000
0000
,
0001
0100
1000
0100
0001
0100
1000
0100
,
0001
0000
1000
0000
0001
0000
1000
0000
0200
0000
0000
0000
0300
0000
1000
0100
,
1000
0000
0100
0010
0100
0000
0010
0001
0010
0000
0100
0010
0100
0000
1000
0100
,
1000
0000
0100
0010
0100
0000
0010
0001
0010
0000
0100
0000
1000
0000
0001
0100
,
0001
0000
1000
0010
1000
0000
0001
0010
0001
0000
1000
0010
2000
0000
3000
0000
,
0001
0100
0010
1000
0001
0001
0001
0000
,
1000
0000
0000
1000
0100
0000
0010
0100
0010
0000
0001
0000
2000
0000
3000
0000
,
0001
0000
1000
0010
1000
0000
0001
0100
0001
0100
0001
0100
0002
0000
0003
0000
,
1000
0000
0100
0010
0100
0000
1000
0001
1000
0001
1000
0001
1000
0000
0010
0000
,
0100
0000
0001
1000
0001
0000
0100
0000
0220
0000
0000
0000
0000
0000
0330
0000
,
0010
0000
1000
0000
0001
0000
0100
0010
0100
0000
0001
0000
1000
0000
0100
0010
,
0100
0000
1000
0000
0001
0000
0100
0010
0100
0000
0001
0000
1000
0000
0100
0010
,
0100
0000
1000
0000
0001
0000
0100
0010
0100
0000
0001
0000
1000
0000
0100
0010
,
0100
0000
1000
0000
0001
0000
0100
0010
0100
0000
0001
0000
1000
0000
0100
0010
,
0100
0000
1000
0000
0001
0100
0000
0010
1000
0000
0001
0000
1000
0100
0000
1000
,
0001
1000
0001
0000
1000
0010
1000
0000
0001
0000
0100
0010
0200
0000
0000
0000
,
0301
0000
1000
0100
1000
0000
0001
0100
0001
0000
1000
0100
2000
0000
3000
0000
,
0001
0000
0010
0100
0010
0000
0100
1000
0100
0000
0010
0000
0002
0000
0003
0000
,
1000
0000
0100
0010
0100
0000
1000
0001
1000
0000
0010
0100
0020
0000
0030
0000
,
1000
0001
1000
0001
1000
0001
1000
0001
1000
0000
0010
0000
0200
0000
0000
0000
,
0301
1000
0000
0000
1000
0001
0000
0000
,
1000
0100
0000
1000
0100
0000
0010
0000
0001
0000
1000
0000
0000
0000
0000
0000
,
1000
0000
0000
0000
0001
0100
0000
0000
0002
0000
0000
0000
2000
0000
0000
0000
,
3M03
0000
00M0
M000
000M
0000
00M0
0000
0M00
0000
000M
0000
0M00
0000
0000
1000
,
0001
0000
0000
0001
0100
0000
0000
0100
1000
0000
0000
1000
0100
0000
0000
0100
,
0010
0000
0000
0010
1000
0000
0000
1000
0002
0000
0000
0000
0003
0000
0000
1000
,
0100
0000
0000
0100
0001
0000
0000
0001
0100
0000
0020
0000
0000
0000
0030
0000
,
0001
1000
0000
0000
0020
0000
0000
0000
0230
0000
0000
0000
0302
0000
0000
0000
,
1003
0000
0000
1000
0010
0000
1000
0001
1000
0000
0010
0000
0200
0000
0000
0000
,
0301
0000
1000
0010
1000
0000
0001
0100
0001
0100
0001
0200
0000
0000
0300
0000
,
0001
1000
0001
1000
0001
1000
0001
1000
0001
1000
0001
1000
0001
0000
1000
0000
,
0002
0203
0302
0203
0320
0000
0000
0000
,
1030
0000
0001
0000
1000
0000
0010
0100
0010
0000
1000
0000
0001
0000
0010
0100
,
0010
0000
0001
0000
1000
0000
0010
0100
0010
0000
1000
0000
0001
0000
0010
0100
,
0010
0000
0001
0000
1000
0000
0010
0100
0010
0000
1000
0000
0001
0000
0010
0100
,
0010
0000
0001
0000
1000
0000
0010
0100
0010
0000
1000
0000
0001
0000
0010
0100
,
0010
0000
0001
0000
1000
0000
0010
0100
0010
0000
1000
0000
0001
0000
1000
0000
,
0010
0000
0010
0000
0100
0000
0100
0000
0001
1000
0001
1000
0001
1000
0001
1000
,
0001
0000
1000
0010
1000
0000
0001
0100
0001
0000
1000
0100
2000
0000
3000
0000
,
0001
0000
1000
0100
1000
0000
0100
0010
0100
0000
0010
0000
0002
0000
0003
0000
,
1000
0000
0001
0010
0001
0000
0010
0100
0010
0000
0100
1000
0200
0000
0300
0000
,
1000
0001
1000
0001
1000
0001
1000
0001
1000
0000
0010
0000
0200
0000
0000
0000
,
0000
0000
0000
0300
,
0000
0000
0000
0000
,
0001
0100
0001
1000
0010
1000
0001
0000
1000
0010
0000
0000
,
0100
0001
0100
0010
1000
0010
0100
0000
0001
1000
0000
0000
,
0001
1000
0001
0100
0010
0100
0001
0000
1000
0100
0000
0010
,
0001
0000
1000
0010
0000
0100
0001
0000
0000
1000
0000
0000
,
1001
0000
0000
0000
;

//---------------dance-single - ----------------
#NOTES:
     dance-single:
     :
     Easy:
     7:
     0.526,0.596,0.368,0.107,0.000:
0000
0000
0000
0000
,
1000
0000
0100
0000
,
0010
0000
0001
0000
,
1000
1000
0001
0001
,
0100
0100
0010
0010
,
1000
0001
1000
0000
1000
0100
1000
0000
,
0001
0100
0001
0000
0001
1000
0001
0000
,
0100
0010
0100
0000
0100
0001
0100
0000
,
0010
1000
0010
1000
0010
0100
0001
0000
,
1000
1000
0100
0100
,
0010
0010
0001
0001
,
1000
1000
0010
0010
,
0100
0100
1001
0000
,
0001
0100
0001
0100
0001
0100
0001
0100
,
0001
0100
0001
0100
0002
0000
0003
0000
,
1000
0010
1000
0010
1000
0010
1000
0000
,
0001
0001
1000
1000
,
1001
0000
1001
0000
0001
0100
0001
0000
,
1001
0000
1001
0000
1000
0010
1000
0000
,
1001
1100
0110
0011
,
1001
0000
0110
0000
2002
0000
0000
3003
,
1000
0100
1000
0000
1000
0001
1000
0000
,
1000
0100
1000
0000
1000
0001
1000
0000
,
0001
0100
0001
0000
0001
1000
0001
0000
,
0001
0010
0001
0000
0001
0100
0001
0000
,
1000
0100
1000
0000
0001
0100
0001
0000
,
1000
0010
1000
0000
0001
0100
0001
0000
,
1000
0001
1000
0001
1000
0001
1000
0000
,
0001
0100
0001
0100
0001
0100
0001
0000
,
1000
0100
1000
0100
1000
0100
1000
0000
,
0001
1000
0001
1000
0001
1000
0001
0000
,
1000
0000
0100
0000
,
0010
0010
1001
0000
,
1000
0010
0200
0002
,
0303
0000
0000
0000
,
1001
0110
1001
0110
,
1001
0110
1001
0000
,
0110
1001
0110
0000
,
1001
0000
0110
1001
,
1100
0000
1100
0000
0100
0010
0100
0000
,
0110
0000
0110
0000
0010
0001
0010
0000
,
0001
1000
0001
1000
0001
1000
0001
1000
,
0002
2003
3002
0000
,
1003
1000
0100
0100
,
0010
0010
0001
0001
,
1000
1000
0100
0100
,
0010
0010
0001
0001
,
1000
1000
0001
0001
,
1000
0010
0100
0001
1000
0010
0100
0001
,
1000
0100
1000
0000
1000
0001
1000
0000
,
0001
0100
0001
0000
0001
1000
0001
0000
,
0100
0010
0100
0000
0100
0001
0100
0000
,
0001
1000
0001
1000
0001
1000
0002
0000
,
0000
0000
0000
0003
,
0000
0000
0000
0000
,
1000
0001
1000
1000
,
0001
0100
0001
0001
,
1000
0100
1000
1000
,
0001
0001
1000
0010
,
1001
0000
0000
0000
;

//---------------dance-single - ----------------
#NOTES:
     dance-single:
     :
     Beginner:
     3:
     0.270,0.351,0.321,0.000,0.000:
0000
0000
0000
0000
,
1000
0000
1000
0000
,
0001
0000
0001
0000
,
1000
0000
1000
0000
,
0001
0000
0001
0000
,
1000
1000
1000
0000
,
0001
0001
0001
0000
,
0100
0100
0100
0000
,
0010
0010
0010
0000
,
0110
0000
0110
0000
,
1001
0000
1001
0000
,
0110
0000
0110
0000
,
1001
0000
1001
0000
,
0001
0001
0001
0000
,
1000
1000
1000
0000
,
0001
0001
0001
0000
,
1000
1000
1000
0000
,
0001
0000
0001
0000
,
1000
0000
1000
0000
,
0001
0001
1000
1000
,
1001
1001
1001
0000
,
1000
1000
1000
0000
,
0001
0001
0001
0000
,
0100
0100
0100
0000
,
0010
0010
0010
0000
,
1000
0000
0000
0000
,
1000
0000
0000
0000
,
1000
1000
1000
0000
,
0001
0001
0001
0000
,
1000
1000
1000
0000
,
0001
0001
0001
0000
,
0100
0000
0100
0000
,
0010
0000
0010
0000
,
1001
0000
0000
0000
,
0000
0000
0000
0000
,
1000
1000
1000
1000
,
0001
0001
0001
0000
,
1000
1000
1000
0000
,
0001
0000
0001
0001
,
1001
0000
1001
0000
,
1001
0000
1001
0000
,
0001
0001
0001
0001
,
1000
1000
1001
0000
,
1000
0000
0100
0000
,
0010
0000
0001
0000
,
1000
0000
0010
0000
,
0100
0000
0001
0000
,
1000
0000
0010
0000
,
0110
0110
0110
0110
,
0110
0000
0000
0000
,
0000
0000
0000
0000
,
0000
0000
0000
0000
,
1001
1001
1001
1001
,
0000
0000
0000
0000
,
0000
0000
0000
0000
,
1000
0000
0000
0000
,
0001
0000
0000
0000
,
0100
0000
0000
0000
,
0010
0000
1000
1000
,
1001
0000
0000
0000
;
