#TITLE:Applause;
#SUBTITLE:;
#ARTIST:Lady Gaga;
#TITLETRANSLIT:;
#SUBTITLETRANSLIT:;
#ARTISTTRANSLIT:;
#GENRE:;
#CREDIT:;
#BANNER:;
#BACKGROUND:;
#LYRICSPATH:;
#CDTITLE:;
#MUSIC:[Friendly Vowels] - Applause.ogg;
#OFFSET:-0.182;
#SAMPLESTART:55.015;
#SAMPLELENGTH:15.427;
#SELECTABLE:YES;
#BPMS:0.000=140.010
;
#STOPS:
;
#BGCHANGES:;
#KEYSOUNDS:;
#ATTACKS:;

//---------------dance-single - ----------------
#NOTES:
     dance-single:
     :
     Hard:
     8:
     0.571,0.514,0.651,0.116,0.000,278.000,56.000,10.000,0.000,0.000,0.000,0.571,0.514,0.651,0.116,0.000,278.000,56.000,10.000,0.000,0.000,0.000: // measure 0
0000
0000
0000
0000
,  // measure 1
0000
0000
0000
0000
,  // measure 2
0000
0000
0000
0000
,  // measure 3
0000
0000
0000
0000
,  // measure 4
1000
0100
1000
0001
1000
0001
0100
0001
,  // measure 5
0100
0001
0100
0001
0100
0001
0100
0001
,  // measure 6
0100
0010
0100
0010
1000
0010
1000
0001
,  // measure 7
1000
0001
1000
0001
1000
0001
1000
0000
,  // measure 8
1100
0000
0101
0000
0100
0010
1000
0000
,  // measure 9
1010
0000
0011
0000
0010
0100
1000
0000
,  // measure 10
0010
0000
0010
0100
0000
0001
0010
0100
,  // measure 11
1000
0000
1001
0000
0001
0100
0110
0010
,  // measure 12
1010
0000
1001
0000
0001
0010
0100
0000
,  // measure 13
1100
0000
1001
0000
0001
0100
0010
0000
,  // measure 14
1000
0100
0001
0100
1000
0010
0002
0000
,  // measure 15
0013
1000
0001
0010
0100
1000
1001
0001
,  // measure 16
0101
0000
1010
0000
1000
0100
1000
0000
,  // measure 17
1100
0000
0011
0000
0001
0100
0001
0000
,  // measure 18
1000
0100
0001
1000
0010
0001
0200
0000
,  // measure 19
1300
0001
0010
1000
0100
0010
0011
0001
,  // measure 20
0101
0000
0101
0000
0100
0001
0100
0000
,  // measure 21
1100
0000
1100
0000
0100
1000
0100
0000
,  // measure 22
1000
0010
0001
0010
1000
0100
0002
0000
,  // measure 23
0103
1000
0010
0100
0001
1000
0010
1000
,  // measure 24
0100
0000
1100
0100
0010
0000
0110
0010
,  // measure 25
0001
0000
0011
0001
0100
1000
0001
0010
,  // measure 26
1000
0000
1010
0000
1000
0100
0001
1000
,  // measure 27
0010
0000
0011
0000
0001
1000
0010
0000
,  // measure 28
0201
0301
0021
0130
,  // measure 29
2100
0010
0001
3100
,  // measure 30
0100
1000
0001
1000
0001
0100
0001
2000
,  // measure 31
0002
0000
0000
3003
,  // measure 32
1000
0100
0001
0100
1000
0010
0001
0010
,  // measure 33
1000
0100
0001
0010
1000
0000
1010
0000
,  // measure 34
1000
0100
0001
1000
0010
0001
1000
0010
,  // measure 35
0100
0000
0101
0001
1000
0000
1001
0000
,  // measure 36
0001
0100
1000
0100
0001
0010
1000
0010
,  // measure 37
0001
0100
1000
0010
0001
0000
0011
0000
,  // measure 38
0001
0100
1000
0001
0010
1000
0100
0010
,  // measure 39
0001
0000
1001
1000
0010
0000
0110
0000
,  // measure 40
0100
0001
0101
0101
0001
0000
0011
0000
,  // measure 41
0010
0100
0110
0110
0100
0000
1100
0000
,  // measure 42
1000
0001
1001
1001
1000
0000
1001
0000
,  // measure 43
0001
0100
0110
0110
0010
0000
0110
0000
,  // measure 44
0010
1000
1010
1010
1000
0000
1001
0000
,  // measure 45
0001
0010
0011
0011
0001
0000
1001
0000
,  // measure 46
1000
0010
0001
1000
0100
0001
0010
0100
,  // measure 47
1000
0000
1100
1000
0001
0000
0101
0000
,  // measure 48
0001
0001
0000
1000
1000
0000
1001
2002
,  // measure 49
0000
3003
0000
0000
0000
0000
0000
0000
;

//---------------dance-single - ----------------
#NOTES:
     dance-single:
     :
     Medium:
     6:
     0.458,0.457,0.116,0.674,0.000,208.000,10.000,58.000,0.000,0.000,0.000,0.458,0.457,0.116,0.674,0.000,208.000,10.000,58.000,0.000,0.000,0.000:
0000
0000
0000
0000
,
0000
0000
0000
0000
,
0000
0000
0000
0000
,
0000
0000
0000
0000
,
1000
0000
1000
0010
0000
0010
0200
0000
,
0001
0001
0001
0001
,
0301
0000
0001
1000
0000
1000
0200
0000
,
0010
0000
0010
0000
0010
0010
0320
0000
,
0032
0203
0320
2030
,
3002
0000
0000
0010
0000
0013
0000
0000
,
0001
0000
0001
1000
0000
1000
0000
1100
,
0000
0100
0010
0000
0001
1000
0010
1000
,
0002
0023
0230
2300
,
3002
0000
0000
0100
0000
0103
0000
0000
,
0001
1000
0001
0000
0100
0010
0100
0000
,
0001
1000
0001
0000
0010
0100
0010
0000
,
0200
2300
3020
0230
,
0302
0000
0000
1000
0000
1003
0000
0000
,
1000
0000
0100
0000
0010
0001
0010
0000
,
0001
0000
1000
0000
0010
1000
0010
0000
,
2000
3020
0230
0302
,
2003
0000
0000
0001
0000
3001
0000
0000
,
0001
0000
0010
0000
0100
1000
0100
0000
,
1000
0000
0010
0000
0100
0001
1000
0002
,
0020
0000
0033
0002
2000
0000
3003
0002
,
0200
0000
0303
0001
0100
0000
0010
0000
,
1010
1010
1000
0001
,
0011
0011
0001
1000
,
0002
0023
0230
2300
,
3020
0100
0100
0100
,
0230
0000
0302
0000
,
2000
0000
0000
3003
,
0001
0010
0100
1000
,
0010
1000
0010
0100
0001
0000
0101
0000
,
0001
0000
1000
0000
0100
0000
0010
0100
,
1000
0000
0010
0100
0001
0000
1000
0100
,
0010
0001
0100
0010
,
1000
0100
0010
0001
1000
0000
1001
0000
,
0001
0000
0100
0000
0010
0000
1000
0100
,
0010
0000
0001
0100
0010
0000
1000
0000
,
0001
0002
0000
0100
0203
0000
0010
0320
,
0000
1000
2030
0000
3200
0000
0320
0000
,
0031
0002
0000
1000
2003
0000
0010
3020
,
0000
0100
0230
0000
0301
0000
0101
0000
,
0001
0002
0000
0010
0023
0000
0100
0230
,
0000
1000
2300
0000
3002
0000
2003
0000
,
3010
0100
0010
0100
0001
0100
0001
1000
,
0002
0000
1003
0001
2000
0000
3002
0000
,
0013
0010
0000
0100
0100
0000
0110
0220
,
0000
0330
0000
0000
0000
0000
0000
0000
;

//---------------dance-single - ----------------
#NOTES:
     dance-single:
     :
     Easy:
     3:
     0.233,0.227,0.047,0.047,0.000,132.000,4.000,4.000,0.000,0.000,0.000,0.233,0.227,0.047,0.047,0.000,132.000,4.000,4.000,0.000,0.000,0.000:
0000
0000
0000
0000
,
0000
0000
0000
0000
,
0000
0000
0000
0000
,
0000
0000
0000
0000
,
1000
1000
0010
0010
,
0100
0100
0100
0100
,
0001
0001
0010
0010
,
0100
0100
0100
0100
,
1000
1000
1000
0000
,
0010
0010
0010
0000
,
0100
0000
0001
0000
,
0010
0000
0100
0000
,
1000
1000
1000
0000
,
0010
0010
0010
0000
,
0100
0000
0001
0000
,
1000
0000
0001
0000
,
0010
0001
0010
0000
,
0001
1000
0001
0000
,
1000
0010
1000
1000
,
0001
0001
1000
1000
,
0100
1000
0100
0000
,
1000
0010
1000
0000
,
0010
0010
0100
0100
,
0001
0010
0100
1000
,
0001
0000
1000
0000
,
0001
0000
0100
0100
,
0100
0100
0010
0010
,
0010
0010
1000
1000
,
0001
0001
0010
0010
,
0100
0100
0100
0100
,
1000
0100
1000
0001
,
2002
0000
0000
3003
,
1000
0000
1000
0000
,
0010
0010
0010
0000
,
0100
0000
0100
0000
,
0001
0000
0001
0000
,
0010
0000
0010
0000
,
0100
0100
0100
0000
,
1000
0000
1000
0000
,
0001
0001
0001
0000
,
1000
0000
0010
0000
,
0100
0100
0100
0000
,
0001
0000
0010
0010
,
0010
0000
0100
0000
,
1000
0100
1000
0000
,
0001
0100
0001
0000
,
1000
1000
0001
0001
,
1001
0000
1001
0000
,
2002
0000
0000
0000
0000
0000
0000
3003
;

//---------------dance-single - ----------------
#NOTES:
     dance-single:
     :
     Beginner:
     1:
     0.128,0.138,0.000,0.000,0.000,77.000,0.000,0.000,0.000,0.000,0.000,0.128,0.138,0.000,0.000,0.000,77.000,0.000,0.000,0.000,0.000,0.000:
0000
0000
0000
0000
,
0000
0000
0000
0000
,
0000
0000
0000
0000
,
0000
0000
0000
0000
,
1000
0000
1000
0000
,
1000
0000
0000
0000
,
0001
0000
0001
0000
,
0001
0000
0000
0000
,
0010
0000
0010
0000
,
0100
0000
0100
0000
,
1000
0000
0000
0000
,
0001
0000
0000
0000
,
1000
0000
1000
0000
,
0010
0000
0010
0000
,
0100
0000
0000
0000
,
0001
0000
0000
0000
,
1000
0000
0100
0000
,
1000
0000
0001
0000
,
0100
0000
0000
0000
,
0010
0000
0000
0000
,
0100
0000
0001
0000
,
0100
0000
0010
0000
,
1000
0000
0000
0000
,
0100
0000
1000
0000
,
0001
0000
0001
0000
,
0001
0000
0010
0000
,
0010
0000
0100
0000
,
0100
0000
1000
0000
,
1000
0000
0010
0000
,
0100
0000
0000
0000
,
0001
0000
0010
0000
,
0100
0000
0000
0000
,
1000
0000
0001
0000
,
0100
0000
0000
0000
,
0010
0000
1000
0000
,
0001
0000
0001
0000
,
1000
0000
1000
0000
,
0100
0000
0000
0000
,
0010
0000
0010
0000
,
0001
0000
0000
0000
,
0100
0000
0001
0000
,
0100
0000
0001
0001
,
1000
0000
0100
0000
,
1000
0000
0100
0100
,
1000
0000
0010
0000
,
1000
0000
0001
0001
,
0010
0000
0001
0000
,
1000
0000
0001
0000
;
