#TITLE:yellow head joe;
#SUBTITLE:;
#ARTIST:S-C-U;
#TITLETRANSLIT:;
#SUBTITLETRANSLIT:;
#ARTISTTRANSLIT:;
#CREDIT:;
#BANNER:[Colors] - yellow head joe.png;
#BACKGROUND:[Colors] - yellow head joe-bg.png;
#LYRICSPATH:;
#CDTITLE:;
#MUSIC:[Colors] - yellow head joe.mp3;
#OFFSET:-0.484;
#SAMPLESTART:0.050;
#SAMPLELENGTH:12.000;
#SELECTABLE:YES;
#BPMS:0.000=187.000;
#STOPS:154.333=0.220
,154.667=0.220
,155.000=0.220
,155.333=0.220
;
#BGCHANGES:;

//---------------dance-single - ----------------
#NOTES:
     dance-single:
     :
     Hard:
     9:
     0.521,0.507,0.000,0.162,0.379:
0000
0000
0000
0000
,
0000
0000
0000
0000
,
0000
0000
0000
0000
,
0000
0000
0000
0000
,
0000
0000
0000
0000
,
0000
0000
0000
0000
,
0000
0000
0000
0000
,
0000
0000
0000
0000
,
0000
0000
0000
0000
0000
0000
0000
0000
1000
0000
0000
0100
0000
0000
0010
0000
,
0000
1000
0000
0000
0010
0000
0000
0000
0100
0000
0000
0010
0000
0000
1000
0000
,
0000
0001
0000
0000
0100
0000
0000
0000
0010
0000
0000
0001
0000
0000
0100
0000
,
0000
0010
0000
0000
1000
0000
0000
0000
0010
0000
0000
1000
0000
0000
0100
0000
,
0000
0001
0000
0000
0010
0000
0000
0000
0100
0000
0000
1000
0000
0000
0100
0000
,
0000
0010
0000
0000
0100
0000
0000
0000
0010
0000
0000
0001
0000
0000
0100
0000
,
0000
1000
0000
0000
0010
0000
0000
0000
1000
0000
0000
0010
0000
0000
0001
0000
,
0000
0100
0000
0000
0010
0000
0000
0000
0001
0000
0000
0010
0000
0000
0001
0000
,
0000
0100
0000
0000
1000
0000
0000
0000
0010
0000
0000
1000
0000
0000
0100
0000
,
0000
0100
0000
0000
0010
0000
0000
0000
1000
0000
0000
0010
0000
0000
1000
0000
,
0000
0100
0000
0000
0001
0000
0000
0000
0010
0000
0000
0100
0000
0000
1000
0000
,
0000
0100
0000
0000
0001
0000
0000
0000
0100
0000
0000
1000
0000
0000
0010
0000
,
0000
0001
0000
0000
0010
0000
0000
0000
0100
0000
0000
0010
0000
0000
0001
0000
,
0000
1000
0000
0000
0100
0000
0000
0000
0010
0000
0000
0100
0000
0000
0001
0000
,
0000
0100
0000
0000
1000
0000
0000
0000
0100
0000
0000
0010
0000
0000
0100
0000
,
0000
0010
0000
0000
0100
0000
0000
0000
0001
0000
0000
1000
0000
0000
0001
0000
,
0000
1000
0000
0000
0001
0000
0000
0000
1000
0000
0100
0000
1000
0000
0000
0000
,
0100
0010
0100
0000
0001
0100
0010
0000
,
0001
0010
1000
0000
0100
0001
0010
0000
,
0100
0010
1000
0000
0010
0100
1000
0000
,
0100
0010
0100
0000
1000
0010
0100
0000
,
0001
0100
1000
0000
0100
0010
0100
0000
,
0010
1000
0001
0000
0001
0010
1000
0000
,
1000
0010
0100
0000
0010
0001
1000
0000
,
1000
0010
0100
0000
1000
0010
1000
0000
,
0010
0100
1000
0000
0010
0001
0100
0000
,
0001
0010
0100
0000
1000
0100
1000
0000
,
0001
0100
0001
0000
0010
1000
0010
0000
,
0100
0010
0001
0000
0100
0010
1000
0000
,
0100
0001
0010
0000
0100
1000
0010
0000
,
0010
0000
0000
0001
0000
0000
1000
0000
0000
0000
0000
0000
0010
0000
0001
0000
0100
0000
0010
0000
1000
0000
0100
0000
,
0010
0000
0000
0000
0100
0010
0100
0000
,
0001
0010
0100
0000
0010
0100
0010
0000
,
0001
0010
0001
0000
1000
0010
1000
0000
,
0100
0001
0100
0000
0001
0010
0001
0000
,
0100
0010
0100
0000
1000
0010
0001
0000
,
0100
0010
0001
0000
0100
0010
0100
0000
,
0001
1000
0100
0000
0100
0010
0001
0000
,
0010
0100
0001
0000
0010
0100
0010
0000
,
1000
0000
0000
0000
0000
0000
0010
0000
0000
0000
0000
0000
1000
0000
0000
0000
0000
0000
0000
0000
0000
0000
0000
0000
1000
0000
0100
0000
0000
0000
0000
0000
0000
1000
0000
0000
0100
0000
0000
0000
0000
0000
0000
0000
0000
0000
0000
0000
,
0100
0010
0100
0000
0100
0010
0100
0000
,
0001
0010
0001
0000
0001
0010
0001
0000
,
0001
0010
0100
0000
0001
0010
0100
0000
,
1000
0100
0010
0000
1000
0100
0010
0000
,
0100
0010
0001
0000
0100
0010
0001
0000
,
0010
0000
0100
0000
1000
0000
0000
0000
0010
0000
0100
0000
2000
0000
0000
0100
,
0000
0000
0100
0000
0000
0010
0000
0000
0010
0000
0000
0002
0000
0000
0000
0000
,
0000
0000
0000
0000
0000
0000
0000
0000
0000
0000
0000
3003
0002
0000
0000
0010
,
0000
0000
1000
0000
0000
0100
0000
0000
0010
0000
0000
0003
2000
0000
0000
0100
,
0000
0000
0010
0000
0000
0100
0000
0000
0001
0000
0000
0000
3200
0000
0000
0010
,
0000
0000
1000
0000
0000
0001
0000
0000
0010
0000
0000
0000
0302
0000
0000
0010
,
0000
0000
1000
0000
0000
0100
0000
0000
0010
0000
0000
0000
2003
0000
0000
0100
,
0000
0000
0010
0000
0000
0100
0000
0000
0001
0000
0000
0000
3002
0000
0000
0010
,
0000
0000
0100
0000
0000
1000
0000
0000
0010
0000
0000
0000
2003
0000
0000
0100
,
0000
0000
0001
0000
0000
0010
0000
0000
0001
0000
0000
0000
3200
0000
0000
0001
,
0000
0000
1000
0000
0000
0010
0000
0000
1000
0000
0000
0000
0320
0000
0000
1000
,
0000
0000
0100
0000
0000
0001
0000
0000
1000
0000
0000
0000
0032
0000
0000
0100
,
0000
0000
1000
0000
0000
0010
0000
0000
1000
0000
0000
0000
0203
0000
0000
0010
,
0000
0000
0001
0000
0000
1000
0000
0000
0010
0000
0000
0000
2300
0000
0000
0001
,
0000
0000
0100
0000
0000
0001
0000
0000
0010
0000
0000
0000
3020
0000
0000
0100
,
0000
0000
0001
0000
0000
0100
0000
0000
1000
0000
0000
0000
2030
0000
0000
0100
,
0000
0000
0010
0000
0000
0001
0000
0000
0010
0000
0000
0000
3000
0100
0000
0000
,
0010
0000
0000
0100
0000
0000
1000
0000
0000
0001
0000
0000
0010
0000
0000
0100
,
0000
0000
0000
0000
0000
0000
1000
0000
0000
0000
0000
0000
0000
0000
0000
0001
0000
0000
0000
0000
0000
0000
0000
0000
0100
0000
0000
0000
0000
0000
0000
0000
0010
0000
0000
0000
0000
0000
0000
0000
0000
0000
0000
0000
0000
0000
0000
0000
;

//---------------dance-single - ----------------
#NOTES:
     dance-single:
     :
     Medium:
     7:
     0.385,0.362,0.000,0.020,0.207:
0000
0000
0000
0000
,
0000
0000
0000
0000
,
0000
0000
0000
0000
,
0000
0000
0000
0000
,
0000
0000
0000
0000
,
0000
0000
0000
0000
,
0000
0000
0000
0000
,
0000
0000
0000
0000
,
0000
0000
0000
0000
1000
0000
0000
0100
,
0000
0000
0010
0000
0100
0000
0000
0010
,
0000
0000
1000
0000
0100
0000
0000
0010
,
0000
0000
0001
0000
0010
0000
0000
1000
,
0000
0000
0100
0000
0001
0000
0000
0100
,
0000
0000
0010
0000
0100
0000
0000
0001
,
0000
0000
1000
0000
0010
0000
0000
1000
,
0000
0000
0010
0000
0001
0000
0000
1000
,
0000
0000
0100
0000
1000
0000
0000
0010
,
0000
0000
1000
0000
0010
0000
0000
0100
,
0000
0000
0010
0000
0100
0000
0000
1000
,
0000
0000
1000
0000
0001
0000
0000
0010
,
0000
0000
0001
0000
0010
0000
0000
0100
,
0000
0000
0001
0000
1000
0000
0000
0010
,
0000
0000
0000
0000
0010
0000
0000
0000
0001
0000
0000
0010
0000
0000
0001
0000
,
0000
0010
0000
0000
1000
0000
0000
0100
0000
0000
1000
0000
0000
0100
0000
0000
,
0010
0000
0001
0010
0001
0000
0100
0000
,
0010
1000
0001
0100
,
0010
0000
1000
0100
0001
0000
0010
0000
,
0100
1000
0001
0100
,
0010
0000
0100
1000
0001
0000
1000
0000
,
0010
0100
1000
0001
,
0100
0000
0010
0001
1000
0000
0001
0000
,
0100
0010
0100
0001
,
0010
0000
0100
0010
1000
0000
0001
0000
,
0100
0010
1000
0100
,
0010
0000
0001
1000
0010
0000
0100
0000
,
0010
0001
1000
0100
,
1000
0000
0010
0100
0001
0000
0100
0000
,
1000
0001
0010
0100
,
1000
0000
0000
0001
0000
0000
0100
0000
1000
0000
0000
0100
,
0010
0000
0000
1000
,
0100
0010
1000
0001
,
0010
0000
0100
0000
1000
0100
0001
0000
,
0100
0010
0100
0001
,
0010
0000
0100
0000
1000
0010
0001
0000
,
0100
0010
0100
0001
,
0010
0000
1000
0000
0010
1000
0100
0000
,
0001
0010
0100
0001
,
0010
0000
1000
0000
0010
0001
0100
0000
,
0001
0010
0001
0100
,
0010
0000
1000
0000
0010
0001
0100
0000
,
0001
0010
0100
1000
,
0001
0000
0010
0000
1000
0010
0100
0000
,
0001
0010
0100
0001
,
0010
0000
1000
0000
0010
0001
0200
0000
,
0000
0000
0000
0000
0000
0000
0000
0000
0000
0000
0000
0002
0000
0000
0000
0000
,
0000
0000
0000
0000
0000
0000
0000
0000
0000
0000
0000
0303
0100
0000
0000
0010
,
0000
0000
0100
0000
0000
0010
0000
0000
0001
0000
0000
0000
1000
0000
0000
0010
,
0000
0000
0100
0000
0000
0010
0000
0000
1000
0000
0000
0000
0100
0000
0000
0001
,
0000
0000
1000
0000
0000
0010
0000
0000
0100
0000
0000
0000
0001
0000
0000
0010
,
0000
0000
0100
0000
0000
0001
0000
0000
0010
0000
0000
0000
0100
0000
0000
1000
,
0000
0000
0001
0000
0000
0100
0000
0000
0010
0000
0000
0000
0010
0000
0000
0100
,
0000
0000
0010
0000
0000
1000
0000
0000
0001
0000
0000
0000
1000
0000
0000
0010
,
0000
0000
0001
0000
0000
0100
0000
0000
1000
0000
0000
0000
0001
0000
0000
0010
,
0000
0000
0100
0000
0000
0010
0000
0000
1000
0000
0000
0000
0100
0000
0000
0001
,
0000
0000
0100
0000
0000
0001
0000
0000
0100
0000
0000
0000
0010
0000
0000
0001
,
0000
0000
0010
0000
0000
0001
0000
0000
0010
0000
0000
0000
1000
0000
0000
0100
,
0000
0000
0010
0000
0000
0100
0000
0000
1000
0000
0000
0000
0001
0000
0000
0010
,
0000
0000
1000
0000
0000
0100
0000
0000
0001
0000
0000
0000
0010
0000
0000
0100
,
0000
0000
0001
0000
0000
1000
0000
0000
0100
0000
0000
0000
0010
0000
0000
1000
,
0000
0000
0010
0000
0000
0001
0000
0000
0010
0000
0000
0000
0000
0100
0000
0000
,
0010
0000
0000
1000
0000
0000
0100
0000
0000
0001
0000
0000
0010
0000
0000
0100
,
0000
0000
0000
0000
0000
0000
0010
0000
0000
0000
0000
0000
0000
0000
0000
1000
0000
0000
0000
0000
0000
0000
0000
0000
0010
0000
0000
0000
0000
0000
0000
0000
1000
0000
0000
0000
0000
0000
0000
0000
0000
0000
0000
0000
0000
0000
0000
0000
;

//---------------dance-single - ----------------
#NOTES:
     dance-single:
     :
     Easy:
     5:
     0.295,0.362,0.010,0.020,0.030: // measure 1
0000
0000
0000
0000
,  // measure 2
0000
0000
0000
0000
,  // measure 3
0000
0000
0000
0000
,  // measure 4
0000
0000
0000
0000
,  // measure 5
0000
0000
0000
0000
,  // measure 6
0000
0000
0000
0000
,  // measure 7
0000
0000
0000
0000
,  // measure 8
0000
0000
0000
0000
,  // measure 9
0000
0000
1000
0000
,  // measure 10
0000
0001
0100
0000
,  // measure 11
0000
0010
0001
0000
,  // measure 12
0000
1000
0100
0000
,  // measure 13
0000
0010
1000
0000
,  // measure 14
0000
0100
0001
0000
,  // measure 15
0000
0010
0100
0000
,  // measure 16
0000
1000
0100
0000
,  // measure 17
0000
1000
0010
0000
,  // measure 18
0000
0100
0010
0000
,  // measure 19
0000
0010
0001
0000
,  // measure 20
0000
0001
1000
0000
,  // measure 21
0000
0010
1000
0000
,  // measure 22
0000
0001
0010
0000
,  // measure 23
0000
0010
1000
0000
,  // measure 24
0000
0100
0010
0000
,  // measure 25
0000
1000
0100
1000
,  // measure 26
0100
0010
0001
0010
,  // measure 27
0100
1000
0001
0010
,  // measure 28
0001
0100
0010
0100
,  // measure 29
0001
0010
1000
0010
,  // measure 30
0100
0001
0010
0001
,  // measure 31
1000
0100
1000
0010
,  // measure 32
0100
1000
0001
0100
,  // measure 33
0010
0100
0010
1000
,  // measure 34
0001
0100
0010
1000
,  // measure 35
0001
0010
0100
1000
,  // measure 36
0001
0010
0001
1000
,  // measure 37
0100
1000
0010
0100
,  // measure 38
1000
0001
0100
0010
,  // measure 39
1000
0001
0100
1000
,  // measure 40
0010
0000
0000
1000
,  // measure 41
0100
0010
1000
0001
,  // measure 42
0010
0100
0001
0010
,  // measure 43
1000
0010
0100
0010
,  // measure 44
0001
0010
1000
0010
,  // measure 45
0100
0001
0010
0001
,  // measure 46
0100
0010
0100
1000
,  // measure 47
0100
0010
0001
1000
,  // measure 48
0100
1000
0010
0100
,  // measure 49
0001
0010
1000
0010
,  // measure 50
0100
0001
0010
0001
,  // measure 51
0100
0010
1000
0001
,  // measure 52
0100
0010
1000
0001
,  // measure 53
0010
0100
1000
0001
,  // measure 54
0100
0010
0100
2002
,  // measure 55
0000
0000
0000
0000
,  // measure 56
0000
0000
0000
0000
0000
0000
0000
0000
0000
0000
0000
3003
1000
0000
0000
0000
,  // measure 57
0000
0100
0001
0010
,  // measure 58
0000
1000
0001
0100
,  // measure 59
0000
0100
1000
0001
,  // measure 60
0000
0001
0100
0010
,  // measure 61
0000
0001
0010
1000
,  // measure 62
0000
1000
0100
0010
,  // measure 63
0000
0010
0001
0010
,  // measure 64
0000
1000
0001
0100
,  // measure 65
0000
0100
0001
0010
,  // measure 66
0000
1000
0001
0100
,  // measure 67
0000
1000
0100
0010
,  // measure 68
0000
1000
0100
1000
,  // measure 69
0000
0001
0010
0001
,  // measure 70
0000
0000
0000
0000
0100
0000
0000
0000
0010
0000
0000
0000
0000
0100
0000
0000
,  // measure 71
0010
0000
0000
0100
0000
0000
1000
0000
0000
0100
0000
0000
0010
0000
0000
0001
,  // measure 72
0000
0000
0000
0000
0000
0000
0100
0000
0000
0000
0000
0000
0000
0000
0000
0010
0000
0000
0000
0000
0000
0000
0000
0000
1000
0000
0000
0000
0000
0000
0000
0000
0100
0000
0000
0000
0000
0000
0000
0000
0000
0000
0000
0000
0000
0000
0000
0000
;
