#TITLE:rainbow flyer;
#SUBTITLE:-gratitude remix-;
#ARTIST:PHQUAZE;
#TITLETRANSLIT:;
#SUBTITLETRANSLIT:;
#ARTISTTRANSLIT:;
#GENRE:;
#CREDIT:xRGTMx;
#BANNER:[Colors] - rainbow flyer -gratitude remix--banner.png;
#BACKGROUND:[Colors] - rainbow flyer -gratitude remix--bg.png;
#LYRICSPATH:;
#CDTITLE:cdtitle.png;
#MUSIC:[Colors] - rainbow flyer -gratitude remix-.mp3;
#OFFSET:-0.040;
#SAMPLESTART:89.342;
#SAMPLELENGTH:11.163;
#SELECTABLE:YES;
#BPMS:0.000=86.000
,16.000=172.000
,160.000=43.000
,164.000=86.000
,180.000=172.000
,247.000=344.000
,249.000=172.000
,252.000=344.000
,254.000=172.000
,257.000=344.000
,259.000=172.000
,261.000=344.000
,263.000=172.000
;
#STOPS:
;
#BGCHANGES:;
#KEYSOUNDS:;
#ATTACKS:;

//---------------dance-single - xRGTMx-S13----------------
#NOTES:
     dance-single:
     xRGTMx-S13:
     Hard:
     9:
     0.604,0.726,0.370,0.277,0.277,426.000,44.000,33.000,0.000,0.000,0.000,0.604,0.726,0.370,0.277,0.277,426.000,44.000,33.000,0.000,0.000,0.000: // measure 0
0000
0000
0000
0000
,  // measure 1
0000
0000
0000
0000
,  // measure 2
1100
0000
0010
0000
0001
0000
0000
0102
0000
0000
1000
0000
1003
0000
0001
0000
,  // measure 3
0000
0000
0101
0000
0010
0000
1000
0002
0000
0000
0000
2000
0000
0003
3000
0000
,  // measure 4
0001
0000
0010
0000
0100
0000
1000
0020
,  // measure 5
0001
0000
0001
0000
0100
0000
1030
0010
,  // measure 6
0000
0000
1010
0000
0100
0000
0001
0020
,  // measure 7
1000
0000
0000
0130
0000
1000
0001
0000
,  // measure 8
0010
0001
0010
0100
1000
0100
0010
0001
,  // measure 9
0100
0010
0100
0001
0100
0010
1000
0001
,  // measure 10
0010
0000
0100
1000
0100
0001
0100
1000
,  // measure 11
0010
0001
0010
1000
0100
0010
0001
0000
,  // measure 12
2002
0000
0000
0000
,  // measure 13
0000
0000
0000
0000
,  // measure 14
3003
0000
0000
0000
,  // measure 15
0001
0000
0010
0000
0000
0110
0000
0000
1100
0000
0000
1000
0001
0000
0000
0000
,  // measure 16
1002
0000
0200
0003
,  // measure 17
0310
0000
0100
0000
0010
0000
1000
0000
0000
0001
0000
0000
0010
0000
0100
0000
0010
0000
0001
0000
0000
1000
0000
0000
,  // measure 18
2001
0000
0200
3000
,  // measure 19
0310
0000
0000
0000
0000
0000
0000
0000
0000
0001
0000
0000
0010
0000
0000
0000
0100
0000
0000
0000
1000
0000
0000
0000
0010
0000
0000
0000
0000
0000
0100
0000
0000
0000
0000
0000
0001
0000
0000
1000
0000
0000
0000
0000
0000
0000
0000
0000
,  // measure 20
1002
0000
0020
0003
,  // measure 21
0130
0000
0010
0000
0100
0000
1000
0000
0000
0001
0000
0000
0100
0000
0010
0000
0100
0000
0001
0000
0000
1000
0000
0000
,  // measure 22
1001
0000
0000
0000
0010
1000
0100
0010
,  // measure 23
2002
0000
3003
0110
,  // measure 24
0010
1000
0100
0010
0000
0010
0001
0000
,  // measure 25
0100
1000
0100
0001
0000
1000
0100
0010
,  // measure 26
0001
0000
2001
0000
0100
0000
3001
1000
,  // measure 27
0000
1000
0010
0001
0010
0100
0001
0000
,  // measure 28
0010
0001
0100
0010
0000
0010
1000
0000
,  // measure 29
0100
0001
0100
1000
0000
0001
0100
0010
,  // measure 30
1000
0000
0000
0000
0002
0000
0000
0000
0100
0000
0000
0000
1003
0000
0001
1000
,  // measure 31
0001
0000
0000
0001
0000
0000
1000
0000
0000
1000
0000
0000
0110
0000
0000
0000
,  // measure 32
0010
1000
0100
0000
0010
1000
0100
0000
,  // measure 33
1000
0001
1100
1001
,  // measure 34
0010
1000
0001
0000
0010
1000
0001
0000
,  // measure 35
1000
0011
1100
1001
,  // measure 36
0100
1000
0001
0000
0100
1000
0001
0000
,  // measure 37
0110
0011
1100
1001
,  // measure 38
0010
0000
1000
0000
0100
0000
0000
0010
0001
0000
0100
0000
0001
0000
0000
1000
,  // measure 39
0001
1000
0010
1000
0100
0000
0110
0000
,  // measure 40
2002
0000
3003
0000
,  // measure 41
0001
0000
0010
0000
0100
1000
0000
0201
0000
0000
1000
0000
0302
0000
0010
0000
,  // measure 42
1003
0000
0010
0000
0100
0001
0000
0011
0000
1100
0000
0000
1001
0000
1000
0000
,  // measure 43
0001
0000
0100
0010
1000
0100
0000
0120
0000
0031
0010
0100
1000
0000
0001
0000
,  // measure 44
0100
0010
0100
1000
0100
0002
0000
0003
0000
2100
0000
0000
3001
0010
0100
1000
,  // measure 45
0010
0000
0000
0100
0010
0000
1000
0000
0000
0001
0010
0000
0100
0000
1000
0000
,  // measure 46
0001
0100
1000
0200
0000
0301
0100
0010
,  // measure 47
1000
0000
0000
0100
0010
0000
0001
0000
0000
0100
0010
0000
1000
0000
0001
0000
,  // measure 48
0010
0000
1000
0000
0010
0000
0002
0000
0000
0000
1003
0000
1000
0001
1000
0000
,  // measure 49
0001
0010
0100
1000
0001
0010
0100
1000
,  // measure 50
0000
1000
0010
0100
0001
1000
0100
0010
,  // measure 51
0001
0100
1000
0100
0010
1000
0100
0010
,  // measure 52
0000
0010
0002
0000
1003
0000
1001
0000
,  // measure 53
1100
1000
0001
0000
0101
0001
1000
0000
,  // measure 54
0100
0010
0001
0000
0110
0000
1001
0000
,  // measure 55
0101
0001
1000
0000
1100
1000
0001
0000
,  // measure 56
0100
0000
0010
0000
1000
0000
0100
0000
0010
0000
0100
0000
1001
0000
0000
1000
,  // measure 57
0100
0000
1000
0000
0001
0000
0000
0001
0100
0000
0001
0000
1000
0000
0000
1000
,  // measure 58
0100
0000
0010
0000
0001
0000
0000
0000
0100
0000
0010
0000
1001
0000
0000
0001
,  // measure 59
0100
0000
0001
0000
1000
0100
0000
1000
0100
0000
1000
0000
0001
0100
0000
0001
,  // measure 60
0100
0000
0010
0000
1000
0000
0100
0000
0010
0000
0100
0000
1001
0000
0000
0001
,  // measure 61
1000
0000
0100
0010
0001
0000
0100
0000
1000
0000
0100
0000
0002
0000
0000
0000
,  // measure 62
0000
0000
0000
0000
0013
0000
0100
1000
0010
0000
0100
0000
0001
0000
1000
0000
,  // measure 63
0200
0000
0000
0000
0000
0000
0000
0000
0301
0000
0100
1000
0001
0000
0100
0000
,  // measure 64
1000
0000
0100
0000
0002
0000
0000
0000
0000
0000
0000
0000
1003
0000
0100
0010
,  // measure 65
0001
0100
0020
0000
0000
0000
0130
0000
,  // measure 66
1001
0000
0000
1000
0100
0010
0000
0010
0100
0000
1000
0000
0001
0000
0100
0000
,  // measure 67
0010
0000
1000
0100
0001
0000
0100
0000
1000
0001
0100
0000
0010
0000
1000
0000
,  // measure 68
0001
0000
0000
0010
0100
1000
0000
1000
0001
0000
0100
0000
0010
0000
1000
0000
,  // measure 69
0001
0000
0010
0100
1000
0000
0001
0000
0100
0010
1000
0000
0100
0000
0010
0000
,  // measure 70
2002
0000
0000
0000
,  // measure 71
0000
0000
0000
0000
,  // measure 72
3003
0000
0000
0000
;

//---------------dance-single - xRGTMx-S8----------------
#NOTES:
     dance-single:
     xRGTMx-S8:
     Medium:
     7:
     0.428,0.484,0.143,0.420,0.059,290.000,17.000,50.000,0.000,0.000,0.000,0.428,0.484,0.143,0.420,0.059,290.000,17.000,50.000,0.000,0.000,0.000:
0000
0000
0000
0000
,
0000
0000
0000
0000
,
0120
0000
0000
0000
0000
0000
0000
2000
0000
0000
0000
0000
0000
0000
3030
0000
,
0000
0000
2100
0000
0000
0000
0000
0002
0000
0000
0000
0000
0000
3000
0003
0000
,
1000
1000
0010
0100
,
0001
0000
0100
0000
1000
0000
0100
0001
,
0000
0011
0010
0100
,
1000
0000
0100
0000
0001
0100
1000
0000
,
0001
0000
1000
0000
0100
0000
0100
0010
,
0001
0000
0100
0000
1000
0000
0100
0001
,
0010
0001
0010
0100
,
1010
0000
0101
0000
0010
0100
1000
0000
,
2002
0000
0000
0000
,
0000
0000
0000
0000
,
3003
0000
0000
0000
,
0100
0010
0000
0000
0010
1000
0001
0000
,
2100
0000
0020
3000
,
0130
0000
0001
0010
0100
0000
1000
0000
,
0200
0300
0022
0033
,
0001
0100
1000
0000
,
0102
0000
0020
0003
,
0130
0000
1000
0010
0100
0000
0001
0000
,
0200
0000
0300
0000
0010
0100
0010
0000
,
2002
0000
3003
0001
,
1000
0000
0010
0000
0000
0100
0010
0000
,
1000
0000
0001
0000
0000
0001
0100
0000
,
0001
0000
0010
0000
0000
0100
0010
0000
,
0001
0000
1000
0000
0000
1000
0010
0000
,
1000
0000
0100
0000
0000
0010
0100
0000
,
1000
0000
0001
0000
0000
0001
0010
0000
,
0001
0000
0100
0000
0000
0010
0100
0000
,
0001
0000
0000
1000
0000
0000
0100
0000
0000
0001
0000
0000
0100
0000
0000
0000
,
1000
0000
0010
0000
0010
0100
0010
0000
,
1000
0000
0001
0000
0100
0001
0100
0000
,
0001
0000
0010
0000
0010
0100
0010
0000
,
0001
0000
1000
0000
0010
1000
0010
0000
,
1000
0000
0100
0000
0100
0010
0100
0000
,
1000
0000
0001
0010
0100
0010
0001
0000
,
1000
0000
0010
0100
0001
0100
0010
0000
,
1000
0010
0001
0100
,
2002
0000
3003
0000
,
1000
0000
0000
0000
0010
0200
0000
0001
0000
0000
0000
0000
1000
0000
0000
0000
,
0301
0000
0000
0000
0010
0100
0000
0200
0000
1000
0000
0000
0001
0000
0000
0000
,
1300
0000
0000
0000
0100
0020
0000
0001
0000
0000
0000
0000
1000
0000
0000
0000
,
0031
0000
0000
0000
0100
0010
0000
0020
0000
1000
0000
0000
0001
0000
0000
0000
,
1030
0000
0100
0010
0000
0001
0000
1000
,
0002
0203
2300
3200
,
0301
0000
0100
0010
0000
1000
0000
0001
,
2000
3200
0302
0203
,
1300
0010
0001
0010
,
1000
0000
0100
0000
0010
0000
0100
1000
,
0002
0203
2300
3200
,
0302
0023
0130
1001
,
1000
0010
0001
0000
0010
1000
0100
0000
,
0010
0100
1000
1001
,
0001
0010
1000
0000
0010
0001
0100
0000
,
0010
0100
0001
1001
,
1000
0100
0001
0000
0100
1000
0010
0000
,
0100
0010
1000
1001
,
0001
0100
1000
0000
0100
0001
0010
0000
,
0100
0010
0001
1001
,
1000
0100
0010
0000
0100
0010
0002
0000
,
0000
0000
1003
0000
0010
0000
0100
0001
,
2000
0000
0000
0000
3001
0100
0010
0000
,
0100
0010
2000
0000
0000
0000
3001
0010
,
0100
1000
0002
0000
0000
0000
1003
0000
,
2000
3020
0230
0302
,
2003
3200
0320
0032
,
1003
0100
1000
0100
1000
0001
1000
0001
,
0100
0001
0100
0001
0100
0010
0100
0000
,
2002
0000
0000
0000
,
0000
0000
0000
0000
,
3003
0000
0000
0000
;

//---------------dance-single - xRGTMx-S5----------------
#NOTES:
     dance-single:
     xRGTMx-S5:
     Easy:
     4:
     0.227,0.242,0.059,0.109,0.050,169.000,7.000,13.000,0.000,0.000,0.000,0.227,0.242,0.059,0.109,0.050,169.000,7.000,13.000,0.000,0.000,0.000:
0000
0000
0000
0000
,
0000
0000
0000
0000
,
1000
0000
0000
0000
0000
0000
0000
1000
0000
0000
0000
0000
0000
0000
0000
0000
,
0000
0000
0001
0000
0000
0000
0000
0001
0000
0000
0000
0000
0000
0000
0000
0000
,
1001
0000
0000
0000
0000
0000
0000
1000
,
0000
0000
0000
0000
,
0000
0000
0001
0000
0000
0000
0000
0100
,
0000
0001
0001
0000
,
1001
0000
1000
0000
,
0100
0000
0010
0000
,
0001
0000
0001
0000
,
0100
0100
0010
0000
,
2002
0000
0000
0000
,
0000
0000
0000
0000
,
3003
0000
0000
0000
,
0000
0000
0000
0000
,
0010
0000
1000
0000
,
0001
0001
0001
0000
,
0010
0000
0001
0000
,
1000
1000
2000
3000
,
0100
0000
1000
0000
,
0001
0001
0001
0000
,
0100
0000
0001
0001
,
1000
0000
0000
1000
,
0001
0000
0100
0000
,
1000
0000
0100
0000
,
0001
0000
0010
0000
,
1000
0000
0010
0000
,
0001
0001
0001
0000
,
1000
1000
1000
0000
,
0001
0001
1000
0000
,
1000
1000
0001
0000
,
1000
0000
0100
0000
,
0001
0000
0100
0000
,
1000
0000
0010
0000
,
0001
0000
0010
0000
,
1000
1000
1000
0000
,
0001
0001
0001
0000
,
1000
1000
0001
0000
,
0001
0001
1000
0000
,
0220
0000
0330
0000
,
1000
0000
0000
0000
0000
0100
0000
0100
0000
0000
0000
0000
0000
0000
0000
0000
,
0001
0000
0000
0000
0000
0100
0000
0100
0000
0100
0000
0000
0000
0000
0000
0000
,
1000
0000
0000
0000
0000
0010
0000
0010
0000
0000
0000
0000
0000
0000
0000
0000
,
0001
0000
0000
0000
0000
0010
0000
0010
0000
0020
0000
0000
0030
0000
0000
0000
,
1000
0000
0100
0000
,
0010
0000
0001
0000
,
1000
1000
0100
0000
,
0100
0100
0010
0000
,
0001
0000
0100
0000
,
0010
0000
1000
0000
,
0001
0001
0100
0000
,
0100
0100
0020
0030
,
1001
0000
1000
0000
,
0001
0001
0001
0000
,
0100
0100
0100
0000
,
0010
0010
0100
0000
,
1001
0000
0001
0000
,
1000
1000
1000
0000
,
0100
0100
0100
0000
,
0010
0010
0100
0000
,
1000
1000
1000
0020
,
0000
1030
1000
0001
,
2000
0000
3001
0001
,
0001
0020
0000
0031
,
0001
2000
0000
3000
,
1000
0010
1000
1000
,
0001
0001
1000
1000
,
0001
0010
0001
0001
,
1000
1000
0001
0001
,
2002
0000
0000
0000
,
0000
0000
0000
0000
,
3003
0000
0000
0000
;
