#TITLE:Vermilion;
#SUBTITLE:;
#ARTIST:dj Remo-con;
#TITLETRANSLIT:;
#SUBTITLETRANSLIT:;
#ARTISTTRANSLIT:;
#GENRE:;
#CREDIT:Telperion;
#BANNER:[Colors] - Vermilion.png;
#BACKGROUND:[Colors] - Vermilion-bg.png;
#LYRICSPATH:;
#CDTITLE:cdtitle.png;
#MUSIC:[Colors] - Vermilion.ogg;
#OFFSET:-0.095000;
#SAMPLESTART:3.462000;
#SAMPLELENGTH:10.049999;
#SELECTABLE:YES;
#DISPLAYBPM:143.000000;
#BPMS:0.000000=143.000000
;
#STOPS:
;
#BGCHANGES:;
#KEYSOUNDS:;
#ATTACKS:;

//---------------techno-single8 - Telperion----------------
#NOTES:
     techno-single8:
     Telperion:
     Challenge:
     10:
     0.824669,0.947148,0.267254,0.053451,1.000000,510.000000,25.000000,5.000000,16.000000,0.000000,1.000000,0.824669,0.947148,0.267254,0.053451,1.000000,510.000000,25.000000,5.000000,16.000000,0.000000,1.000000:
00000000
00000000
00000000
00000000
,
00000000
00000000
00000000
00000000
,
10000000
00000000
00000000
00100000
00000000
00000000
00000001
00000000
00000000
00000100
00000000
00000000
00100000
00000000
00000001
00000000
,
00000000
00000000
00000000
00000000
,
00100000
00010000
01000000
00010000
00100000
00010000
01000000
00000001
10000000
00000010
00010000
00000100
00000001
00000000
00000001
00000000
,
00000100
00010000
00000010
00010000
00000100
00010000
00000010
10000000
00000001
01000000
00010000
00100000
10000000
00000000
10000000
00000000
,
00100000
00010000
01000000
00000001
00010000
00000100
10000000
00000010
00100000
00010000
01000000
00000010
00010000
00000000
00010000
00000000
,
00001100
00000000
10010000
00000000
00001100
00000000
10010000
00000100
,
01000000
00000100
00100000
00000100
01000000
00000100
00100000
00000010
00001000
00000001
00000100
00010000
00100000
00000000
00100000
00000000
,
00000010
00100000
00000100
00100000
00000010
00100000
00000100
01000000
00001000
10000000
00100000
00010000
00000100
00000000
00000100
00000000
,
10000000
00001000
10000000
00001000
10000000
00000100
10000000
00000100
01000000
00000001
01000000
00000001
00100000
00000000
00100000
00000000
,
00010001
00000000
00000000
00100000
00010001
00000000
00101000
00000000
00000000
00000000
00010001
00000000
00101000
00000000
00000000
00000000
,
0000M1MM
00100000
00000010
01000000
00000000
00000010
10000000
00000010
00000000
01000000
00000001
01000000
00000100
00000000
00000100
00000000
,
10000000
00000010
10000000
00000100
00000000
00100000
00000001
00100000
00000000
00000100
10000000
00000100
00100000
00000000
00100000
00000000
,
0001MMMM
01000000
00010000
00100000
00000000
00000100
10000000
00001000
00000000
00100000
00000001
00001000
00000100
00000000
00000100
00000000
,
01000000
00000010
00010000
00000100
00000000
00100000
00010000
00100000
00000000
00000100
00010000
00000100
00100000
00000000
00000000
00010000
,
10000000
00000000
00100000
00000000
00010000
00000000
00001000
00000000
00000001
00000000
00000100
00000000
10000000
00000000
00000001
00100000
,
00000001
00000000
00000100
00000000
00010000
00000000
00001000
00000000
10000000
00000000
00100000
00000000
00000001
00000000
01000000
00000100
,
00010000
00000000
00001000
00000000
10010000
00000000
00000010
00100000
00010000
00000000
00100000
00000000
00010001
00000000
01000000
00000010
,
00010000
00000100
00100000
00010000
11000000
00000011
11000000
00000011
,
00200000
00300000
00000000
00000000
00000000
00000000
00000000
00000000
,
00000000
00000000
00000000
00000000
,
00000000
00000000
00000000
00000000
,
00000000
00000000
00000000
00000000
,
00000001
00000000
01000000
00000000
00000000
00000100
00000000
01000000
00000000
00000001
00000000
01000000
00000010
00000000
00000010
00000000
,
10000000
00000000
00001000
00000000
00000000
00100000
00000000
00000010
00000000
10000000
00000000
00000010
01000000
00000000
01000000
00000000
,
00010000
00000000
00001000
00000000
00000000
00000010
00000000
00001000
00000000
00000010
00000000
01000000
00000010
00000000
00010000
00000000
,
00000100
00000000
00100000
00000000
00000100
00100000
00000000
00000001
00000000
00100000
00000100
00000000
00010000
00000000
MMM01000
00000000
,
10000000
00100000
10000000
00000000
00100000
10000000
00100000
10000000
00000000
10000000
00100000
10000000
00100000
00000000
01000000
00000000
,
00001000
01000000
00001000
00000000
00100000
00000100
00100000
00000100
00000000
00000100
00100000
00000100
00001000
00000000
00001000
00000000
,
00000001
00000100
00000001
00000000
00000100
00000001
00000100
00000001
00000000
00000001
00000100
00000001
00000100
00000000
00000010
00000000
,
00001000
00000010
00001000
00000000
00000010
00100000
00000010
00100000
00000000
00000100
01000000
00000100
00100000
00000000
00100000
00000010
,
01000000
00010000
01000000
00010000
01000000
00010000
01000000
00010000
10000000
00000001
10000000
00000001
10000000
00000001
10000000
00000001
,
00010000
00000001
00010000
00000001
00010000
00000001
00010000
00000001
01000000
00000001
01000000
00000001
01000000
00000001
01000000
00000001
,
00100000
00000010
00100000
00000010
00100000
00000100
00100000
00000100
10000000
00000100
10000000
00000100
10000000
00000001
10000000
00000001
,
00100000
00000001
00100000
00000010
00100000
00000100
10000000
00000100
01000000
00000100
00100000
00000100
00100000
00000000
00000100
01000000
,
00000001
00000000
00100000
00000010
10000000
00000100
01000000
00000001
00000000
00100000
00000100
10000000
00000100
00000000
10000000
00001000
,
10000000
00000000
00000000
00100000
00000000
00000000
00000001
00000000
00000000
00000100
00000000
00000000
00100000
00000000
00000001
00000000
,
00001000
00000000
00000000
00000000
00010000
00000000
00000000
00100000
00000000
00000010
00000000
01100000
00000000
00000000
00000100
00000000
,
00010000
00000000
00001000
00010000
00000000
00000110
00000000
11000000
00000000
00001000
00000000
00010000
00000010
00000000
01000000
00000000
,
00010000
00000000
00000000
00000000
00001000
00010000
00000000
01100000
00000000
00000011
00000000
00001000
00010000
00000000
00001000
00000000
,
00000010
00000000
10000000
00000010
01000000
00000000
00000001
01000000
00000010
00000000
10000000
00000010
01000000
00000000
00020000
00000000
,
00000000
00000000
00000000
00000000
00130000
00000000
00000000
00010000
00000000
01000000
00000000
00010000
00100000
00000000
00000000
00000000
,
00000100
00000000
02000000
00000000
00000100
00000000
03000000
00000100
00000000
00010000
00000000
00000100
01000000
00000000
00000000
00000000
,
00010000
00000000
00002000
00000000
00000010
00000000
00003000
00000010
00000000
00100000
00000000
00000001
00001000
00000000
00010000
00000000
,
01000000
00000000
00000010
00000000
10000000
00000100
00000000
00000100
10010000
00000000
00001100
00000000
10010000
00000000
00000002
00000000
,
00000003
01000000
00010000
00100000
00000000
00010000
01000000
00000001
10000000
00000010
00010000
00000100
00000001
00000000
00000001
00000000
,
00000000
00000100
00010000
00000010
00000000
00010000
00000010
10000000
00000001
01000000
00010000
00100000
10000000
00000000
10000000
00000000
,
00000000
00100000
00010000
01000000
00000000
00000010
01000000
00000010
10000000
00000001
01000000
00000010
00100000
00000000
00010000
00000000
,
00101000
00000000
00010000
00000000
01100000
00000000
00000010
01000000
00001000
00000000
10000000
00000100
00100000
00000000
00000100
00000000
,
MM1M0000
00000100
01000000
00000010
00000000
01000000
00000001
01000000
00000000
00000010
10000000
00000010
00100000
00000000
00100000
00000000
,
00000001
01000000
00000001
00100000
00000000
00000100
10000000
00000100
00000000
00100000
00000001
00100000
00000100
00000000
00000100
00000000
,
MMM10000
00000010
00010000
00000100
00000000
00100000
00000001
00001000
00000000
00000100
10000000
00001000
00100000
00000000
00100000
00000000
,
00000001
00000000
00000000
00000100
00000000
00000000
10000000
00000000
00000000
00100000
00000000
00000000
00000100
00000000
10000000
00001000
,
00010000
00001000
10000000
00000010
00100000
00010000
00100000
00000040
,
00000000
00000000
00000000
00000030
00000000
00000000
00000000
00000000
;

//---------------dance-single - Telperion----------------
#NOTES:
     dance-single:
     Telperion:
     Easy:
     5:
     0.409280,0.473574,0.171043,0.106902,0.069486,242.000000,16.000000,10.000000,0.000000,0.000000,0.000000,0.409280,0.473574,0.171043,0.106902,0.069486,242.000000,16.000000,10.000000,0.000000,0.000000,0.000000:
0000
0000
0000
0000
,
0000
0000
0000
0000
,
0102
0000
0000
1000
0000
0000
0010
0000
0000
1000
0000
0000
0103
0000
0000
0000
,
0001
1000
0001
1000
0001
0001
0000
0000
,
1000
0000
0101
0000
0001
1000
0001
0000
,
0010
0000
1100
0000
1000
0001
1000
0000
,
0010
0000
0101
0000
0001
0100
0001
0000
,
0010
0010
0010
0010
,
0100
0000
0011
0000
0001
1000
0001
0000
,
0100
0000
1010
0000
1000
0001
1000
0000
,
0100
0000
0011
0000
0001
1000
0100
0000
,
0010
0000
0100
0010
0000
0010
0010
0000
,
0110
0000
1001
0000
0001
0100
0010
0000
,
1000
0000
0011
0000
0010
0100
1000
0000
,
0110
0000
1001
0000
1000
0100
0010
0000
,
0001
0000
1010
0000
0010
0100
0001
0000
,
1000
0001
1000
0001
1000
1000
0000
0000
,
0010
0100
0010
0100
0010
0010
0000
0000
,
1000
0001
1000
0001
0010
0100
0010
0100
,
1000
0001
1000
0001
0100
0100
0010
0010
,
2000
3000
0000
0000
0000
0000
0000
0000
,
0000
0000
0000
0000
,
0000
0000
0000
0000
,
0000
0000
0000
0000
0000
0000
0000
0020
,
0000
0000
0000
0000
,
0000
0000
0000
0000
0030
0200
0000
0302
,
0000
0000
2000
0000
0000
0000
0000
3003
,
0000
0000
0000
0000
0000
0000
0000
1000
,
0001
0010
0001
0001
,
1000
0010
1000
1000
,
0010
0100
0001
0001
,
0010
0100
1000
1000
,
0010
0000
0100
0000
0010
1000
0010
1000
,
0001
0000
0001
0000
0010
0001
0010
0001
,
1000
0000
0100
0000
1000
0001
1000
0001
,
0100
0000
0000
0100
0000
0000
0100
0000
0000
0000
0010
0000
0010
0000
0000
0000
,
1000
0000
0000
0001
0000
0000
1000
0000
0000
0001
0000
0000
1000
0000
0000
0000
,
2100
0000
0000
0001
0000
0000
0010
0000
0000
0001
0000
0000
3100
0000
0000
0000
,
1000
0000
0000
0000
0101
0000
0000
0000
1000
0000
0000
0010
0000
0000
1000
0000
,
0001
0000
0000
0000
0100
0000
0000
0001
0000
0001
0000
0000
0100
0000
0000
0000
,
0001
0000
0000
0000
1100
0000
0000
0000
0001
0000
0000
0010
0000
0000
0001
0000
,
1000
0000
1000
0000
1000
0000
2000
3000
,
0010
0100
0001
0001
,
0010
0100
1000
1000
,
0001
0100
0010
0010
,
1000
0000
0100
0000
0010
0100
0010
0010
,
0001
0000
1000
0000
0001
0100
0010
0000
,
1000
0000
0001
0000
1000
0001
0010
0000
,
0100
0000
1000
0000
0001
1000
0010
0000
,
0001
0000
0010
1000
0100
1000
0001
0000
,
0100
0000
0001
0000
1000
0100
0010
0010
,
0100
0000
1000
0000
0001
0100
0010
0010
,
0100
0000
0001
0000
1000
0001
0010
0001
,
0200
0000
0000
0001
0000
0000
1000
0000
0000
0010
0000
0000
0301
0000
0000
0000
,
1000
0001
1000
1000
0001
0001
0100
0200
,
0000
0000
0000
0300
0000
0000
0000
0000
;

//---------------dance-single - Telperion----------------
#NOTES:
     dance-single:
     Telperion:
     Beginner:
     1:
     0.088576,0.113316,0.042761,0.000000,0.000000,54.000000,4.000000,0.000000,0.000000,0.000000,0.000000,0.088576,0.113316,0.042761,0.000000,0.000000,54.000000,4.000000,0.000000,0.000000,0.000000,0.000000:
0000
0000
0000
0000
,
0000
0000
0000
0000
,
1001
0000
0000
0000
,
0000
0000
0000
0000
,
1000
0000
0000
0000
,
0001
0000
0000
0000
,
1000
0000
0000
0000
,
0001
0000
0000
0000
,
1000
1000
0000
0000
,
0001
0001
0000
0000
,
1000
1000
0000
0000
,
0001
0000
0000
0000
,
0100
0000
0000
0000
,
0001
0001
0000
0000
,
1000
1000
0000
0000
,
0001
0001
0000
0000
,
0010
0000
0000
0000
,
0010
0000
0000
0000
,
0010
0000
0010
0000
,
0100
0000
0100
0000
,
1001
0000
0000
0000
,
0000
0000
0000
0000
,
0000
0000
0000
0000
,
0000
0000
0000
0000
,
0000
0000
0000
0000
,
0000
0000
0000
0000
,
0000
0000
0000
0000
,
0000
0000
0000
0000
,
0001
0000
0000
0000
,
1000
0000
0000
0000
,
0001
0000
0000
0000
,
0100
0000
0000
0000
,
1000
0000
0000
0000
,
0001
0000
0000
0000
,
1000
0000
0000
0000
,
0100
0000
0000
0000
,
0010
0000
0010
0000
,
1001
0000
0000
0000
,
0100
0000
0000
0000
,
0001
0000
0000
0000
,
0100
0000
0000
0000
,
1000
0000
0000
0000
,
0001
0000
0000
0000
,
0100
0000
0000
0000
,
0001
0000
0000
0000
,
0010
0000
0000
0000
,
1000
0000
0000
0000
,
0001
0000
0000
0000
,
1000
0000
0000
0000
,
0100
0000
0100
0000
,
0001
0000
0000
0000
,
1000
0000
0000
0000
,
0001
0000
0000
0000
,
1001
0000
0000
0000
;

//---------------dance-single - Telperion----------------
#NOTES:
     dance-single:
     Telperion:
     Challenge:
     11:
     0.891864,0.947148,0.267254,0.064141,1.000000,553.000000,25.000000,6.000000,0.000000,0.000000,3.000000,0.891864,0.947148,0.267254,0.064141,1.000000,553.000000,25.000000,6.000000,0.000000,0.000000,3.000000:
0000
0000
0000
0000
,
0000
0000
0000
0000
,
1100
0000
0000
0101
0000
0000
1010
0000
0000
0011
0000
0000
1100
0000
0001
0000
,
1000
0010
0100
0100
0001
0001
0000
0000
,
1000
0010
1000
0001
0000
0100
0001
1000
0000
0100
1000
0100
0020
0000
0030
0000
,
0001
1000
0001
0010
0000
0100
1000
0001
0000
0100
0001
0100
0020
0000
0030
0000
,
1000
0010
0100
0001
0000
1000
0001
1000
0000
0100
1000
0100
0020
0000
0030
0000
,
0001
0000
0100
0001
0000
0000
0001
1000
0000
1000
0100
1000
0001
0000
0100
0000
,
0010
0100
0001
0100
0000
0001
1000
0001
0000
1000
0100
1000
0001
0000
0001
0000
,
0010
0100
1000
0100
0000
1000
0001
0100
0000
0001
0100
0010
1000
0000
1000
0000
,
0001
1000
0100
0010
0000
0100
0010
0001
0000
1000
0001
1000
0010
0000
0010
0000
,
0100
0000
0000
0001
1000
0000
0100
0000
0000
0000
1000
0000
0001
0000
0000
0000
,
0100
0000
0001
1000
0001
0000
0100
0000
0010
0000
0100
0000
0001
0000
1000
0000
0000
0000
0100
0000
1000
0000
0100
0000
0010
0000
0000
0000
0010
0000
0000
0000
,
0100
0000
1000
0001
1000
0000
0100
0000
0010
0000
0100
0000
1000
0000
0001
0000
0000
0000
0100
0000
0001
0000
0100
0000
0010
0000
0000
0000
0010
0000
0000
0000
,
1000
0000
0001
0100
0001
0000
1000
0000
0001
0000
0010
0000
0100
0000
1000
0000
0000
0000
0001
0000
1000
0000
0100
0000
0010
0000
0000
0000
0010
0000
0000
0000
,
0100
0000
1000
0001
1000
0000
0001
0000
1000
0000
0010
0000
0100
0000
0001
0000
0000
0000
1000
0000
0001
0000
0100
0000
0010
0000
0000
0000
1000
0000
0000
0000
,
0001
0000
0100
0010
0100
0000
0001
0000
1000
0000
0001
0000
0100
0000
0010
0000
1000
0000
0001
0000
1000
0000
0100
0010
0001
0000
0000
0000
0001
0000
0000
0000
,
1000
0000
0001
0010
0001
0000
1000
0000
0100
0000
1000
0000
0001
0000
0100
0000
0001
0000
1000
0000
0001
0000
0100
0010
1000
0000
0000
0000
1000
0000
0000
0000
,
0001
0000
0010
0100
0010
0000
0001
0000
1000
0000
0001
0000
0010
0000
0100
0000
1000
0000
0010
0000
0100
0000
0001
0100
0010
0000
0000
0000
0010
0000
0000
0000
,
1000
0000
0001
0010
0001
0000
1000
0000
0000
0000
0010
0000
0100
0000
0001
0000
0000
0000
1000
0100
1000
0000
0001
0100
0020
0000
0000
0000
0030
0000
0000
0000
,
1000
0000
0001
0000
0000
0100
0000
0001
0000
0100
0000
0001
1000
0000
1000
0000
,
0001
0000
0010
0000
0000
0100
0000
1000
0000
0100
0000
1000
0001
0000
0001
0000
,
0100
0000
0010
0000
0000
0100
0000
0001
0000
0100
0000
0001
1000
0000
1000
0000
,
0100
0000
0010
0000
0000
0001
0000
1000
0000
0001
0000
0100
0010
0000
0010
0000
,
1000
0000
0010
0000
0000
0100
0000
0001
0000
0100
0000
0000
0010
0000
1000
0000
,
0001
0000
0010
0000
0000
0100
0000
0001
0000
0100
0000
0000
1000
0000
0001
0000
,
0100
0000
0010
0000
0000
1000
0000
0010
0000
0100
0000
0000
0001
0000
1000
0000
,
0100
0000
0010
0000
0000
0100
0000
0001
0000
0100
0000
0000
1000
0000
0020
0000
,
1030
0000
0100
0000
1000
0001
0000
1000
0100
1000
0000
0001
1000
0000
0100
0000
,
0010
0000
0001
0000
1000
0001
0000
0100
0001
0100
0000
0001
1000
0000
0010
0100
,
0001
0000
0000
0000
0000
0000
1000
0000
0000
0000
0000
0000
0000
0000
0010
0000
0100
0000
0010
0000
0000
0000
0000
0000
0000
0000
0000
1000
0000
0000
0000
0000
0000
0000
0000
0000
0010
0000
0000
0000
0000
0000
0010
0000
0000
0000
0000
0000
,
1000
0000
0000
0000
0000
0000
0001
0000
0000
0000
0000
0000
0000
0000
0010
0000
0100
0000
0010
0000
0000
0000
0000
0000
0000
0000
0000
0001
0000
0000
0000
0000
0000
0000
0000
0000
1000
0000
0000
0000
0000
0000
0100
0000
0000
0000
0000
0000
,
2000
3001
0100
0100
0010
0010
1000
1000
,
0001
0010
0001
0001
0100
0100
0010
0010
,
1000
0000
0010
1000
0100
0010
0001
1000
0010
0000
0100
0001
1000
0100
1000
0001
,
0010
0000
0001
0100
0001
1000
0100
1000
0010
0000
0100
0001
0010
0100
1000
0001
,
0100
0000
0010
0100
0010
1000
0001
0010
0000
0001
0010
0100
1000
0000
0001
0000
,
1100
0000
0000
0101
0000
0000
1010
0000
0000
0011
0000
0000
1100
0000
0001
0000
,
1000
0000
0000
0000
1010
0000
0000
0000
1010
0000
0000
0101
0000
0000
1000
0000
,
0011
0000
0000
1000
0001
0010
0000
0110
0000
0110
0000
0100
1000
0000
0000
0000
,
1001
0000
0000
0000
0011
0000
0000
0000
0011
0000
0000
1100
0000
0000
0001
0000
,
1000
0000
0010
0100
0001
0000
0010
0100
1000
0000
0010
0100
0010
0000
0000
0000
,
1000
0000
0001
0000
1000
0001
0000
0100
0000
0001
0000
0100
0010
0000
0100
0000
,
0001
0000
1000
0000
0001
1000
0000
0100
0000
1000
0000
0100
0001
0000
0100
0000
,
1000
0000
0001
0000
1000
0010
0000
0100
0000
0010
0000
0100
0001
0000
1000
0000
,
0100
0000
0010
0000
0100
0010
0000
0010
0001
0000
0001
0000
1000
0000
1000
0000
,
0100
0000
1000
0001
1000
0000
0100
0000
0010
0000
0100
0000
1000
0000
0001
0000
0400
0000
0000
0000
0301
0000
0100
0000
0010
0000
0000
0000
0010
0000
0000
0000
,
0100
0000
0001
1000
0001
0000
0100
0000
0010
0000
0100
0000
0001
0000
1000
0000
0400
0000
0000
0000
1300
0000
0100
0000
0010
0000
0000
0000
0010
0000
0000
0000
,
0001
0000
1000
0100
1000
0000
0001
0000
1000
0000
0010
0000
0100
0000
0001
0000
0000
0000
1000
0100
1000
0000
0001
0100
0010
0000
0000
0000
0100
0000
0000
0000
,
0000
0000
0100
0000
0001
0010
0100
0001
0100
1000
0000
1000
0010
0000
0000
0000
,
1000
0000
0100
0010
0100
0000
1000
0000
0001
0000
1000
0000
0100
0000
0010
0000
0000
0000
0001
1000
0001
0000
0100
0010
1000
0000
0000
0000
1000
0000
0000
0000
,
0001
0000
1000
0010
1000
0000
0001
0000
0100
0000
0001
0000
1000
0000
0100
0000
0000
0000
1000
0001
1000
0000
0100
0010
0001
0000
0000
0000
0001
0000
0000
0000
,
1000
0000
0010
0100
0010
0000
1000
0000
0001
0000
1000
0000
0010
0000
0100
0000
0000
0000
0001
0100
0001
0000
1000
0100
0010
0000
0000
0000
0100
0000
0000
0000
,
1100
0000
0000
0101
0000
0000
1010
0000
0000
0011
0000
0000
1100
0000
0001
0000
,
1000
0010
0100
0100
0001
0001
1000
4000
,
0000
0000
0000
3000
0000
0000
0000
0000
;

//---------------dance-single - Telperion----------------
#NOTES:
     dance-single:
     Telperion:
     Medium:
     8:
     0.528399,0.532771,0.235183,0.149662,0.128282,310.000000,22.000000,14.000000,0.000000,0.000000,0.000000,0.528399,0.532771,0.235183,0.149662,0.128282,310.000000,22.000000,14.000000,0.000000,0.000000,0.000000:
// measure 0
0000
0000
0000
0000
,  // measure 1
0000
0000
0000
0000
,  // measure 2
2001
0000
0000
0100
0000
0000
3020
0000
0000
1000
0000
0000
0130
0000
0001
0000
,  // measure 3
0010
0010
0100
0100
1000
1000
0000
0000
,  // measure 4
0001
0000
1010
1000
0001
1000
0010
0000
,  // measure 5
0100
0000
1001
0001
1000
0100
0010
0000
,  // measure 6
0110
0000
1100
1000
0001
0100
0020
0000
,  // measure 7
0100
0000
0000
0000
0100
0000
0000
0000
0100
0000
0000
0030
0100
0000
0000
0000
,  // measure 8
0001
0000
1100
0001
0100
0010
0001
0010
,  // measure 9
1000
0000
0101
1000
0001
0010
0100
1000
,  // measure 10
0001
0000
1100
0100
0010
1000
0010
0001
,  // measure 11
1000
0000
0000
0010
1000
0000
0001
0000
0100
0000
0001
0000
1000
0000
0000
0000
,  // measure 12
0110
0000
1001
0001
1000
0100
0001
0100
,  // measure 13
0010
0000
0101
0100
1000
0100
0001
0100
,  // measure 14
1000
0000
0011
1000
0001
0010
1000
0010
,  // measure 15
0100
0000
1010
0010
0100
0010
0001
0010
,  // measure 16
1000
0000
1000
0000
0001
0000
0001
0000
0010
0000
0010
0000
0000
0000
0000
0001
,  // measure 17
1000
0000
1000
0000
0001
0000
0001
0000
0100
0000
0100
0000
0000
0000
0000
0001
,  // measure 18
1000
0000
0001
0000
0010
0000
0001
0100
0001
0000
1000
0000
0100
0000
1000
0010
,  // measure 19
1000
0001
0010
0010
0100
0100
1000
1000
,  // measure 20
0010
0000
0000
0000
,  // measure 21
0000
0000
0000
0000
,  // measure 22
0000
0000
0000
0000
,  // measure 23
0000
0000
0000
0000
0000
0000
0000
0002
,  // measure 24
1000
1000
0000
1000
,  // measure 25
0010
0010
0003
0010
,  // measure 26
0100
0020
0100
0000
0000
0000
0100
0030
,  // measure 27
0001
0000
0001
0000
0000
0000
1000
0020
,  // measure 28
1030
1000
0010
0010
,  // measure 29
0100
0100
0001
0001
,  // measure 30
0010
0000
0000
0000
0010
0000
0001
0000
0000
0010
0000
0000
0100
0000
1000
0000
,  // measure 31
0001
0000
0000
0000
0001
0000
1000
0000
0000
0010
0000
0000
0100
0000
0200
0000
,  // measure 32
0301
0000
0001
1000
0100
1000
0100
1000
,  // measure 33
0010
0000
0100
0001
1000
0001
1000
0001
,  // measure 34
0010
0001
1000
0100
0010
0100
1000
0001
,  // measure 35
0010
0001
1000
0010
0100
0001
0100
0010
,  // measure 36
1000
0000
0000
0010
0100
0000
0000
0001
0000
0100
0000
0001
1000
0000
1000
0000
,  // measure 37
0002
0000
0000
0100
0000
0000
0023
0000
0000
0001
0000
0000
0130
0000
1000
0000
,  // measure 38
1010
0000
0000
0000
0101
0000
0000
0000
1010
0000
0000
0001
0000
0000
0100
0000
,  // measure 39
0110
0000
0000
0001
0000
1000
0000
0001
0000
1000
0000
0001
0010
0000
0000
0000
,  // measure 40
0011
0000
0000
0000
1100
0000
0000
0000
0011
0000
0000
1000
0000
0000
0010
0000
,  // measure 41
0100
0000
0100
0000
0100
0200
0300
0020
,  // measure 42
1030
0000
1000
0001
0010
0001
0010
0001
,  // measure 43
0100
0000
0001
0100
0010
1000
0100
1000
,  // measure 44
0010
0000
0100
0001
1000
0001
1000
0100
,  // measure 45
0010
0000
0100
0010
0100
0100
1000
1000
,  // measure 46
0001
0000
0101
1000
0001
0100
0010
0010
,  // measure 47
0000
1000
0000
0001
0100
0001
0010
0010
,  // measure 48
0000
0100
0000
1000
0100
1000
0010
0001
,  // measure 49
1000
0000
0100
0000
0001
0010
1000
0010
,  // measure 50
0001
0000
1100
0001
1000
0010
0100
0100
,  // measure 51
0000
0001
0000
1000
0001
0010
0100
0100
,  // measure 52
0000
1000
0000
0001
0100
0010
1000
1000
,  // measure 53
0020
0000
0000
0001
0000
0000
2030
0000
0000
0100
0000
0000
3001
0000
0010
0000
,  // measure 54
0001
0001
0010
0010
0100
0100
1000
2000
,  // measure 55
0000
0000
0000
3000
0000
0000
0000
0000
;

//---------------dance-single - Telperion----------------
#NOTES:
     dance-single:
     Telperion:
     Hard:
     9:
     0.691806,0.710361,0.310015,0.149662,0.689515,410.000000,29.000000,14.000000,0.000000,0.000000,0.000000,0.691806,0.710361,0.310015,0.149662,0.689515,410.000000,29.000000,14.000000,0.000000,0.000000,0.000000:
0000
0000
0000
0000
,
0000
0000
0000
0000
,
1100
0000
0000
0101
0000
0000
0011
0000
0000
0101
0000
0000
1010
0000
0010
0000
,
0100
0100
0001
0001
1000
1000
0000
0000
,
0100
0000
1001
1000
0100
0010
0001
0000
,
0100
0000
0110
0001
0100
0010
1000
0000
,
0100
0000
0110
1000
0001
0010
0100
0000
,
0010
0000
0010
0000
0010
0000
0010
0100
,
1001
0000
0001
0100
0000
0000
0100
0010
0000
0000
0010
1000
0001
0000
1000
0000
,
1100
0000
0001
1000
0000
0000
1000
0100
0000
0000
0100
0010
0001
0000
1000
0000
,
0011
0000
0001
1000
0000
0000
1000
0010
0000
0000
0010
0100
0001
0000
1000
0000
,
0010
0000
0000
1000
0001
0000
1000
0000
0000
0000
0010
0000
0010
0000
0000
0000
,
0100
0010
0100
0001
0000
0000
1000
0001
0000
0000
0100
0001
1000
0000
1000
0000
,
0100
0010
0100
1000
0000
0000
0001
1000
0000
0000
0100
0010
0001
0000
1000
0000
,
0010
0100
0010
1000
0000
0000
0001
1000
0000
0000
0010
1000
0001
0000
0001
0000
,
0010
0100
1000
0100
0000
0000
0010
0100
0000
0000
1000
0100
0010
0000
0000
0001
,
1000
0000
0010
0000
1000
0000
0001
0000
1000
0000
0100
0000
1000
0000
0000
1000
,
0001
0000
0010
0000
0001
0000
0100
0000
0001
0000
1000
0000
0001
0000
0000
0001
,
0010
0000
0100
0000
1000
0000
0010
1000
0100
0000
0010
0000
0001
0000
0100
0001
,
0010
0000
0000
0100
0010
0000
0001
0000
0000
0000
1000
0000
1000
0000
0000
0000
,
0020
0000
0030
0000
0000
0100
0000
0001
0000
0100
0000
0000
0010
0000
0000
0000
,
1000
0000
0000
0000
0000
0001
0000
1000
0000
0100
0000
0000
1000
0000
0000
0000
,
0001
0000
0000
0000
0000
0100
0000
0010
0000
0100
0000
0000
0001
0000
0000
0000
,
0010
0000
0000
0000
0000
0100
0000
0010
0000
0100
0000
1000
0010
0000
2000
0000
,
0100
0001
0000
0001
,
0010
0000
0001
0000
3000
0010
0100
0010
,
1000
0100
0020
0000
0001
0000
0000
0030
,
0001
0000
0000
0000
1000
0100
0000
1000
0000
0001
0000
1000
0010
0000
0200
0000
,
0301
0000
0000
0001
0100
0000
0000
0100
0010
0000
0000
0010
1000
0000
0000
1000
,
0001
0000
0000
0001
0010
0000
0000
0010
1000
0000
0000
1000
0010
0000
0000
0001
,
1000
0000
0000
0000
0000
0000
0000
0000
0000
1000
0000
0000
0010
0000
0000
0000
0100
0000
0000
0000
0000
0000
0000
0000
0000
0000
0000
0001
0000
0000
0000
0000
0000
0000
0000
0000
0100
0000
0000
0000
0000
0000
0010
0000
0000
0000
0000
0000
,
1000
0000
0000
0000
0000
0000
0000
0000
0000
0001
0000
0000
0010
0000
0000
0000
0100
0000
0000
0000
0000
0000
0000
0000
0000
0000
0000
0010
0000
0000
0000
0000
0000
0000
0000
0000
0001
0000
0000
0000
0000
0000
1000
0000
0000
0000
0000
0000
,
0020
0000
0130
0000
0010
0000
1000
0000
0010
0000
0001
0000
0010
0000
0000
1000
,
0001
0000
0010
0000
0100
0000
0010
0000
1000
0000
0010
0000
0001
0000
0000
1000
,
0010
0000
0100
0000
0001
0000
0010
0000
0100
0000
1000
0000
0010
0000
1000
0100
,
0010
0000
0001
0000
1000
0010
0100
0000
0001
0000
1000
0100
0010
0000
0001
1000
,
0001
0000
0100
0000
0001
0100
0000
0010
0000
1000
0000
0010
0100
0000
0001
0000
,
0101
0000
0000
1100
0000
0000
1010
0000
0000
1100
0000
0000
0011
0000
0010
0000
,
0100
0000
0000
0000
1100
0000
0000
0000
1000
0000
0000
0011
0000
0000
1000
0000
,
1020
0000
0030
0100
0000
0001
0000
0100
0000
1000
0000
0100
0010
0000
0000
0000
,
0100
0000
0000
0000
0101
0000
0000
0000
0001
0000
0000
1100
0000
0000
0001
0000
,
1000
0000
0001
0010
0001
0000
1000
0010
1000
0000
0001
0020
0001
0000
0030
0000
,
0110
0000
0000
0100
1000
0000
0000
1000
0001
0000
0000
0001
0100
0000
0000
0001
,
1000
0000
0000
1000
0010
0000
0000
0010
0001
0000
0010
0000
1000
0000
0010
0000
,
0100
0000
0001
0000
0010
0000
0000
0010
0100
0000
0000
0100
1000
0000
0000
1000
,
0001
0000
1000
0000
0001
0010
0000
0001
1000
0000
1000
0000
0001
0000
0002
0000
,
0013
0100
0010
0001
0000
0000
1000
0001
0020
0000
0130
1000
0100
0000
1000
0000
,
0001
0100
0001
1000
0000
0000
0001
0100
0020
0000
0130
0001
0100
0000
0001
0000
,
1000
0001
0010
0100
0000
0000
0010
0001
2000
0000
3010
1000
0010
0000
0001
0000
,
0020
0000
0030
0000
1001
0000
0000
1000
0100
0010
0100
1000
0002
0000
0003
0000
,
0100
0010
0100
0001
0000
0000
1000
0001
0000
0000
0100
0001
0010
0000
0010
0000
,
0100
1000
0100
0010
0000
0000
0001
0010
0000
0000
0100
0010
0001
0000
0001
0000
,
1000
0010
1000
0001
0000
0100
0001
1000
0000
0100
1000
0100
0010
0000
0001
0000
,
0011
0000
0000
0101
0000
0000
1010
0000
0000
0101
0000
0000
0011
0000
1100
0000
,
0100
0100
0010
0010
0001
0001
1000
2000
,
0000
0000
0000
3000
0000
0000
0000
0000
;
