#VERSION:0.81;
#TITLE:The Color of Tempo;
#SUBTITLE:;
#ARTIST:Prefuse 73;
#TITLETRANSLIT:;
#SUBTITLETRANSLIT:;
#ARTISTTRANSLIT:;
#GENRE:;
#ORIGIN:;
#CREDIT:;
#BANNER:[Colors] - The Color of Tempo-bn.png;
#BACKGROUND:[Colors] - The Color of Tempo-bg.png;
#PREVIEWVID:;
#JACKET:[Colors] - The Color of Tempo-jacket.png;
#CDIMAGE:;
#DISCIMAGE:;
#LYRICSPATH:;
#CDTITLE:cdtitle.png;
#MUSIC:[Colors] - The Color of Tempo.ogg;
#OFFSET:-0.161;
#SAMPLESTART:20.369;
#SAMPLELENGTH:12.000;
#SELECTABLE:YES;
#BPMS:0.000=95.000;
#STOPS:;
#DELAYS:;
#WARPS:;
#TIMESIGNATURES:0.000=4=4;
#TICKCOUNTS:0.000=4;
#COMBOS:0.000=1;
#SPEEDS:0.000=1.000=0.000=0;
#SCROLLS:0.000=1.000;
#FAKES:;
#LABELS:0.000=Song Start;
#BGCHANGES:;
#KEYSOUNDS:;
#ATTACKS:
;

//---------------dance-single - ----------------
#NOTEDATA:;
#CHARTNAME:;
#STEPSTYPE:dance-single;
#DESCRIPTION:;
#CHARTSTYLE:;
#DIFFICULTY:Hard;
#METER:8;
#RADARVALUES:0.461,0.431,0.187,0.250,0.455,313.000,21.000,28.000,11.000,0.000,0.000,0.000,0.000,0.461,0.431,0.187,0.250,0.455,313.000,21.000,28.000,11.000,0.000,0.000,0.000,0.000;
#CREDIT:;
#NOTES:
0000
0000
0000
0000
,
0000
0000
0000
0000
,
0000
0000
0000
0000
,
0000
0000
0000
0000
,
2000
0000
0000
3001
0100
0001
1000
0001
1000
0100
0000
0000
,
0011
0000
1000
0001
1001
0000
1001
0000
,
0002
0000
0000
0000
0000
0000
1003
0000
0010
0000
1000
0000
0001
0000
0010
0100
1000
0001
1000
0000
0010
0000
0100
0000
,
0010
0000
1000
0100
0000
0000
1000
0000
0000
0010
0000
0000
0101
0000
0000
0000
0000
0000
0101
0000
0000
0000
0000
0000
,
0020
0000
0000
0000
0000
0000
1030
0000
0100
0000
0001
0000
0100
0000
1000
0000
0010
0000
0100
0000
0000
0001
0000
0000
,
1000
0000
0001
0010
1100
0000
1100
0000
,
0002
0000
0000
0000
0000
0000
1003
0000
0010
0000
0001
0000
0010
0000
1000
0001
1000
0100
0010
0000
0001
0000
1000
0000
,
0001
0000
1000
0010
0000
0000
0100
0000
0000
0001
0000
0000
1001
0000
0000
0000
0000
0000
1001
0000
0000
0000
0000
0000
,
2000
0000
0000
3001
0100
0010
0100
0001
0010
0100
0000
0000
,
1000
0001
0100
0000
0101
0000
0101
0000
,
0002
0000
0000
0000
0000
0000
1003
0000
0100
0000
0010
0000
0100
0000
1000
0001
1000
0010
0100
0000
0001
0000
0010
0000
,
0001
0000
0100
0010
0000
0000
1000
0000
0000
0100
0000
0000
1100
0000
0000
0000
0000
0000
1100
0000
0000
0000
0000
0000
,
1000
0000
0001
0100
0000
0000
1000
0000
0001
0100
0000
0000
0002
0000
0000
0003
0000
0000
0002
0000
0000
0003
0000
0000
,
1000
0000
0001
0010
0000
0000
1000
0000
0001
0010
0000
0000
0002
0000
0000
0003
0000
0000
0002
0000
0000
0003
0000
0000
,
0100
0000
0010
1000
0000
0000
0100
0000
0010
1000
0000
0000
0200
0000
0000
0300
0000
0000
0200
0000
0000
0300
0000
0000
,
0010
0000
0001
0100
0000
0000
0010
0000
0001
0100
0000
0000
0020
0000
0000
0030
0000
0000
0020
0000
0000
0030
0000
0000
,
2000
0000
0000
3000
0001
0010
0001
1000
0010
0100
0000
0000
,
0001
1000
0100
0010
0011
0000
0011
0000
,
0002
0000
0000
0003
1000
0010
1000
0001
0010
0100
0000
0000
,
1000
0000
0001
0100
1010
0000
1010
0000
,
0002
0000
0000
0000
0000
0000
1003
0000
0100
0000
0001
0000
0100
0000
1000
0000
0001
0000
0100
0000
0000
0010
0000
0000
,
1000
0000
0001
0010
1100
0000
1100
0000
,
2000
0000
0000
0000
0000
0000
3001
0000
0100
0000
0010
0000
0100
0000
0001
1000
0001
1000
0010
0000
0100
0000
0001
0000
,
1000
0000
0100
0010
0000
0000
0100
0000
0000
1000
0000
0000
1001
0000
0000
0000
0000
0000
1001
0000
0000
0000
0000
0000
,
0001
0000
0100
0010
0000
0000
0100
0000
0010
1000
0000
0000
0002
0000
0000
0003
0000
0000
0002
0000
0000
0003
0000
0000
,
1000
0000
0100
0010
0000
0000
0100
0000
0010
0001
0000
0000
2000
0000
0000
3000
0000
0000
2000
0000
0000
3000
0000
0000
,
0001
0000
1000
0010
0000
0000
1000
0000
0001
0010
0000
0000
0200
0000
0000
0300
0000
0000
0200
0000
0000
0300
0000
0000
,
M000
M000
M000
M000
M020
0000
0000
0000
003M
000M
000M
000M
020M
0000
0000
0000
,
1300
0000
0000
0001
0000
0000
1000
0000
0000
0010
0000
0000
0100
0000
0001
0000
1000
0000
0001
0000
0010
0000
0100
0000
,
0010
0000
0000
0010
0000
0000
0001
0000
0000
1000
0000
0000
0000
0000
0001
0000
0100
0000
0001
0000
1000
0000
0010
0000
,
0100
0000
0000
0001
0000
0000
1000
0000
0000
0001
0000
0000
1000
0000
0100
0000
1000
0000
0010
0000
0100
0000
0001
0000
,
1000
0000
0000
1000
0000
0000
0001
0000
0000
0100
0000
0000
0001
0000
0010
0000
0001
0000
0100
0000
0010
0000
1000
0000
,
0001
0000
0000
0000
0000
0000
0000
0000
0000
1000
0000
0000
0000
0000
0000
0000
0010
0000
1000
0000
0000
0000
0000
0000
0001
0000
0000
0000
0000
0000
0010
0000
0000
0000
0000
0000
1000
0000
0000
0000
0000
0000
0010
0000
0000
0000
0000
0000
,
0001
0000
0000
0000
0000
0000
0000
0000
0000
1000
0000
0000
0000
0000
0000
0000
0001
0000
0100
0000
0000
0000
0000
0000
0001
0000
0000
0000
0000
0000
0001
0000
0000
0000
0000
0000
1000
0000
0000
0000
0000
0000
0100
0000
0000
0000
0000
0000
,
1000
0000
0000
0000
0000
0000
0000
0000
0000
0001
0000
0000
0000
0000
0000
0000
0100
0000
0001
0000
0000
0000
0000
0000
1000
0000
0000
0000
0000
0000
0100
0000
0000
0000
0000
0000
0001
0000
0000
0000
0000
0000
0100
0000
0000
0000
0000
0000
,
1000
0000
0000
0000
0000
0000
0000
0000
0000
0001
0000
0000
0000
0000
0000
0000
1000
0000
0100
0000
0000
0000
0000
0000
1000
0000
0000
0000
0000
0000
1000
0000
0000
0000
0000
0000
0001
0000
0000
0000
0000
0000
0100
0000
0000
0000
0000
0000
,
0001
0000
0000
0000
0000
0000
0000
0000
0000
0010
0000
0000
0000
0000
0000
0000
0100
0000
1000
0000
0000
0000
0000
0000
0001
0000
0000
0000
0000
0000
0100
0000
0000
0000
0000
0000
1000
0000
0000
0000
0000
0000
0100
0000
0000
0000
0000
0000
,
0001
0000
0000
0000
0000
0000
0000
0000
0000
1000
0000
0000
0000
0000
0000
0000
0100
0000
0010
0000
0000
0000
0000
0000
0001
0000
0000
0000
0000
0000
1000
0000
0000
0000
0000
0000
0010
0000
0000
0000
0000
0000
0100
0000
0000
0000
0000
0000
,
0020
0000
1030
0001
1000
0010
0100
0001
,
0020
0000
0031
1000
0001
0100
0010
M000
;

//---------------dance-single - ----------------
#NOTEDATA:;
#CHARTNAME:;
#STEPSTYPE:dance-single;
#DESCRIPTION:;
#CHARTSTYLE:;
#DIFFICULTY:Medium;
#METER:6;
#RADARVALUES:0.348,0.313,0.054,0.286,0.027,235.000,6.000,32.000,1.000,0.000,0.000,0.000,0.000,0.348,0.313,0.054,0.286,0.027,235.000,6.000,32.000,1.000,0.000,0.000,0.000,0.000;
#CREDIT:;
#NOTES:
// measure 0
0000
0000
0000
0000
,  // measure 1
0000
0000
0000
0000
,  // measure 2
0000
0000
0000
0000
,  // measure 3
0000
0000
0000
0000
,  // measure 4
2000
0000
3001
0100
0001
0010
0100
0000
,  // measure 5
1000
0000
0001
0100
0010
0000
0010
0000
,  // measure 6
2000
0000
3001
0100
0001
1000
0100
0010
,  // measure 7
0100
0000
1000
0001
0100
0000
0101
0000
,  // measure 8
0002
0000
1003
0100
0001
0100
1000
0000
,  // measure 9
0001
0000
1000
0010
0100
0000
0100
0000
,  // measure 10
0002
0000
1003
0100
0010
0100
1000
0010
,  // measure 11
0100
0000
0001
1000
0100
0000
1100
0000
,  // measure 12
2000
0000
3001
0010
1000
0010
0001
0000
,  // measure 13
1000
0000
0001
0010
0100
0000
0100
0000
,  // measure 14
2000
0000
3001
0100
0001
0010
0100
1000
,  // measure 15
0010
0000
0100
0001
1000
0000
1001
0000
,  // measure 16
0001
0100
0010
0100
0002
0003
0002
0003
,  // measure 17
1000
0100
0010
0100
2000
3000
2000
3000
,  // measure 18
0001
0100
0010
1000
0002
0003
0002
0003
,  // measure 19
1000
0100
0010
0001
2000
3000
2000
3000
,  // measure 20
0002
0000
0103
0001
1000
0000
1001
0000
,  // measure 21
0001
0000
1000
0100
0020
0030
0002
0003
,  // measure 22
2000
0000
3000
0001
0100
0000
0101
0000
,  // measure 23
0001
0000
0010
0100
2000
3000
0002
0003
,  // measure 24
2000
0000
3010
0100
0001
1000
0001
0000
,  // measure 25
1000
0100
0010
0000
0001
0000
0001
0000
,  // measure 26
2000
0000
3001
0100
0001
1000
0100
0010
,  // measure 27
0001
0000
1000
0010
0100
0000
0101
0000
,  // measure 28
0001
0010
0001
1000
0002
0003
0002
0003
,  // measure 29
1000
0010
1000
0001
2000
3000
2000
3000
,  // measure 30
0010
0100
0001
1000
0200
0300
0200
0300
,  // measure 31
2000
3001
0002
1003
,  // measure 32
0001
0100
0010
0000
1000
0001
1000
0100
,  // measure 33
1000
0010
0100
0000
0001
1000
0001
1000
,  // measure 34
0100
0010
0001
0000
1000
0010
1000
0001
,  // measure 35
0010
0100
1000
0000
0001
0100
0001
1000
,  // measure 36
0100
0000
0000
0100
0000
0000
1000
0000
0001
0000
0100
0000
0001
0000
0000
0000
,  // measure 37
0010
0000
0000
0010
0000
0000
0001
0000
1000
0000
0010
0000
1000
0000
0010
0000
,  // measure 38
0100
0000
0000
0100
0000
0000
0001
0000
1000
0000
0100
0000
1000
0000
0000
0000
,  // measure 39
0010
0000
0000
0010
0000
0000
0100
0000
0001
0000
0010
0000
0100
0000
1000
0000
,  // measure 40
0001
0000
0000
0100
0000
0000
0001
0000
1000
0000
0100
0000
0010
0000
0001
0000
,  // measure 41
1000
0000
0000
0010
0000
0000
1000
0000
0001
0000
0010
0000
0100
0000
0010
0000
,  // measure 42
0002
0000
0103
0000
0001
0010
0100
0000
,  // measure 43
2000
0000
3010
0000
1000
0100
0010
000M
;

//---------------dance-single - ----------------
#NOTEDATA:;
#CHARTNAME:;
#STEPSTYPE:dance-single;
#DESCRIPTION:;
#CHARTSTYLE:;
#DIFFICULTY:Easy;
#METER:3;
#RADARVALUES:0.251,0.235,0.089,0.241,0.000,160.000,10.000,27.000,1.000,0.000,0.000,0.000,0.000,0.251,0.235,0.089,0.241,0.000,160.000,10.000,27.000,1.000,0.000,0.000,0.000,0.000;
#CREDIT:;
#NOTES:
// measure 0
0000
0000
0000
0000
,  // measure 1
0000
0000
0000
0000
,  // measure 2
0000
0000
0000
0000
,  // measure 3
0000
0000
0000
0000
,  // measure 4
1000
0000
0010
0000
0100
0001
0100
0000
,  // measure 5
0001
1000
2002
3003
,  // measure 6
0001
0000
0010
0000
0100
1000
0100
0000
,  // measure 7
1000
0010
0220
0330
,  // measure 8
0100
0000
0001
0000
1000
0100
1000
0000
,  // measure 9
0001
0100
0202
0303
,  // measure 10
0001
0000
1000
0000
0001
0010
0001
0000
,  // measure 11
1000
0010
2020
3030
,  // measure 12
1000
0000
0010
0000
1000
0001
1000
0000
,  // measure 13
0001
0010
0022
0033
,  // measure 14
0001
0000
0100
0000
0001
1000
0001
0000
,  // measure 15
1000
0100
2200
3300
,  // measure 16
1000
1000
0020
0030
,  // measure 17
1000
1000
0200
0300
,  // measure 18
0010
0010
0002
0003
,  // measure 19
0100
0100
0002
0003
,  // measure 20
1000
0010
1010
0000
,  // measure 21
1000
0001
1000
0100
,  // measure 22
0010
0001
0011
0000
,  // measure 23
0001
0100
0001
1000
,  // measure 24
0001
0000
0010
0000
0001
0100
0001
0000
,  // measure 25
1000
0100
2200
3300
,  // measure 26
1000
0000
0010
0000
1000
0001
1000
0000
,  // measure 27
0001
0010
0022
0033
,  // measure 28
0001
0001
0200
0300
,  // measure 29
0001
0001
0020
0030
,  // measure 30
0100
0100
2000
3000
,  // measure 31
0002
1003
2000
3001
,  // measure 32
1000
0000
0010
0000
1000
0000
0001
1000
,  // measure 33
0001
0000
0010
0000
0001
0000
1000
0001
,  // measure 34
1000
0000
0010
0000
0100
0000
0001
1000
,  // measure 35
0001
0000
0010
0000
0100
0000
1000
0001
,  // measure 36
1000
0010
1000
0001
,  // measure 37
0001
0000
0010
0000
0001
0100
0001
0000
,  // measure 38
1000
0100
0010
0100
,  // measure 39
1000
0000
0010
0000
0100
0001
0100
0000
,  // measure 40
0001
0010
0100
0010
,  // measure 41
0001
0000
0100
0000
0010
1000
0010
0000
,  // measure 42
2000
0000
3100
0000
1000
0001
1000
0000
,  // measure 43
0002
0000
0103
0000
0001
1000
0001
M000
;
