#TITLE:That Green Gentlemen;
#SUBTITLE:(Things Have Changed);
#ARTIST:Panic! at the Disco;
#TITLETRANSLIT:;
#SUBTITLETRANSLIT:;
#ARTISTTRANSLIT:;
#CREDIT:Lisek;
#BANNER:[Colors] - That Green Gentlemen (Things Have Changed).png;
#BACKGROUND:[Colors] - That Green Gentlemen (Things Have Changed)-bg.png;
#LYRICSPATH:;
#CDTITLE:cdtitle.png;
#MUSIC:[Colors] - That Green Gentlemen (Things Have Changed).ogg;
#OFFSET:-5.178;
#SAMPLESTART:50.198;
#SAMPLELENGTH:12.500;
#SELECTABLE:YES;
#BPMS:0.000=96.000;
#STOPS:;
#BGCHANGES:0.000=[Colors] - That Green Gentlemen (Things Have Changed).avi=1.000=1=1=0,
178.000=[Colors] - That Green Gentlemen (Things Have Changed)-bg.png=1.000=1=0=1,
99999=-nosongbg-=1.000=0=0=0 // don't automatically add -songbackground-
;

//---------------dance-single - ----------------
#NOTES:
     dance-single:
     Lisek:
     Hard:
     8:
     0.470,0.496,0.391,0.120,0.232: // measure 1
1000
0010
0000
0010
0100
0000
0100
0001
0000
0001
1000
0000
1001
0000
0000
0000
,  // measure 2
1000
0000
0000
0000
0001
0000
0000
0100
0000
0010
0000
0000
1000
0000
0000
0000
,  // measure 3
0001
0010
0001
0100
0010
0000
0100
0001
0000
0010
0100
0000
0110
0000
0000
0000
,  // measure 4
1001
1000
0010
0100
0010
1000
1010
0000
,  // measure 5
1000
0000
0000
0000
0100
0000
0000
0000
0010
0000
0000
0000
0001
0000
0000
0100
0010
0000
0000
0000
1000
0000
0000
0000
0100
0000
0000
0000
0010
0000
0000
0000
,  // measure 6
0001
0000
1000
0000
0010
0000
0000
1000
0100
0000
0010
0000
0001
0000
0000
0000
,  // measure 7
1000
0100
1000
0010
0100
0000
0010
1000
0000
0100
0010
0000
0101
0000
0000
0000
,  // measure 8
0001
0000
0010
0100
0010
0000
0001
0100
0000
0010
0100
0000
1010
0000
0000
0000
,  // measure 9
1000
0001
0010
0100
0010
0001
0100
1000
,  // measure 10
0100
0010
1000
0000
0001
1000
0001
1000
,  // measure 11
1010
1000
1001
0001
0101
0100
0110
0010
,  // measure 12
1010
1000
1100
0100
0110
0010
0011
0001
,  // measure 13
1001
0000
0000
0000
1000
0001
0100
0000
0010
0000
0100
0000
0010
0000
0100
0000
,  // measure 14
0001
0010
0100
1000
0001
0000
0000
0000
1000
0000
0001
0000
1000
0000
0001
0000
,  // measure 15
1001
0001
0011
0010
0110
0100
1100
1000
,  // measure 16
1010
0010
0110
0100
0101
0001
0101
0100
,  // measure 17
0110
0000
0000
0000
0010
1000
0100
0000
0010
0000
0100
0000
0010
0000
0100
0000
,  // measure 18
1000
0000
0001
0000
0100
0000
0010
0000
0100
0000
0001
0000
1000
0001
0000
0000
,  // measure 19
2000
0000
3002
0000
0203
0000
0310
0100
,  // measure 20
0001
0000
0010
0000
0011
0000
0000
0001
0100
0000
0020
0000
1000
0000
0000
0000
,  // measure 21
0130
0000
0100
0000
0010
0200
0001
0000
,  // measure 22
0310
0000
0010
0000
1000
0002
0010
0000
,  // measure 23
0103
0101
0110
1010
,  // measure 24
0002
0000
0203
0000
0320
0000
1030
0001
,  // measure 25
1000
0000
0100
0000
1100
0000
0000
1000
0010
0000
0200
0000
0010
0000
0000
0000
,  // measure 26
0301
0000
0000
0000
,  // measure 27
1000
0010
0100
0010
1000
0000
0001
0100
0000
0010
0100
0000
1001
0000
1001
0000
,  // measure 28
1001
0000
1000
0000
0001
0000
0100
0010
0000
1000
0001
0000
1001
0000
0000
0000
,  // measure 29
1000
0000
0010
0000
0100
0000
0001
0100
0001
0000
0100
0000
0010
0000
1000
0000
,  // measure 30
0100
0000
0010
0000
0110
0000
0000
1000
0010
0000
0100
0000
0001
0000
1000
0000
,  // measure 31
0001
0100
0000
0100
0010
0000
0010
1000
0000
1000
0100
0010
0000
0000
0000
0000
,  // measure 32
1000
0100
0000
0100
0010
0000
0010
0001
0000
0001
0100
0000
0001
0000
0000
0000
,  // measure 33
1000
0100
0010
0001
0100
0001
0010
0100
,  // measure 34
1000
0010
0110
0000
0100
0010
0100
0010
,  // measure 35
0110
0100
0101
0001
1001
1000
1010
0010
,  // measure 36
0110
0100
0101
0001
1001
1000
1100
0100
,  // measure 37
0110
0000
0000
0000
0010
0000
0000
0001
0000
0010
0000
0000
0110
0000
0110
0000
,  // measure 38
1000
0010
0100
0000
0010
0100
0001
0000
,  // measure 39
1000
0000
0100
0000
1000
0000
0010
1000
0010
0000
0000
0000
0100
0000
0000
0000
0010
0000
0100
0000
0001
0000
0100
0010
0100
0000
0000
0000
0010
0000
0000
0000
,  // measure 40
1000
0000
0000
0000
0100
0000
0000
0010
0100
0000
0000
0000
0010
0000
0000
0000
0001
0000
0000
0100
0001
0000
0000
0000
0100
0000
0000
0010
0100
0000
0000
0100
,  // measure 41
0010
1000
0100
0010
0001
0010
0001
0010
,  // measure 42
0001
0100
0010
1000
0100
0000
0000
0000
0010
0000
0000
0000
0001
0000
0000
0000
,  // measure 43
0100
0010
1000
0100
1000
0001
0100
0010
,  // measure 44
0110
0000
0100
0000
0101
0000
0001
0000
0011
0000
0010
0000
0010
0100
0000
0000
,  // measure 45
1000
0010
0100
0010
2000
0000
3002
0000
,  // measure 46
0203
0320
0230
0000
,  // measure 47
0300
0000
0000
0000
;

//---------------dance-single - ----------------
#NOTES:
     dance-single:
     Lisek:
     Medium:
     5:
     0.296,0.294,0.080,0.168,0.000:
2000
0010
0100
0010
,
0000
0000
3000
0000
,
0001
0100
0010
1001
,
1000
0000
0010
0000
0100
0010
1000
0000
,
0001
0001
0001
0000
0100
0100
0100
0000
,
0010
0010
0010
0000
1000
0000
0001
0000
,
1000
0100
0010
0110
,
0010
0000
0001
0000
1000
0010
0100
0000
,
0010
0010
0010
0000
1000
1000
1000
0000
,
0100
0100
0100
0000
0010
0001
1000
0001
,
1000
1000
0100
0100
0010
0010
0001
0001
,
1000
0010
0100
0001
,
2001
0000
0010
0000
0001
0001
3001
0000
,
1002
0000
0100
0000
1000
1000
1003
0000
,
0001
0001
0010
0010
0100
0100
1000
1000
,
0001
0100
0010
1000
,
1020
0000
0100
0000
1000
1000
1030
0000
,
0010
0010
0100
0100
0010
0010
0100
0000
,
0020
2030
3002
0203
,
0301
0010
0001
0000
1000
0000
0010
0000
,
0100
0010
0100
0000
0010
0000
1000
0000
,
0001
0100
0001
0000
1000
0000
0010
0000
,
0100
0110
1001
0110
,
0200
0302
2003
3020
,
1030
0100
1000
0000
0001
0000
0100
0000
,
0001
0000
0000
0000
,
1000
0000
0100
0000
1000
0010
1000
0000
,
0001
0000
0100
0000
0001
0010
0001
0000
,
1000
0001
0100
0010
,
1000
0100
0010
0001
,
1000
0010
1000
0000
0010
0000
1000
0000
,
0001
0100
0001
0000
0100
0000
0001
0000
,
1000
0010
0100
0000
0001
0100
0010
0000
,
1000
0100
1000
0000
0001
0100
0001
0000
,
1000
1000
0100
0100
1000
1000
0001
0001
,
0100
0010
1000
0001
,
2001
0000
0010
0000
0000
0000
3001
0001
,
1002
0100
1000
1003
,
0001
0001
0020
0000
0031
0001
2000
0000
,
3010
0100
0001
1000
,
0001
0000
0010
0000
0001
0100
0010
1000
,
0100
1000
0010
0100
,
0010
0000
1000
0000
0100
0010
0001
1000
,
0001
0001
1000
1000
0001
0001
1000
1000
,
0001
0001
1000
1000
0020
0000
0230
0000
,
0302
2003
3020
0000
,
0030
0000
0000
0000
;

//---------------dance-single - ----------------
#NOTES:
     dance-single:
     Lisek:
     Easy:
     2:
     0.116,0.129,0.000,0.176,0.000:
2000
0000
0000
0000
,
3000
0000
0000
0000
,
0001
0000
0100
0000
,
0001
0000
1000
0000
,
0010
0000
1000
0000
,
0100
0000
0010
0000
,
0002
0000
0000
0000
,
2003
0000
0000
0000
,
3010
0000
0100
0000
,
0001
0000
0000
0000
,
1000
0001
1000
0001
,
1000
0000
0001
0000
,
0200
0000
0000
0000
,
0320
0000
0000
0030
,
1000
0001
1000
0001
,
1000
0000
0001
0000
,
2000
0000
0000
0000
,
3020
0000
0000
0030
,
2000
0000
3002
0000
,
1003
0000
0010
0000
,
0100
0000
0010
0000
,
1000
0000
0001
0000
,
0100
0000
0001
0000
,
2000
0000
3002
0000
,
1003
0000
0010
0000
,
0100
0000
0000
0000
,
0002
0000
0000
0000
,
2003
0000
0000
0000
,
3010
0000
0100
0000
,
0001
0000
0010
0000
,
0002
0000
1000
0000
,
2003
0000
0001
0000
,
3001
0000
0100
0000
,
0010
0000
1000
0000
,
0001
1000
0001
1000
,
0001
0000
1000
0000
,
0002
0000
0000
0000
,
0203
0000
0000
0300
,
0001
1000
0001
1000
,
0001
0000
1000
0000
,
0002
0000
0000
0000
,
2003
0000
0000
3000
,
0020
0000
0000
0000
,
0230
0000
0000
0000
,
0000
0000
0320
0000
,
0100
0000
0100
0000
,
0030
0000
0000
0000
;

//---------------dance-single - ----------------
#NOTES:
     dance-single:
     Lisek:
     Beginner:
     1:
     0.046,0.053,0.000,0.016,0.000:
0000
0000
0000
0000
,
0000
0000
0000
0000
,
0000
0000
0000
0000
,
1000
0000
0000
0000
,
0010
0000
0000
0000
,
0100
0000
0000
0000
,
0001
0000
0000
0000
,
1000
0000
0000
0000
,
0010
0000
0000
0000
,
0100
0000
0000
0000
,
0001
0000
0000
0000
,
0100
0000
0000
0000
,
0001
0000
0000
0000
,
1000
0000
0000
0000
,
0010
0000
0000
0000
,
1000
0000
0000
0000
,
0001
0000
0000
0000
,
1000
0000
0000
0000
,
0020
0000
0000
0000
,
0030
0000
0000
0000
,
1000
0000
0000
0000
,
0001
0000
0000
0000
,
1000
0000
0000
0000
,
0020
0000
0000
0000
,
0030
0000
0000
0000
,
1000
0000
0000
0000
,
0000
0000
0000
0000
,
0000
0000
0000
0000
,
0001
0000
0000
0000
,
0100
0000
0000
0000
,
0010
0000
0000
0000
,
1000
0000
0000
0000
,
0100
0000
0000
0000
,
1000
0000
0000
0000
,
0001
0000
0000
0000
,
1000
0000
0000
0000
,
0010
0000
0000
0000
,
0100
0000
0000
0000
,
0001
0000
0000
0000
,
1000
0000
0000
0000
,
0010
0000
0000
0000
,
1000
0000
0000
0000
,
0001
0000
0000
0000
,
0100
0000
0000
0000
,
0001
0000
0000
0000
;
