#TITLE:Shades of Blue;
#SUBTITLE:;
#ARTIST:Chris Child ft. Melissa Kaplan;
#TITLETRANSLIT:;
#SUBTITLETRANSLIT:;
#ARTISTTRANSLIT:;
#CREDIT:;
#BANNER:shadesofbluebn.png;
#BACKGROUND:shadesofbluebg.png;
#LYRICSPATH:;
#CDTITLE:cd.png;
#MUSIC:Shades of Blue.mp3;
#OFFSET:-7.005;
#SAMPLESTART:42.360;
#SAMPLELENGTH:12.000;
#SELECTABLE:YES;
#BPMS:0.000=544.000,64.500=136.000,69.500=544.000,81.500=136.000,86.500=544.000,98.500=136.000,103.500=544.000,115.500=136.000,120.500=544.000,132.500=136.000,137.500=544.000,149.500=136.000,154.500=544.000,166.500=272.000,198.500=544.000,454.500=136.000,459.500=544.000,471.500=136.000,476.500=544.000,488.500=136.000,493.500=544.000,505.500=136.000,510.500=544.000,650.500=136.000,655.500=544.000,667.500=136.000,672.500=544.000,684.500=136.000,689.500=544.000,701.500=136.000,705.500=544.000;
#STOPS:;
#BGCHANGES:;

//---------------dance-single - ----------------
#NOTES:
     dance-single:
     :
     Hard:
     10:
     0.821,1.000,0.428,0.422,0.000:
0000
1000
0000
0100
0000
1000
0000
0100
,
0000
1000
0000
0100
0000
1000
0000
0000
,
0000
0001
0000
0100
0000
0001
0000
0100
,
0000
0001
0000
0100
0000
0001
0000
0000
,
0000
1000
0000
0010
0000
1000
0000
0010
,
0000
1000
0000
0010
0000
1000
0000
0000
,
0000
0001
0000
0010
0000
0001
0000
0010
,
0000
0001
0000
0010
0000
0001
0000
0000
,
0000
1000
0000
0001
0000
1000
0000
0001
,
0000
1000
0000
0001
0000
1000
0000
0000
,
0000
0001
0000
0100
0000
0001
0000
0100
,
0000
0001
0000
1000
0000
0001
0000
1000
,
0000
0100
0000
0010
0000
0100
0000
0010
,
0000
0100
0000
1000
0000
0100
0000
1000
,
0000
0100
0000
0010
0000
0001
0000
0010
,
0000
0001
0000
0010
0000
0100
0000
0000
,
0000
2200
3300
2200
3300
2200
3300
2200
,
3300
0100
0000
1100
0000
0000
0000
1000
,
0000
0100
0000
0010
0000
0001
0000
0010
,
0000
0100
0000
1000
0000
0100
0000
0010
,
0000
0001
0000
1000
0000
1000
0000
2002
,
3003
2002
3003
1000
0000
1001
0000
0000
,
0000
0001
0000
0010
0000
0100
0000
1000
,
0000
0100
0000
0010
0000
0001
0000
0010
,
0000
0100
0000
1000
0000
0001
0000
0001
,
0000
0022
0033
0022
0033
0001
0000
0011
,
0000
0000
0000
0010
0000
0100
0000
1000
,
0000
0100
0000
0010
0000
0001
0000
0010
,
0000
0100
0000
1000
0000
0100
0000
0010
,
0000
0010
0000
0022
0033
0022
0033
0010
,
0000
0011
0000
0000
0000
0001
0000
0000
,
0000
0010
0000
0000
0000
0100
0000
1000
,
0000
0100
0000
0010
0000
0001
0000
0000
,
0000
1000
0000
1000
0000
2002
3003
2002
,
3003
1000
0000
1001
0000
0000
0000
0001
,
0000
0100
0000
0010
0000
1000
0000
0010
,
0000
0100
0000
0001
0000
0000
0000
1000
,
0000
0000
0000
0001
0000
0001
0000
0202
,
0303
0202
0303
0001
0000
0001
0000
0100
,
0000
0010
0000
1000
0000
0010
0000
0100
,
0000
0001
0000
0100
0000
0010
0000
0000
,
0000
0000
0000
0000
0000
1010
0000
0000
,
0000
1010
0000
0000
0000
1001
0000
0000
,
0000
1001
0000
0000
0000
0101
0000
0000
,
0000
0101
0000
0000
0000
1001
0000
0000
,
0000
1001
0000
0000
0000
1100
0000
0000
,
0000
1100
0000
0000
0000
0110
0000
0000
,
0000
0110
0000
0000
0000
0011
0000
0000
,
0000
0011
0000
0000
0000
1001
0000
0000
,
0000
1001
0000
0000
0000
1000
0000
0010
,
0000
0100
0000
0001
0000
1000
0000
0000
,
0000
0001
0000
0100
0000
0010
0000
1000
,
0000
0001
0000
0000
0000
0010
0000
0000
,
0000
0010
0000
0000
0000
0100
0000
1000
,
0000
0001
0000
0010
0000
0100
0000
0000
,
0000
1000
0000
0100
0000
0010
0000
0001
,
0000
1000
0000
0000
0000
0100
0000
0000
,
0000
0100
0000
0000
0000
1000
0000
0001
,
0000
0100
0000
0010
0000
1000
0000
0000
,
0000
0001
0000
1000
0000
0010
0000
0100
,
0000
0001
0000
0000
0000
0010
0000
0000
,
0000
0010
0000
0000
0000
0001
0000
0010
,
0000
0100
0000
1000
0000
0001
0000
0000
,
0000
1000
0000
0100
0000
0010
0000
0001
,
0000
1000
0000
0000
0000
0010
0000
0000
,
0000
0010
0000
0000
0000
0100
0000
0001
,
0000
1000
0000
0010
0000
0100
0000
0000
,
0000
0001
0000
1000
0000
0010
0000
0100
,
0000
0001
0000
0000
0000
0010
0000
0000
,
0000
0010
0000
0000
0000
0100
0000
1000
,
0000
0001
0000
0100
0000
0010
0000
0000
,
0000
1000
0000
0001
0000
0010
0000
0100
,
0000
1000
0000
0000
0000
0010
0000
0000
,
0000
0010
0000
0000
0000
0100
0000
0001
,
0000
1000
0000
0100
0000
0010
0000
0000
,
0000
0001
0000
1000
0000
0010
0000
0100
,
0000
0001
0000
0000
0000
0010
0000
0000
,
0000
0010
0000
0000
0000
1100
0000
0000
,
0000
0000
0000
0110
0000
0000
0000
0000
,
0000
0011
0000
0000
0000
0000
0000
0000
,
0000
1001
0000
0000
0000
0000
0000
0000
,
0000
1100
0000
0000
0000
0110
0000
0000
,
0000
0010
0000
0100
0000
1000
0000
0000
,
0000
0100
0000
0000
0000
0100
0000
0000
,
0000
1000
0000
0100
0000
0010
0000
0000
,
0000
0100
0000
0000
0000
0100
0000
0000
,
0000
0010
0000
0100
0000
1000
0000
0000
,
0000
0100
0000
0000
0000
0100
0000
0000
,
0000
1000
0000
0100
0000
0010
0000
0000
,
0000
0001
0000
0000
0000
0001
0000
0000
,
0000
0100
0000
0001
0000
0010
0000
0000
,
0000
0001
0000
0000
0000
0001
0000
0000
,
0000
0010
0000
0001
0000
0100
0000
0000
,
0000
0001
0000
0000
0000
0001
0000
0000
,
0000
0100
0000
0001
0000
0010
0000
0000
,
0000
0001
0000
0000
0000
0001
0000
0000
,
0000
0010
0000
0001
0000
0100
0000
0000
,
0000
0010
0000
0000
0000
1010
0000
0000
,
0000
1000
0000
0010
0000
0100
0000
0000
,
0000
0010
0000
0000
0000
0010
0000
0000
,
0000
0100
0000
0010
0000
1000
0000
0000
,
0000
0010
0000
0000
0000
0010
0000
0000
,
0000
1000
0000
0010
0000
0100
0000
0000
,
0000
0010
0000
0000
0000
0010
0000
0000
,
0000
0100
0000
0010
0000
1000
0000
0000
,
0000
0100
0000
0000
0000
0100
0000
0000
,
0000
1000
0000
0100
0000
0010
0000
0000
,
0000
0100
0000
0000
0000
0100
0000
0000
,
0000
0010
0000
0100
0000
1000
0000
0000
,
0000
0100
0000
0000
0000
0100
0000
0000
,
0000
1000
0000
0100
0000
0010
0000
0000
,
0000
0100
0000
0000
0000
0100
0000
0000
,
0000
0010
0000
0100
0000
1000
0000
0000
,
0000
0000
0000
0000
0000
2020
3030
2020
,
3030
2020
3030
2020
3030
1000
0000
1010
,
0000
0000
0000
0010
0000
0100
0000
0001
,
0000
0100
0000
0010
0000
1000
0000
0010
,
0000
0100
0000
0001
0000
0100
0000
0010
,
0000
0010
0000
0220
0330
0220
0330
0010
,
0000
0110
0000
0000
0000
0100
0000
0001
,
0000
1000
0000
0010
0000
1000
0000
0001
,
0000
0100
0000
0001
0000
1000
0000
0010
,
0000
1000
0000
1000
0000
2200
3300
2200
,
3300
1000
0000
1100
0000
0000
0000
1000
,
0000
0100
0000
0010
0000
0001
0000
0010
,
0000
0100
0000
1000
0000
0100
0000
0010
,
0000
0001
0000
1000
0000
1000
0000
2002
,
3003
2002
3003
1000
0000
1001
0000
0000
,
0000
0001
0000
0000
0000
0010
0000
0000
,
0000
0100
0000
1000
0000
0100
0000
0010
,
0000
0001
0000
0000
0000
1000
0000
0010
,
0000
0100
0000
0010
0000
1000
0000
0000
,
0000
0001
0000
0010
0000
0100
0000
0010
,
0000
0001
0000
0000
0000
1000
0000
0000
,
0000
1000
0000
0000
0000
0001
0000
0100
,
0000
0010
0000
0100
0000
0001
0000
0000
,
0000
1000
0000
0100
0000
0010
0000
0100
,
0000
1000
0000
0000
0000
0001
0000
0000
,
0000
0001
0000
0000
0000
1000
0000
0100
,
0000
0010
0000
0001
0000
1000
0000
0000
,
0000
0001
0000
0010
0000
0100
0000
1000
,
0000
0001
0000
0000
0000
0100
0000
0000
,
0000
0100
0000
0000
0000
0010
0000
1000
,
0000
0001
0000
0100
0000
0010
0000
0000
,
0000
0100
0000
0001
0000
1000
0000
0010
,
0000
0100
0000
0000
0000
0001
0000
0000
,
0000
0001
0000
0000
0000
1000
0000
0100
,
0000
0010
0000
0100
0000
1000
0000
0000
,
0000
0001
0000
0010
0000
0100
0000
0010
,
0000
0001
0000
0000
0000
0100
0000
0000
,
0000
0100
0000
0000
0000
0001
0000
0010
,
0000
0100
0000
0010
0000
0001
0000
0000
,
0000
1000
0000
0100
0000
0010
0000
0100
,
0000
1000
0000
0000
0000
0010
0000
0000
,
0000
0010
0000
0000
0000
0100
0000
0001
,
0000
1000
0000
0010
0000
0100
0000
0000
,
0000
0010
0000
1000
0000
0001
0000
0100
,
0000
0010
0000
0000
0000
0100
0000
0000
,
0000
0100
0000
0000
0000
0001
0000
1000
,
0000
0100
0000
0010
0000
0001
0000
0000
,
0000
1000
0000
0001
0000
0010
0000
0100
,
0000
1000
0000
0000
0000
0001
0000
0000
,
0000
0001
0000
0000
0000
0220
0000
0000
,
0000
0000
0000
0000
0000
0330
0000
1000
,
0000
0000
0000
1000
0000
0001
0000
1000
,
0000
0010
0000
1000
0000
0001
0000
1000
,
0000
0100
0000
1000
0000
0000
0000
2200
,
0000
0000
0000
0000
0000
0000
0000
3300
,
0000
0001
0000
0000
0000
0001
0000
1000
,
0000
0001
0000
0100
0000
0001
0000
1000
,
0000
0001
0000
0010
0000
0001
0000
0000
,
0000
0022
0000
0000
0000
0000
0000
0000
,
0000
0033
0000
0010
0000
0000
0000
0010
,
0000
0001
0000
0010
0000
0100
0000
0010
,
0000
1000
0000
0010
0000
0100
0000
0010
,
0000
0000
0000
0220
0000
0330
0000
2200
,
3300
2200
3300
0100
0000
1000
0000
0100
,
0000
1000
0000
0100
0000
0010
0000
0100
,
0000
0010
0000
0001
0000
0010
0000
0001
,
0000
0010
0000
0100
0000
1000
0000
0100
,
0000
1000
0000
0001
0000
0100
0000
0010
,
0000
1000
0000
0001
0000
0000
0000
1000
,
0000
0010
0000
0100
0000
0001
0000
1000
,
0000
0000
0000
0100
0000
0000
0000
0100
,
0000
0000
0000
0010
0000
0001
0000
1000
,
0000
0100
0000
0010
0000
0000
0000
0100
,
0000
1000
0000
0001
0000
0010
0000
0100
,
0000
0000
0000
1000
0000
0000
0000
1000
,
0000
0000
0000
0001
0000
0100
0000
0010
,
0000
1000
0000
0001
0000
0000
0000
1000
,
0000
0010
0000
0100
0000
0001
0000
1000
,
0000
0000
0000
0010
0000
0000
0000
0010
,
0000
0000
0000
0100
0000
0001
0000
1000
,
0000
0100
0000
0010
0000
0000
0000
0100
,
0000
1000
0000
0001
0000
0100
0000
0010
,
0000
0000
0000
1000
0000
0000
0000
1000
,
0000
0000
0000
0001
0000
0010
0000
0100
,
0000
1000
0000
0001
0000
0000
0000
1000
,
0000
0010
0000
0100
0000
0001
0000
1000
,
0000
0000
0000
0100
0000
0000
0000
0100
,
0000
0000
0000
1000
0000
0100
0000
0010
,
0000
0001
0000
1000
0000
0000
0000
0001
,
0000
0100
0000
0010
0000
1000
0000
0001
,
0000
0000
0000
0010
0000
0000
0000
0010
,
0000
0000
0000
0100
0000
1000
0000
0001
,
0000
0100
0000
0010
0000
0000
0000
1000
,
0000
0100
0000
0010
0000
0001
0000
1000
,
0000
0000
0000
0100
0000
0000
0000
0100
,
0000
0000
0000
0010
0000
0001
0000
1000
,
0000
0010
0000
0100
0000
0000
0000
0001
,
0000
0010
0000
0100
0000
1000
0000
0001
,
0000
0000
0000
0010
0000
0000
0000
0010
,
0000
0000
0000
0100
0000
1000
0000
0000
,
0000
1000
0000
0001
0000
0000
0000
0001
,
0000
0100
0000
0000
0000
0100
0000
0010
,
0000
0000
0000
1000
0000
0000
0000
1000
,
0000
0000
0000
0001
0000
0100
0000
0000
,
0000
0100
0000
0010
0000
0000
0000
0010
,
0000
1000
0000
0000
0000
1000
0000
0001
,
0000
0000
0000
0010
0000
0000
0000
0010
,
0000
0000
0000
0100
0000
1000
0000
0000
,
0000
1000
0000
0010
0000
0000
0000
0010
,
0000
0100
0000
0000
0000
0100
0000
0001
,
0000
0000
0000
1000
0000
0000
0000
1000
,
0000
0000
0000
0100
0000
0010
0000
0000
,
0000
0010
0000
0001
0000
0000
0000
0001
,
0000
1000
0000
0000
0000
1000
0000
0100
,
0000
0000
0000
0010
0000
0000
0000
0010
,
0000
0000
0000
0001
0000
1000
0000
0000
,
0000
1000
0000
0010
0000
0000
0000
0010
,
0000
0100
0000
0000
0000
0100
0000
0001
,
0000
0000
0000
0100
0000
0000
0000
0100
,
0000
0000
0000
0010
0000
1000
0000
0000
,
0000
1000
0000
0001
0000
0000
0000
0001
,
0000
0010
0000
0000
0000
0010
0000
0100
,
0000
0000
0000
1000
0000
0000
0000
1000
,
0000
0000
0000
0001
0000
0100
0000
0000
,
0000
0100
0000
0010
0000
0000
0000
0010
,
0000
1000
0000
0000
0000
1000
0000
0001
,
0000
0000
0000
0010
0000
0000
0000
0010
,
0000
0000
0000
0100
0000
1000
0000
0100
,
0000
1000
0000
0001
0000
1000
0000
0001
,
0000
0100
0000
0010
0000
0100
0000
0010
,
0000
1000
0000
0001
0000
0000
0000
2002
,
0000
0000
0000
0000
,
0000
0000
0000
0000
,
0000
0000
0000
0000
,
0000
0000
0000
0000
,
0000
0000
0000
0000
,
0000
0000
0000
0000
,
0000
0000
0000
0000
,
0000
0000
0000
0000
,
0000
0000
0000
0000
,
0000
0000
0000
0000
,
0000
0000
0000
0000
,
0000
0000
0000
3003
0000
0000
0000
0000
;

//---------------dance-single - ----------------
#NOTES:
     dance-single:
     :
     Easy:
     5:
     0.262,0.521,0.082,0.068,0.000:
0000
1000
0000
0000
0000
0000
0000
0000
,
0000
1000
0000
0000
0000
0000
0000
0000
,
0000
0010
0000
0000
0000
0000
0000
0000
,
0000
0010
0000
0000
0000
0000
0000
0000
,
0000
0100
0000
0000
0000
0000
0000
0000
,
0000
0100
0000
0000
0000
0000
0000
0000
,
0000
0001
0000
0000
0000
0000
0000
0000
,
0000
0001
0000
0000
0000
0000
0000
0000
,
0000
1000
0000
0000
0000
0000
0000
0000
,
0000
1000
0000
0000
0000
0000
0000
0000
,
0000
0100
0000
0000
0000
0000
0000
0000
,
0000
0100
0000
0000
0000
0000
0000
0000
,
0000
0010
0000
0000
0000
0000
0000
0000
,
0000
0010
0000
0000
0000
0000
0000
0000
,
0000
0001
0000
0000
0000
0000
0000
0000
,
0000
0001
0000
0000
0000
0000
0000
0000
,
0000
1001
0000
1000
0000
1000
0000
1000
,
0000
0000
0000
0001
0000
0000
0000
0000
,
0000
0000
0000
0001
0000
0000
0000
0000
,
0000
0000
0000
0001
0000
0000
0000
0000
,
0000
0000
0000
0100
0000
0000
0000
0010
,
0000
0010
0000
0000
0000
1000
0000
0000
,
0000
0000
0000
0000
0000
1000
0000
0000
,
0000
0000
0000
0000
0000
1000
0000
0000
,
0000
0000
0000
0000
0000
0001
0000
0000
,
0000
0010
0000
0010
0000
0000
0000
0100
,
0000
0000
0000
0000
0000
0000
0000
0100
,
0000
0000
0000
0000
0000
0000
0000
0100
,
0000
0000
0000
0000
0000
0000
0000
1000
,
0000
0000
0000
0001
0000
0001
0000
0000
,
0000
0100
0000
0000
0000
0000
0000
0000
,
0000
0100
0000
0000
0000
0000
0000
0000
,
0000
0100
0000
0000
0000
0000
0000
0000
,
0000
0110
0000
0000
0000
0010
0000
0010
,
0000
0000
0000
1000
0000
0000
0000
0000
,
0000
0000
0000
1000
0000
0000
0000
0000
,
0000
0000
0000
1000
0000
0000
0000
0000
,
0000
0000
0000
0001
0000
0000
0000
0010
,
0000
0010
0000
0000
0000
0100
0000
0000
,
0000
0000
0000
0000
0000
0100
0000
0000
,
0000
0000
0000
0000
0000
0100
0000
0000
,
0000
0000
0000
0000
0000
1000
0000
0000
,
0000
0000
0000
0000
,
0000
0000
0000
0000
0000
0100
0000
0000
,
0000
0000
0000
0000
,
0000
0000
0000
0000
0000
0010
0000
0000
,
0000
0000
0000
0000
,
0000
0000
0000
0000
0000
0001
0000
0000
,
0000
1000
0000
0000
0000
0001
0000
0000
,
0000
1000
0000
0000
0000
1001
0000
0000
,
0000
0000
0000
0000
0000
0001
0000
0000
,
0000
0000
0000
0000
0000
0100
0000
0000
,
0000
0000
0000
0000
0000
0010
0000
0000
,
0000
0000
0000
0000
0000
1000
0000
0000
,
0000
0000
0000
0000
0000
0001
0000
0000
,
0000
0000
0000
0000
0000
0100
0000
0000
,
0000
0000
0000
0000
0000
0010
0000
0000
,
0000
0000
0000
0000
0000
1000
0000
0000
,
0000
0000
0000
0000
0000
0100
0000
0000
,
0000
0000
0000
0000
0000
0010
0000
0000
,
0000
0000
0000
0000
0000
0001
0000
0000
,
0000
0000
0000
0000
0000
1000
0000
0000
,
0000
0000
0000
0000
0000
0100
0000
0000
,
0000
0000
0000
0000
0000
0010
0000
0000
,
0000
0000
0000
0000
0000
0001
0000
0000
,
0000
0000
0000
0000
0000
0100
0000
0000
,
0000
0000
0000
0000
0000
0010
0000
0000
,
0000
0000
0000
0000
0000
1000
0000
0000
,
0000
0000
0000
0000
0000
0001
0000
0000
,
0000
0000
0000
0000
0000
0100
0000
0000
,
0000
0000
0000
0000
0000
0010
0000
0000
,
0000
0000
0000
0000
0000
1000
0000
0000
,
0000
0000
0000
0000
0000
0001
0000
0000
,
0000
0000
0000
0000
0000
0010
0000
0000
,
0000
0000
0000
0000
0000
0100
0000
0000
,
0000
0000
0000
0000
0000
1000
0000
0000
,
0000
0000
0000
0000
0000
0001
0000
0000
,
0000
0000
0000
0000
0000
0010
0000
0000
,
0000
0000
0000
0000
0000
0100
0000
0000
,
0000
0000
0000
0000
0000
1000
0000
0000
,
0000
0000
0000
0000
0000
0001
0000
0000
,
0000
0000
0000
0000
0000
1001
0000
0000
,
0000
0000
0000
0000
,
0000
0000
0000
0000
0000
1000
0000
0000
,
0000
0000
0000
0000
,
0000
0000
0000
0000
0000
0001
0000
0000
,
0000
0000
0000
0000
,
0000
0000
0000
0000
0000
0001
0000
0000
,
0000
0000
0000
0000
,
0000
0000
0000
0000
0000
0100
0000
0000
,
0000
0000
0000
0000
,
0000
0000
0000
0000
0000
0100
0000
0000
,
0000
0000
0000
0000
,
0000
0000
0000
0000
0000
0010
0000
0000
,
0000
0000
0000
0000
,
0000
0000
0000
0000
0000
0010
0000
0000
,
0000
0000
0000
0000
,
0000
0000
0000
0000
0000
0110
0000
0000
,
0000
0000
0000
0000
,
0000
0000
0000
0000
0000
0100
0000
0000
,
0000
0000
0000
0000
,
0000
0000
0000
0000
0000
0001
0000
0000
,
0000
0000
0000
0000
,
0000
0000
0000
0000
0000
0001
0000
0000
,
0000
0000
0000
0000
,
0000
0000
0000
0000
0000
1000
0000
0000
,
0000
0000
0000
0000
,
0000
0000
0000
0000
0000
1000
0000
0000
,
0000
0000
0000
0000
,
0000
0000
0000
0000
0000
0100
0000
0000
,
0000
0000
0000
0000
,
0000
0000
0000
0000
0000
0100
0000
0000
,
0000
0000
0000
0000
,
0000
0000
0000
0000
0000
1000
0000
1000
,
0000
1000
0000
1000
0000
0000
0000
0001
,
0000
0000
0000
0000
0000
0000
0000
0001
,
0000
0000
0000
0000
0000
0000
0000
0001
,
0000
0000
0000
0000
0000
0000
0000
0100
,
0000
0000
0000
0010
0000
0010
0000
0000
,
0000
1000
0000
0000
0000
0000
0000
0000
,
0000
1000
0000
0000
0000
0000
0000
0000
,
0000
1000
0000
0000
0000
0000
0000
0000
,
0000
0100
0000
0000
0000
0010
0000
0010
,
0000
0000
0000
0001
0000
0000
0000
0000
,
0000
0000
0000
0001
0000
0000
0000
0000
,
0000
0000
0000
0001
0000
0000
0000
0000
,
0000
0000
0000
1000
0000
0000
0000
0010
,
0000
0010
0000
0000
0000
0100
0000
0000
,
0000
0000
0000
0000
0000
0100
0000
0000
,
0000
0000
0000
0000
0000
0100
0000
0000
,
0000
0000
0000
0000
0000
0110
0000
0000
,
0000
0000
0000
0000
0000
0010
0000
0000
,
0000
0000
0000
0000
0000
1000
0000
0000
,
0000
0000
0000
0000
0000
0001
0000
0000
,
0000
0000
0000
0000
0000
0100
0000
0000
,
0000
0000
0000
0000
0000
0010
0000
0000
,
0000
0000
0000
0000
0000
1000
0000
0000
,
0000
0000
0000
0000
0000
0001
0000
0000
,
0000
0000
0000
0000
0000
0010
0000
0000
,
0000
0000
0000
0000
0000
0100
0000
0000
,
0000
0000
0000
0000
0000
1000
0000
0000
,
0000
0000
0000
0000
0000
0001
0000
0000
,
0000
0000
0000
0000
0000
0010
0000
0000
,
0000
0000
0000
0000
0000
0100
0000
0000
,
0000
0000
0000
0000
0000
1000
0000
0000
,
0000
0000
0000
0000
0000
0001
0000
0000
,
0000
0000
0000
0000
0000
1000
0000
0000
,
0000
0000
0000
0000
0000
0010
0000
0000
,
0000
0000
0000
0000
0000
0100
0000
0000
,
0000
0000
0000
0000
0000
0001
0000
0000
,
0000
0000
0000
0000
0000
1000
0000
0000
,
0000
0000
0000
0000
0000
0010
0000
0000
,
0000
0000
0000
0000
0000
0100
0000
0000
,
0000
0000
0000
0000
0000
0001
0000
0000
,
0000
0000
0000
0000
0000
1000
0000
0000
,
0000
0000
0000
0000
0000
0100
0000
0000
,
0000
0000
0000
0000
0000
0010
0000
0000
,
0000
0000
0000
0000
0000
0001
0000
0000
,
0000
0000
0000
0000
0000
1000
0000
0000
,
0000
0000
0000
0000
0000
0100
0000
0000
,
0000
0000
0000
0000
0000
0010
0000
0000
,
0000
0000
0000
0000
0000
0001
0000
0000
,
0000
0000
0000
0000
0000
2002
0000
0000
,
0000
0000
0000
0000
0000
3003
0000
1000
,
0000
0000
0000
0000
0000
0000
0000
1000
,
0000
0000
0000
0000
0000
0000
0000
1000
,
0000
0000
0000
0000
0000
0000
0000
2002
,
0000
0000
0000
0000
0000
0000
0000
3003
,
0000
0001
0000
0000
0000
0000
0000
0000
,
0000
0001
0000
0000
0000
0000
0000
0000
,
0000
0001
0000
0000
0000
0000
0000
0000
,
0000
2002
0000
0000
0000
0000
0000
0000
,
0000
3003
0000
1000
0000
0000
0000
0000
,
0000
0000
0000
1000
0000
0000
0000
0000
,
0000
0000
0000
1000
0000
0000
0000
0000
,
0000
0000
0000
2002
0000
3003
0000
0001
,
0000
0001
0000
0100
0000
0000
0000
0000
,
0000
0000
0000
0010
0000
0000
0000
0000
,
0000
0000
0000
0010
0000
0000
0000
0000
,
0000
0000
0000
0010
0000
0000
0000
0000
,
0000
0000
0000
1000
0000
0000
0000
0000
,
0000
0000
0000
0001
0000
0000
0000
0000
,
0000
0000
0000
0100
0000
0000
0000
0000
,
0000
0000
0000
0010
0000
0000
0000
0000
,
0000
0000
0000
1000
0000
0000
0000
0000
,
0000
0000
0000
0001
0000
0000
0000
0000
,
0000
0000
0000
0100
0000
0000
0000
0000
,
0000
0000
0000
0010
0000
0000
0000
0000
,
0000
0000
0000
1000
0000
0000
0000
0000
,
0000
0000
0000
0100
0000
0000
0000
0000
,
0000
0000
0000
0010
0000
0000
0000
0000
,
0000
0000
0000
0001
0000
0000
0000
0000
,
0000
0000
0000
1000
0000
0000
0000
0000
,
0000
0000
0000
0100
0000
0000
0000
0000
,
0000
0000
0000
0010
0000
0000
0000
0000
,
0000
0000
0000
0001
0000
0000
0000
0000
,
0000
0000
0000
1000
0000
0000
0000
0000
,
0000
0000
0000
0010
0000
0000
0000
0000
,
0000
0000
0000
0100
0000
0000
0000
0000
,
0000
0000
0000
0001
0000
0000
0000
0000
,
0000
0000
0000
1000
0000
0000
0000
0000
,
0000
0000
0000
0010
0000
0000
0000
0000
,
0000
0000
0000
0100
0000
0000
0000
0000
,
0000
0000
0000
0001
0000
0000
0000
0000
,
0000
0000
0000
0010
0000
0000
0000
0000
,
0000
0000
0000
0100
0000
0000
0000
0000
,
0000
0000
0000
1000
0000
0000
0000
0000
,
0000
0000
0000
0001
0000
0000
0000
0000
,
0000
0000
0000
0010
0000
0000
0000
0000
,
0000
0000
0000
0100
0000
0000
0000
0000
,
0000
0000
0000
1000
0000
0000
0000
0000
,
0000
0000
0000
0001
0000
0000
0000
0000
,
0000
0000
0000
1001
0000
0000
0000
0000
,
0000
0000
0000
1000
0000
0000
0000
0000
,
0000
0000
0000
0010
0000
0000
0000
0000
,
0000
0000
0000
0100
0000
0000
0000
0000
,
0000
0000
0000
0001
0000
0000
0000
0000
,
0000
0000
0000
1000
0000
0000
0000
0000
,
0000
0000
0000
0010
0000
0000
0000
0000
,
0000
0000
0000
0100
0000
0000
0000
0000
,
0000
0000
0000
0001
0000
0000
0000
0000
,
0000
0000
0000
1000
0000
0000
0000
0000
,
0000
0000
0000
0100
0000
0000
0000
0000
,
0000
0000
0000
0010
0000
0000
0000
0000
,
0000
0000
0000
0001
0000
0000
0000
0000
,
0000
0000
0000
1000
0000
0000
0000
0000
,
0000
0000
0000
0100
0000
0000
0000
0000
,
0000
0000
0000
0010
0000
0000
0000
0000
,
0000
0000
0000
0001
0000
0000
0000
0000
,
0000
0000
0000
0100
0000
0000
0000
0000
,
0000
0000
0000
0010
0000
0000
0000
0000
,
0000
0000
0000
1000
0000
0000
0000
0000
,
0000
0000
0000
0001
0000
0000
0000
0000
,
0000
0000
0000
0100
0000
0000
0000
0000
,
0000
0000
0000
0010
0000
0000
0000
0000
,
0000
0000
0000
1000
0000
0000
0000
0000
,
0000
0000
0000
0100
0000
0000
0000
0000
,
0000
0000
0000
0010
0000
0000
0000
0000
,
0000
0000
0000
0001
0000
0000
0000
0000
,
0000
0000
0000
1000
0000
0000
0000
0000
,
0000
0000
0000
0100
0000
0000
0000
0000
,
0000
0000
0000
0010
0000
0000
0000
0000
,
0000
0000
0000
0001
0000
0000
0000
0000
,
0000
0000
0000
2002
0000
0000
0000
0000
,
0000
0000
0000
0000
,
0000
0000
0000
0000
,
0000
0000
0000
0000
,
0000
0000
0000
0000
,
0000
0000
0000
0000
,
0000
0000
0000
0000
,
0000
0000
0000
0000
,
0000
0000
0000
0000
,
0000
0000
0000
0000
,
0000
0000
0000
0000
,
0000
0000
0000
0000
,
0000
0000
0000
3003
0000
0000
0000
0000
;

//---------------dance-single - ----------------
#NOTES:
     dance-single:
     :
     Medium:
     8:
     0.500,0.868,0.224,0.068,0.000: // measure 1
0000
1000
0000
0000
0000
0100
0000
0000
,  // measure 2
0000
1000
0000
0000
0000
0100
0000
0000
,  // measure 3
0000
0010
0000
0000
0000
0001
0000
0000
,  // measure 4
0000
0010
0000
0000
0000
0001
0000
0000
,  // measure 5
0000
1000
0000
0000
0000
0100
0000
0000
,  // measure 6
0000
1000
0000
0000
0000
0100
0000
0000
,  // measure 7
0000
0010
0000
0000
0000
0001
0000
0000
,  // measure 8
0000
0010
0000
0000
0000
0001
0000
0000
,  // measure 9
0000
1000
0000
0000
0000
0010
0000
0000
,  // measure 10
0000
1000
0000
0000
0000
0010
0000
0000
,  // measure 11
0000
0100
0000
0000
0000
0001
0000
0000
,  // measure 12
0000
0100
0000
0000
0000
0001
0000
0000
,  // measure 13
0000
1000
0000
0000
0000
0010
0000
0000
,  // measure 14
0000
1000
0000
0000
0000
0010
0000
0000
,  // measure 15
0000
0100
0000
0000
0000
0001
0000
0000
,  // measure 16
0000
0100
0000
0000
0000
0001
0000
0000
,  // measure 17
0000
0101
0000
0101
0000
0101
0000
0101
,  // measure 18
0000
0000
0000
0001
0000
0000
0000
1000
,  // measure 19
0000
0000
0000
1000
0000
0000
0000
0100
,  // measure 20
0000
0000
0000
0010
0000
0000
0000
0010
,  // measure 21
0000
0000
0000
0001
0000
0000
0000
0101
,  // measure 22
0000
0101
0000
0000
0000
0001
0000
0000
,  // measure 23
0000
1000
0000
0000
0000
1000
0000
0000
,  // measure 24
0000
0100
0000
0000
0000
0010
0000
0000
,  // measure 25
0000
0010
0000
0000
0000
0100
0000
0000
,  // measure 26
0000
0110
0000
0110
0000
0000
0000
0100
,  // measure 27
0000
0000
0000
1000
0000
0000
0000
1000
,  // measure 28
0000
0000
0000
0001
0000
0000
0000
0100
,  // measure 29
0000
0000
0000
0100
0000
0000
0000
0010
,  // measure 30
0000
0000
0000
1010
0000
1010
0000
0000
,  // measure 31
0000
1000
0000
0000
0000
1000
0000
0000
,  // measure 32
0000
1000
0000
0000
0000
0001
0000
0000
,  // measure 33
0000
0001
0000
0000
0000
0001
0000
0000
,  // measure 34
0000
0101
0000
0000
0000
0110
0000
0110
,  // measure 35
0000
0000
0000
0010
0000
0000
0000
1000
,  // measure 36
0000
0000
0000
1000
0000
0000
0000
0001
,  // measure 37
0000
0000
0000
0010
0000
0000
0000
0010
,  // measure 38
0000
0000
0000
0100
0000
0000
0000
1100
,  // measure 39
0000
1100
0000
0000
0000
1000
0000
0000
,  // measure 40
0000
0001
0000
0000
0000
0001
0000
0000
,  // measure 41
0000
0100
0000
0000
0000
0010
0000
0000
,  // measure 42
0000
0000
0000
0000
0000
1000
0000
0000
,  // measure 43
0000
0000
0000
0010
0000
0000
0000
0010
,  // measure 44
0000
0000
0000
0000
0000
0100
0000
0000
,  // measure 45
0000
0000
0000
0000
0000
0000
0000
0001
,  // measure 46
0000
0000
0000
0000
0000
1000
0000
0000
,  // measure 47
0000
0000
0000
0100
0000
0000
0000
0000
,  // measure 48
0000
1000
0000
0000
0000
0001
0000
0100
,  // measure 49
0000
0001
0000
0100
0000
0001
0000
0100
,  // measure 50
0000
0001
0000
0000
0000
1000
0000
0000
,  // measure 51
0000
0000
0000
1000
0000
0100
0000
0000
,  // measure 52
0000
0000
0000
0100
0000
0010
0000
0000
,  // measure 53
0000
0001
0000
0000
0000
1000
0000
0000
,  // measure 54
0000
1000
0000
0000
0000
0010
0000
0000
,  // measure 55
0000
0000
0000
0010
0000
0100
0000
0000
,  // measure 56
0000
0000
0000
0100
0000
0001
0000
0000
,  // measure 57
0000
1000
0000
0000
0000
0100
0000
0000
,  // measure 58
0000
0100
0000
0000
0000
1000
0000
0000
,  // measure 59
0000
0000
0000
1000
0000
0001
0000
0000
,  // measure 60
0000
0000
0000
0001
0000
0100
0000
0000
,  // measure 61
0000
0010
0000
0000
0000
1000
0000
0000
,  // measure 62
0000
1000
0000
0000
0000
0001
0000
0000
,  // measure 63
0000
0000
0000
0001
0000
0010
0000
0000
,  // measure 64
0000
0000
0000
0010
0000
0100
0000
0000
,  // measure 65
0000
1000
0000
0000
0000
0001
0000
0000
,  // measure 66
0000
0001
0000
0000
0000
0100
0000
0000
,  // measure 67
0000
0000
0000
0100
0000
0010
0000
0000
,  // measure 68
0000
0000
0000
0010
0000
1000
0000
0000
,  // measure 69
0000
0001
0000
0000
0000
0010
0000
0000
,  // measure 70
0000
0010
0000
0000
0000
0100
0000
0000
,  // measure 71
0000
0000
0000
0100
0000
0010
0000
0000
,  // measure 72
0000
0000
0000
0010
0000
0001
0000
0000
,  // measure 73
0000
1000
0000
0000
0000
0010
0000
0000
,  // measure 74
0000
0010
0000
0000
0000
0100
0000
0000
,  // measure 75
0000
0000
0000
0100
0000
0001
0000
0000
,  // measure 76
0000
0000
0000
0001
0000
1000
0000
0000
,  // measure 77
0000
0100
0000
0000
0000
0010
0000
0000
,  // measure 78
0000
0010
0000
0000
0000
0001
0000
0000
,  // measure 79
0000
0000
0000
1000
0000
0000
0000
0000
,  // measure 80
0000
0001
0000
0000
0000
0000
0000
0000
,  // measure 81
0000
0001
0000
0000
0000
0000
0000
0000
,  // measure 82
0000
0001
0000
0000
0000
1001
0000
0000
,  // measure 83
0000
0000
0000
1000
0000
0000
0000
0000
,  // measure 84
0000
0100
0000
0000
0000
0100
0000
0000
,  // measure 85
0000
0000
0000
1000
0000
0000
0000
0000
,  // measure 86
0000
0001
0000
0000
0000
0001
0000
0000
,  // measure 87
0000
0000
0000
0100
0000
0000
0000
0000
,  // measure 88
0000
0010
0000
0000
0000
0010
0000
0000
,  // measure 89
0000
0000
0000
1000
0000
0000
0000
0000
,  // measure 90
0000
0001
0000
0000
0000
0001
0000
0000
,  // measure 91
0000
0000
0000
0010
0000
0000
0000
0000
,  // measure 92
0000
0100
0000
0000
0000
0100
0000
0000
,  // measure 93
0000
0000
0000
1000
0000
0000
0000
0000
,  // measure 94
0000
0001
0000
0000
0000
0001
0000
0000
,  // measure 95
0000
0000
0000
0100
0000
0000
0000
0000
,  // measure 96
0000
0010
0000
0000
0000
0010
0000
0000
,  // measure 97
0000
0000
0000
1000
0000
0000
0000
0000
,  // measure 98
0000
0001
0000
0000
0000
0101
0000
0000
,  // measure 99
0000
0000
0000
0100
0000
0000
0000
0000
,  // measure 100
0000
0010
0000
0000
0000
0010
0000
0000
,  // measure 101
0000
0000
0000
1000
0000
0000
0000
0000
,  // measure 102
0000
0001
0000
0000
0000
0001
0000
0000
,  // measure 103
0000
0000
0000
0010
0000
0000
0000
0000
,  // measure 104
0000
0100
0000
0000
0000
0100
0000
0000
,  // measure 105
0000
0000
0000
0010
0000
0000
0000
0000
,  // measure 106
0000
0001
0000
0000
0000
0001
0000
0000
,  // measure 107
0000
0000
0000
1000
0000
0000
0000
0000
,  // measure 108
0000
0010
0000
0000
0000
0010
0000
0000
,  // measure 109
0000
0000
0000
1000
0000
0000
0000
0000
,  // measure 110
0000
0100
0000
0000
0000
0100
0000
0000
,  // measure 111
0000
0000
0000
0010
0000
0000
0000
0000
,  // measure 112
0000
0001
0000
0000
0000
0001
0000
0000
,  // measure 113
0000
0000
0000
1000
0000
0000
0000
0000
,  // measure 114
0000
0000
0000
0000
0000
1010
0000
1010
,  // measure 115
0000
1010
0000
1010
0000
0000
0000
1000
,  // measure 116
0000
0000
0000
0001
0000
0000
0000
0001
,  // measure 117
0000
0000
0000
0100
0000
0000
0000
0010
,  // measure 118
0000
0000
0000
0010
0000
0000
0000
1000
,  // measure 119
0000
0000
0000
1001
0000
1001
0000
0000
,  // measure 120
0000
0001
0000
0000
0000
1000
0000
0000
,  // measure 121
0000
1000
0000
0000
0000
0100
0000
0000
,  // measure 122
0000
0010
0000
0000
0000
0010
0000
0000
,  // measure 123
0000
0001
0000
0000
0000
0011
0000
0011
,  // measure 124
0000
0000
0000
0010
0000
0000
0000
0100
,  // measure 125
0000
0000
0000
0100
0000
0000
0000
1000
,  // measure 126
0000
0000
0000
0001
0000
0000
0000
0001
,  // measure 127
0000
0000
0000
0100
0000
0000
0000
0110
,  // measure 128
0000
0110
0000
0000
0000
0010
0000
0000
,  // measure 129
0000
0010
0000
0000
0000
0010
0000
0000
,  // measure 130
0000
0100
0000
0000
0000
0100
0000
0000
,  // measure 131
0000
0100
0000
0000
0000
0001
0000
0000
,  // measure 132
0000
0000
0000
0001
0000
1000
0000
0000
,  // measure 133
0000
0000
0000
1000
0000
0100
0000
0000
,  // measure 134
0000
0010
0000
0000
0000
0001
0000
0000
,  // measure 135
0000
0001
0000
0000
0000
1000
0000
0000
,  // measure 136
0000
0000
0000
1000
0000
0010
0000
0000
,  // measure 137
0000
0000
0000
0010
0000
0100
0000
0000
,  // measure 138
0000
0001
0000
0000
0000
1000
0000
0000
,  // measure 139
0000
1000
0000
0000
0000
0100
0000
0000
,  // measure 140
0000
0000
0000
0100
0000
0010
0000
0000
,  // measure 141
0000
0000
0000
0010
0000
0001
0000
0000
,  // measure 142
0000
1000
0000
0000
0000
0010
0000
0000
,  // measure 143
0000
0010
0000
0000
0000
0100
0000
0000
,  // measure 144
0000
0000
0000
0100
0000
0001
0000
0000
,  // measure 145
0000
0000
0000
0001
0000
1000
0000
0000
,  // measure 146
0000
0010
0000
0000
0000
0100
0000
0000
,  // measure 147
0000
0100
0000
0000
0000
0001
0000
0000
,  // measure 148
0000
0000
0000
0001
0000
0010
0000
0000
,  // measure 149
0000
0000
0000
0010
0000
0100
0000
0000
,  // measure 150
0000
1000
0000
0000
0000
0001
0000
0000
,  // measure 151
0000
0001
0000
0000
0000
0100
0000
0000
,  // measure 152
0000
0000
0000
0100
0000
0010
0000
0000
,  // measure 153
0000
0000
0000
0010
0000
1000
0000
0000
,  // measure 154
0000
0001
0000
0000
0000
0010
0000
0000
,  // measure 155
0000
0010
0000
0000
0000
0100
0000
0000
,  // measure 156
0000
0000
0000
0100
0000
1000
0000
0000
,  // measure 157
0000
0000
0000
1000
0000
0010
0000
0000
,  // measure 158
0000
0100
0000
0000
0000
0001
0000
0000
,  // measure 159
0000
0001
0000
0000
0000
1000
0000
0000
,  // measure 160
0000
0000
0000
1000
0000
0100
0000
0000
,  // measure 161
0000
0000
0000
0100
0000
0010
0000
0000
,  // measure 162
0000
0001
0000
0000
0000
1000
0000
0000
,  // measure 163
0000
1000
0000
0000
0000
0220
0000
0000
,  // measure 164
0000
0000
0000
0000
0000
0330
0000
0001
,  // measure 165
0000
0000
0000
0010
0000
0000
0000
0010
,  // measure 166
0000
0000
0000
0100
0000
0000
0000
1000
,  // measure 167
0000
0000
0000
1000
0000
0000
0000
2200
,  // measure 168
0000
0000
0000
0000
0000
0000
0000
3300
,  // measure 169
0000
1000
0000
0000
0000
0100
0000
0000
,  // measure 170
0000
0100
0000
0000
0000
0010
0000
0000
,  // measure 171
0000
0001
0000
0000
0000
0001
0000
0000
,  // measure 172
0000
0022
0000
0000
0000
0000
0000
0000
,  // measure 173
0000
0033
0000
0010
0000
0000
0000
0001
,  // measure 174
0000
0000
0000
0001
0000
0000
0000
0010
,  // measure 175
0000
0000
0000
0100
0000
0000
0000
0100
,  // measure 176
0000
0000
0000
0220
0000
0330
0000
1100
,  // measure 177
0000
1100
0000
0100
0000
0000
0000
0100
,  // measure 178
0000
0000
0000
1000
0000
0000
0000
1000
,  // measure 179
0000
0000
0000
0001
0000
0000
0000
0001
,  // measure 180
0000
0000
0000
0010
0000
0000
0000
0010
,  // measure 181
0000
0000
0000
0001
0000
0000
0000
0000
,  // measure 182
0000
0001
0000
1000
0000
0000
0000
0000
,  // measure 183
0000
1000
0000
0010
0000
0000
0000
0100
,  // measure 184
0000
0000
0000
0001
0000
0000
0000
0001
,  // measure 185
0000
0000
0000
1000
0000
0000
0000
0000
,  // measure 186
0000
1000
0000
0010
0000
0000
0000
0000
,  // measure 187
0000
0010
0000
0100
0000
0000
0000
0001
,  // measure 188
0000
0000
0000
1000
0000
0000
0000
1000
,  // measure 189
0000
0000
0000
0100
0000
0000
0000
0000
,  // measure 190
0000
0100
0000
0010
0000
0000
0000
0000
,  // measure 191
0000
0010
0000
0001
0000
0000
0000
1000
,  // measure 192
0000
0000
0000
0100
0000
0000
0000
0100
,  // measure 193
0000
0000
0000
1000
0000
0000
0000
0000
,  // measure 194
0000
1000
0000
0001
0000
0000
0000
0000
,  // measure 195
0000
0001
0000
0100
0000
0000
0000
0010
,  // measure 196
0000
0000
0000
1000
0000
0000
0000
1000
,  // measure 197
0000
0000
0000
0001
0000
0000
0000
0000
,  // measure 198
0000
0001
0000
0100
0000
0000
0000
0000
,  // measure 199
0000
0100
0000
0010
0000
0000
0000
1000
,  // measure 200
0000
0000
0000
0001
0000
0000
0000
0001
,  // measure 201
0000
0000
0000
0010
0000
0000
0000
0000
,  // measure 202
0000
0010
0000
0100
0000
0000
0000
0000
,  // measure 203
0000
0100
0000
1000
0000
0000
0000
0001
,  // measure 204
0000
0000
0000
0100
0000
0000
0000
0100
,  // measure 205
0000
0000
0000
0010
0000
0000
0000
0000
,  // measure 206
0000
0010
0000
1000
0000
0000
0000
0000
,  // measure 207
0000
1000
0000
0001
0000
0000
0000
0010
,  // measure 208
0000
0000
0000
0100
0000
0000
0000
0100
,  // measure 209
0000
0000
0000
1000
0000
0000
0000
0000
,  // measure 210
0000
1000
0000
0001
0000
0000
0000
0000
,  // measure 211
0000
0001
0000
0100
0000
0000
0000
0010
,  // measure 212
0000
0000
0000
1000
0000
0000
0000
1000
,  // measure 213
0000
0000
0000
0100
0000
0000
0000
0000
,  // measure 214
0000
0100
0000
0010
0000
0000
0000
0000
,  // measure 215
0000
0010
0000
0100
0000
0000
0000
0000
,  // measure 216
0000
0100
0000
1000
0000
0000
0000
1000
,  // measure 217
0000
0000
0000
0001
0000
0000
0000
0000
,  // measure 218
0000
0001
0000
0100
0000
0000
0000
0000
,  // measure 219
0000
0100
0000
0010
0000
0000
0000
0000
,  // measure 220
0000
0010
0000
1000
0000
0000
0000
1000
,  // measure 221
0000
0000
0000
0100
0000
0000
0000
0000
,  // measure 222
0000
0100
0000
0010
0000
0000
0000
0000
,  // measure 223
0000
0010
0000
0001
0000
0000
0000
0000
,  // measure 224
0000
0001
0000
1000
0000
0000
0000
1000
,  // measure 225
0000
0000
0000
0010
0000
0000
0000
0000
,  // measure 226
0000
0010
0000
0100
0000
0000
0000
0000
,  // measure 227
0000
0100
0000
0001
0000
0000
0000
0000
,  // measure 228
0000
0001
0000
1000
0000
0000
0000
1000
,  // measure 229
0000
0000
0000
0100
0000
0000
0000
0000
,  // measure 230
0000
0100
0000
0010
0000
0000
0000
0000
,  // measure 231
0000
0010
0000
0001
0000
0000
0000
0000
,  // measure 232
0000
0001
0000
1000
0000
0000
0000
1000
,  // measure 233
0000
0000
0000
0010
0000
0000
0000
0000
,  // measure 234
0000
0010
0000
0100
0000
0000
0000
0000
,  // measure 235
0000
0100
0000
0001
0000
0000
0000
0000
,  // measure 236
0000
0001
0000
1000
0000
0000
0000
1000
,  // measure 237
0000
0000
0000
0100
0000
0000
0000
0000
,  // measure 238
0000
0100
0000
1000
0000
0000
0000
0000
,  // measure 239
0000
1000
0000
0001
0000
0000
0000
0000
,  // measure 240
0000
0001
0000
0100
0000
0000
0000
0100
,  // measure 241
0000
0000
0000
0010
0000
0000
0000
0000
,  // measure 242
0000
0010
0000
1000
0000
0000
0000
0001
,  // measure 243
0000
0000
0000
1000
0000
0001
0000
1000
,  // measure 244
0000
0001
0000
2000
0000
0000
0000
0002
,  // measure 245
0000
0000
0000
0000
,  // measure 246
0000
0000
0000
0000
,  // measure 247
0000
0000
0000
0000
,  // measure 248
0000
0000
0000
0000
,  // measure 249
0000
0000
0000
0000
,  // measure 250
0000
0000
0000
0000
,  // measure 251
0000
0000
0000
0000
,  // measure 252
0000
0000
0000
0000
,  // measure 253
0000
0000
0000
0000
,  // measure 254
0000
0000
0000
0000
,  // measure 255
0000
0000
0000
0000
,  // measure 256
0000
0000
0000
3003
0000
0000
0000
0000
;
