#TITLE:Rainbow after snow;
#SUBTITLE:;
#ARTIST:猫叉Master feat. 林ももこ;
#TITLETRANSLIT:;
#SUBTITLETRANSLIT:;
#ARTISTTRANSLIT:Nekomata Master feat. Momoko Hayashi;
#GENRE:;
#CREDIT:;
#BANNER:Rainbow after snow.png;
#BACKGROUND:Rainbow after snow-bg.png;
#LYRICSPATH:;
#CDTITLE:;
#MUSIC:Rainbow after snow.mp3;
#OFFSET:0.100;
#SAMPLESTART:70.280;
#SAMPLELENGTH:12.000;
#SELECTABLE:YES;
#BPMS:0.000=179.000
;
#STOPS:
;
#BGCHANGES:;
#KEYSOUNDS:;
#ATTACKS:;

//---------------dance-single - ----------------
#NOTES:
     dance-single:
     :
     Hard:
     8:
     0.522,0.575,0.403,0.300,0.024,374.000,51.000,38.000,0.000,0.000,0.000,0.522,0.575,0.403,0.300,0.024,374.000,51.000,38.000,0.000,0.000,0.000:
0000
0000
0000
0000
,
0000
0000
0000
0000
,
0000
0000
0000
0000
,
0000
0000
0000
0000
,
0000
0000
0000
0000
,
0000
0000
0000
0000
,
0000
0000
0000
0000
,
0000
0000
0000
0000
,
0000
0000
0000
0000
,
1000
0000
0000
0000
,
0010
0010
0000
0000
,
0100
0100
0000
0000
,
0001
0001
1001
0000
0000
0000
0000
0000
,
0001
0000
0000
0000
,
0010
0010
0000
0000
,
0100
0100
0000
0000
,
1000
1000
1001
0000
0000
0000
0000
0000
,
1000
0010
0100
0001
,
1000
0001
1001
0000
2000
0000
3100
0000
,
0010
0001
0010
0000
0002
0000
0103
0000
,
1000
0100
0001
0000
2000
0000
3100
0000
,
0001
0100
1000
0000
0002
0000
0103
0000
,
0010
1000
0100
0010
0001
0100
0010
1000
,
0000
0000
0010
0100
0001
0000
0101
0000
,
1010
0000
1000
0100
0001
0100
1000
0000
,
0001
0100
1000
0000
0001
0010
1000
0000
,
0001
0010
1000
0010
0002
0000
0103
0000
,
0010
1000
0010
0000
2000
0000
3100
0000
,
0001
0100
1000
0000
0002
0000
0103
0000
,
1000
0100
0001
0000
2000
0000
3100
0000
,
0010
0001
0100
0010
1000
0100
0010
0001
,
0000
0000
0010
0100
1000
0000
1100
0000
,
0011
0000
0001
0100
1000
0100
0001
0000
,
1000
0100
0001
0000
1000
0010
0001
0000
,
1000
0010
0001
0010
1000
0001
0010
0100
,
2000
0000
3010
0000
,
0100
0100
0101
0000
,
0002
0000
0013
0000
,
0100
0000
0100
0000
1100
0000
1000
0010
,
2000
0000
3020
0000
0130
0000
0001
0010
,
0002
0000
0023
0000
0130
0000
1000
0010
,
2000
0000
3020
0000
0130
0000
0001
0010
,
0200
0000
0000
2300
0000
0000
3001
0000
,
1001
0000
2000
0000
,
3020
0000
0230
0000
,
0302
0000
2003
3200
,
0320
0032
0023
0230
,
2300
3000
0010
0100
,
0001
0000
0010
0100
,
1000
0010
0100
0001
,
1000
0100
0010
0001
,
1000
0010
0100
0001
0010
0100
1000
0010
,
0100
0001
0010
0100
1000
0000
0001
1000
,
1001
0011
0110
1100
,
1010
0110
0101
0011
,
1010
1100
0101
0011
,
0001
0100
1000
0100
0001
0000
1000
0100
,
0010
0011
0101
0110
,
1010
0000
1000
0100
0001
0100
1000
0000
,
0010
0100
0001
0010
0000
0010
0001
0100
,
0010
1000
0100
0010
0001
0000
1000
0001
,
1001
1100
0110
0011
,
0101
0110
1010
1100
,
0101
0011
1010
1100
,
1000
0010
0001
0010
1000
0000
0001
0010
,
0100
1100
1010
0110
,
0101
0000
0001
0010
1000
0010
0001
0000
,
0100
0010
1000
0100
0000
0100
1000
0010
,
0100
0001
0010
0100
1000
0001
0100
0010
,
1000
0000
0100
0000
0010
0000
0000
0010
0100
0000
1000
0000
0010
0000
0000
0000
,
0100
0000
0001
0000
0010
0000
0000
0010
0001
0000
1000
0000
1001
0000
0000
0000
,
0001
0000
0010
0000
0100
0000
0000
0100
0010
0000
0001
0000
0100
0000
0000
0000
,
0010
0000
1000
0000
0100
0000
0000
0100
1000
0000
0001
0000
1001
0000
0000
0000
,
1000
0000
0010
0000
0100
0000
0000
0100
0010
0000
1000
0000
0100
0000
0000
0000
,
0010
0000
0001
0000
0100
0000
0000
0100
0001
0000
1000
0000
1001
0000
0000
0000
,
0001
0010
0100
1000
0000
1000
0100
0010
,
0001
0100
0010
1000
0001
0010
0100
1000
,
0002
0100
0103
0000
,
0110
0000
0010
1000
1001
0000
0000
0000
,
2000
0100
3100
0000
,
0110
0000
0010
0001
1001
0000
0000
0000
,
0002
0100
0103
0000
,
0110
0000
0010
1000
1001
0000
0000
0000
,
1000
0100
0010
0001
0000
0001
0010
0100
,
1000
0010
0100
0001
1000
0100
0010
0001
,
2000
0000
0000
0000
,
3020
0000
0000
0000
,
0230
0000
0000
0000
,
0302
0000
0000
0000
,
0023
0000
0000
0000
,
0230
0000
0000
0000
,
1300
0000
0000
0000
;

//---------------dance-single - ----------------
#NOTES:
     dance-single:
     :
     Challenge:
     9:
     0.543,0.575,0.229,0.190,0.055,428.000,29.000,24.000,0.000,0.000,0.000,0.543,0.575,0.229,0.190,0.055,428.000,29.000,24.000,0.000,0.000,0.000: // measure 0
0000
0000
0000
0000
,  // measure 1
0000
0000
0000
0000
,  // measure 2
0000
0000
0000
0000
,  // measure 3
0000
0000
0000
0000
,  // measure 4
0000
0000
0000
0000
,  // measure 5
0000
0000
0000
0000
,  // measure 6
0000
0000
0000
0000
,  // measure 7
0000
0000
0000
0000
,  // measure 8
0000
0000
0000
0000
,  // measure 9
0001
0000
0000
0000
,  // measure 10
0010
0010
0000
0000
,  // measure 11
0100
0100
0000
0000
,  // measure 12
1000
1000
1001
0000
0000
0000
0000
0000
,  // measure 13
1000
0000
0000
0000
,  // measure 14
0010
0010
0000
0000
,  // measure 15
0100
0100
0000
0000
,  // measure 16
0001
0001
1001
0000
0000
0000
0000
0000
,  // measure 17
0001
0010
0100
1000
,  // measure 18
0001
0000
1000
0000
1001
0000
0000
0001
0010
0000
0000
0000
0110
0000
0000
0000
,  // measure 19
0100
0000
1000
0000
0010
0000
0000
1000
0010
0000
0000
0000
0011
0000
0000
0000
,  // measure 20
0001
0000
0010
0000
1000
0000
0000
0001
0100
0000
0000
0000
1100
0000
0000
0000
,  // measure 21
1000
0000
0100
0000
0001
0000
0000
1000
0010
0000
0000
0000
0110
0000
0000
0000
,  // measure 22
0100
0001
0010
0100
1000
0010
0100
0001
,  // measure 23
0000
0000
0100
0010
1000
0000
1010
0000
,  // measure 24
0101
0000
0001
0010
1000
0010
0001
0100
,  // measure 25
0010
1000
0001
0010
0100
1000
0001
0100
,  // measure 26
1000
0000
0100
0000
0001
0000
0000
1000
0010
0000
0000
0000
0110
0000
0000
0000
,  // measure 27
0100
0000
0001
0000
0010
0000
0000
0001
0010
0000
0000
0000
1010
0000
0000
0000
,  // measure 28
1000
0000
0010
0000
0001
0000
0000
1000
0100
0000
0000
0000
0101
0000
0000
0000
,  // measure 29
0001
0000
0100
0000
1000
0000
0000
0001
0100
0000
0000
0000
0110
0000
0000
0000
,  // measure 30
0010
1000
0100
0010
0001
0100
0010
1000
,  // measure 31
0000
0000
0010
0100
0001
0000
0101
0000
,  // measure 32
1010
0000
1000
0100
0001
0100
1000
0010
,  // measure 33
0100
0001
1000
0100
0010
0001
1000
0010
,  // measure 34
0001
0010
1000
0100
0010
0001
0100
0010
,  // measure 35
2000
0000
3100
0000
,  // measure 36
0010
0010
0011
0000
,  // measure 37
0002
0000
0103
0000
,  // measure 38
0010
0000
0010
0000
1010
0000
1000
0100
,  // measure 39
0010
0100
0001
1000
0010
0000
0001
0100
,  // measure 40
0010
0100
1000
0001
0010
0000
1000
0100
,  // measure 41
0010
0100
0001
1000
0010
0000
0001
0100
,  // measure 42
0020
0000
0000
2030
0000
0000
3001
0000
,  // measure 43
1001
0000
0002
0000
,  // measure 44
0203
0000
0320
0000
,  // measure 45
2030
0000
3002
0023
,  // measure 46
0230
2300
3200
0320
,  // measure 47
0032
0003
0010
0100
,  // measure 48
1000
0000
0010
0100
,  // measure 49
0001
0010
0100
1000
,  // measure 50
0001
0100
0010
1000
,  // measure 51
0001
0010
0100
1000
0010
0100
0001
0010
,  // measure 52
0100
1000
0010
0100
0001
0000
1000
0001
,  // measure 53
1001
0000
0001
0010
0100
0010
1000
0010
,  // measure 54
0100
0010
0001
0100
0010
0100
1000
0100
,  // measure 55
0010
0100
0001
0010
0100
0010
1000
0010
,  // measure 56
0100
1000
0001
0100
0010
1000
0100
0010
,  // measure 57
0001
0000
1000
0100
0010
0100
0001
0100
,  // measure 58
0010
0100
1000
0010
0100
0001
0010
0000
,  // measure 59
0100
1000
0010
0100
0000
0100
0010
1000
,  // measure 60
0100
0010
0001
0100
0010
0000
1000
0001
,  // measure 61
1001
0000
1000
0100
0010
0100
0001
0100
,  // measure 62
0010
0100
1000
0010
0100
0010
0001
0010
,  // measure 63
0100
0010
1000
0100
0010
0100
0001
0100
,  // measure 64
0010
0001
1000
0010
0100
0001
0010
0100
,  // measure 65
1000
0000
0001
0010
0100
0010
1000
0010
,  // measure 66
0100
0010
0001
0100
0010
1000
0100
0000
,  // measure 67
0010
0001
0100
0010
0000
0010
0100
0001
,  // measure 68
0010
0100
1000
0010
0100
0001
0010
0100
,  // measure 69
1000
0000
0010
0000
0100
0000
0000
0100
0010
0000
1000
0000
0100
0000
0000
0000
,  // measure 70
0010
0000
0001
0000
0100
0000
0010
1000
0001
0000
1000
0000
1001
0000
0000
0000
,  // measure 71
0001
0000
0010
0000
0100
0000
0000
0100
0010
0000
0001
0000
0100
0000
0000
0000
,  // measure 72
0010
0000
1000
0000
0100
0000
0010
0001
1000
0000
0001
0000
1001
0000
0000
0000
,  // measure 73
1000
0000
0100
0000
0010
0000
0000
0010
0100
0000
1000
0000
0010
0000
0000
0000
,  // measure 74
0100
0000
0001
0000
0010
0000
0100
1000
0001
0000
1000
0000
1001
0000
0000
0000
,  // measure 75
0001
0010
0100
1000
0000
1000
0100
0010
,  // measure 76
0001
0100
0010
1000
0001
0010
0100
1000
,  // measure 77
0002
0100
0103
0000
,  // measure 78
0110
0000
0010
1000
1001
0000
0000
0000
,  // measure 79
2000
0100
3100
0000
,  // measure 80
0110
0000
0010
0001
1001
0000
0000
0000
,  // measure 81
0002
0100
0103
0000
,  // measure 82
0110
0000
0010
1000
1001
0000
0000
0000
,  // measure 83
1000
0100
0010
0001
0000
0001
0010
0100
,  // measure 84
1000
0010
0100
0001
1000
0100
0010
0001
,  // measure 85
2000
0000
0000
0000
,  // measure 86
3020
0000
0000
0000
,  // measure 87
0230
0000
0000
0000
,  // measure 88
0302
0000
0000
0000
,  // measure 89
0023
0000
0000
0000
,  // measure 90
0230
0000
0000
0000
,  // measure 91
1300
0000
0000
0000
;

//---------------dance-single - ----------------
#NOTES:
     dance-single:
     :
     Medium:
     7:
     0.509,0.575,0.316,0.505,0.000,347.000,40.000,64.000,0.000,0.000,0.000,0.509,0.575,0.316,0.505,0.000,347.000,40.000,64.000,0.000,0.000,0.000:
0000
0000
0000
0000
,
0000
0000
0000
0000
,
0000
0000
0000
0000
,
0000
0000
0000
0000
,
0000
0000
0000
0000
,
0000
0000
0000
0000
,
0000
0000
0000
0000
,
0000
0000
0000
0000
,
0000
0000
0000
0000
,
0001
0000
0000
0000
,
0010
0010
0000
0000
,
0100
0100
0000
0000
,
1000
1000
1001
0000
0000
0000
0000
0000
,
1000
0000
0000
0000
,
0010
0010
0000
0000
,
0100
0100
0000
0000
,
0001
0001
1001
0000
0000
0000
0000
0000
,
1000
0010
0100
0001
,
1000
0001
1001
0000
2000
0000
3100
0000
,
0011
1001
0002
0103
,
1010
1001
2000
3100
,
0011
1001
0002
0103
,
1010
0000
1001
0000
0001
0100
0010
1000
,
0000
0000
0010
0100
0001
0000
0101
0000
,
1010
0000
2000
0000
3100
0010
0001
0000
,
1000
0010
0100
0001
,
0100
0010
2000
3100
,
0011
1001
0002
0103
,
1010
1001
2000
3100
,
0011
1001
0002
0103
,
1010
0000
1001
0000
1000
0100
0010
0001
,
0000
0000
0010
0100
1000
0000
1100
0000
,
0011
0000
0002
0000
0103
0010
1000
0000
,
0100
0010
0001
0010
,
0100
0000
1000
0010
0100
0001
0100
0010
,
2000
0000
3010
0000
,
0100
0100
0101
0000
,
0002
0000
0013
0000
,
0100
0100
1100
1000
,
0010
0100
0101
0001
,
0010
0100
1100
1000
,
0010
0000
0100
0000
0101
0000
0001
0010
,
0200
0000
0000
2300
0000
0000
3001
0000
,
1001
0000
2000
0000
,
3020
0000
0230
0000
,
0302
0000
2003
3200
,
0320
0032
0023
0230
,
2300
3000
0010
0100
,
0001
0000
0010
0100
,
1000
0010
0100
0001
,
1000
0100
0010
0001
,
1000
0010
0100
0000
0001
0010
0100
0000
,
1000
0010
0100
0001
0010
0000
0100
1000
,
1001
0002
0023
0230
,
2300
3020
0230
0302
,
0023
2030
3200
0302
,
1003
0100
0001
0100
1000
0000
0010
0100
,
0001
0020
2030
3200
,
0302
0000
1003
0100
0001
0100
1000
0000
,
0010
0100
0001
0010
0000
0010
0001
0100
,
0010
1000
0100
0010
0001
0000
1000
0001
,
1001
2000
3020
0230
,
0302
0023
0230
2300
,
3020
0032
0203
2300
,
3001
0010
1000
0010
0001
0000
0100
0010
,
1000
0200
0302
0023
,
2030
0000
3001
0010
1000
0010
0001
0000
,
0100
0010
1000
0100
0000
0100
1000
0010
,
0100
0001
0010
0100
1000
0001
0100
0010
,
1000
0100
0010
0000
0100
1000
0010
0000
,
0100
0001
0010
0100
1000
0001
1001
0000
,
0001
0010
0100
0000
0010
0001
0100
0000
,
0010
1000
0100
0010
0001
1000
1001
0000
,
1000
0010
0100
0000
0010
1000
0100
0000
,
0010
0001
0100
0010
1000
0001
1001
0000
,
0001
0010
0100
1000
0000
1000
0100
0010
,
0001
0100
0010
1000
0001
0010
0100
1000
,
0002
0100
0103
0000
,
0110
0000
0010
1000
1001
0000
0000
0000
,
2000
0100
3100
0000
,
0110
0000
0010
0001
1001
0000
0000
0000
,
0002
0100
0103
0000
,
0110
0000
0010
1000
1001
0000
0000
0000
,
1000
0100
0010
0001
0000
0001
0010
0100
,
1000
0010
0100
0001
1000
0100
0010
0001
,
2000
0000
0000
0000
,
3020
0000
0000
0000
,
0230
0000
0000
0000
,
0302
0000
0000
0000
,
0023
0000
0000
0000
,
0230
0000
0000
0000
,
1300
0000
0000
0000
;

//---------------dance-single - ----------------
#NOTES:
     dance-single:
     :
     Easy:
     5:
     0.423,0.575,0.205,0.505,0.000,285.000,26.000,64.000,0.000,0.000,0.000,0.423,0.575,0.205,0.505,0.000,285.000,26.000,64.000,0.000,0.000,0.000:
0000
0000
0000
0000
,
0000
0000
0000
0000
,
0000
0000
0000
0000
,
0000
0000
0000
0000
,
0000
0000
0000
0000
,
0000
0000
0000
0000
,
0000
0000
0000
0000
,
0000
0000
0000
0000
,
0000
0000
0000
0000
,
1000
0000
0000
0000
,
0010
0010
0000
0000
,
0100
0100
0000
0000
,
0001
1001
0000
0000
,
0001
0000
0000
0000
,
0010
0010
0000
0000
,
0100
0100
0000
0000
,
1000
1001
0000
0000
,
1000
0010
0100
0001
,
1000
1001
2000
3010
,
0100
0001
2000
3100
,
0010
0001
2000
3010
,
0100
0001
2000
3100
,
0010
0000
0002
0000
1003
0000
0010
0010
,
0000
0100
0001
0011
,
1100
1000
0100
0010
,
0001
0100
0010
1000
,
0010
0100
0002
0013
,
0100
1000
0002
0103
,
0010
1000
0002
0013
,
0100
1000
0002
0103
,
0010
0000
2000
0000
3001
0000
0010
0010
,
0000
0100
1000
1010
,
0101
0001
0010
0100
,
1000
0010
0100
0001
,
0100
0010
1000
0001
,
2001
0000
3010
0000
,
0100
0100
0101
0000
,
1002
0000
0013
0000
,
0100
0100
1100
1000
,
0010
0100
0101
0001
,
0010
0100
1100
1000
,
0010
0100
0101
0001
,
0020
0000
0000
0230
0000
0000
1300
0000
,
1001
0000
2000
0000
,
3020
0000
0230
0000
,
0302
0000
2003
3200
,
0320
0032
0023
0230
,
2300
3000
0010
0100
,
0001
0000
0010
0100
,
1000
0010
0100
0001
,
1000
0100
0010
0001
,
1000
1000
0010
0010
,
0100
0000
0100
0000
0001
0000
0001
1000
,
1001
0002
0023
0230
,
2300
3020
0230
0302
,
0023
2030
3200
0302
,
1003
0000
0010
0000
0100
0000
0001
0100
,
0001
0020
2030
3200
,
0302
1003
0100
0010
,
0001
0000
1000
0010
0000
0010
1000
0000
,
0100
0000
0010
0000
0001
0000
1000
0001
,
1001
2000
3020
0230
,
0302
0023
0230
2300
,
3020
0032
0203
2300
,
3001
0000
0010
0000
0100
0000
1000
0010
,
1000
0200
0302
0023
,
2030
3001
0010
0100
,
1000
0000
0001
0010
0000
0010
0001
0000
,
0100
0010
1000
0010
,
0100
0000
0001
0000
0010
0100
0010
0000
,
0100
1000
0001
1001
,
0001
0000
0100
0000
0010
0100
0010
0000
,
0100
0001
1000
1001
,
1000
0000
0100
0000
0010
0100
0010
0000
,
0100
1000
0001
1001
,
0001
0000
1000
0010
0000
0010
1000
0000
,
0100
0010
0001
0010
,
0200
1000
1300
0000
,
1010
0010
0110
0000
,
0200
0001
0301
0000
,
0011
0010
0110
0000
,
0200
1000
1300
0000
,
1010
0010
0110
0000
,
1000
0000
0001
0100
0000
0100
0001
0000
,
0010
0100
1000
0001
,
2000
0000
0000
0000
,
3020
0000
0000
0000
,
0230
0000
0000
0000
,
0302
0000
0000
0000
,
0023
0000
0000
0000
,
0230
0000
0000
0000
,
1300
0000
0000
0000
;
