#TITLE:Pink Fuzzy Bunnies;
#SUBTITLE:;
#ARTIST:Wonderboy;
#TITLETRANSLIT:;
#SUBTITLETRANSLIT:;
#ARTISTTRANSLIT:;
#GENRE:Happy Hardcore;
#CREDIT:;
#BANNER:Pink Fuzzy Bunnies-banner.png;
#BACKGROUND:Pink Fuzzy Bunnies-bg.png;
#LYRICSPATH:;
#CDTITLE:;
#MUSIC:Pink Fuzzy Bunnies.ogg;
#OFFSET:0.008;
#SAMPLESTART:78.689;
#SAMPLELENGTH:9.100;
#SELECTABLE:YES;
#BPMS:0.000=211.000
,160.000=128.000
,192.000=211.000
,297.000=200.000
,297.250=180.000
,297.500=160.000
,297.750=140.000
,298.000=119.500
,299.000=211.000
;
#STOPS:
;
#BGCHANGES:-10.000=background.lua=10.300=0=0=1=====,
0.500=background.lua=1.000=1=0=1=Visualization2File=Pump It Up Pro 2/191_JB_HD.mpg=CrossFade==,
16.000=Pump It Up Pro 2/298_JumpBack_NTSC_DV.mpg=1.000=1=0=1===CrossFade==,
32.000=Pump It Up Pro 2/bouncing.mpg=1.000=0=0=1=====,
48.000=Pump It Up Pro 2/172_JB_HD.mpg=1.000=0=0=1===FadeUp==,
64.000=Pump It Up Pro 2/196_JB_HD.mpg=1.000=0=0=1=====,
80.000=Pump It Up Pro 2/235_JumpBack_NTSC_DV.mpg=1.000=1=0=1===CrossFade==,
92.000=background.lua=1.000=1=0=1=Visualization2File=Pump It Up Pro 2/235_JumpBack_NTSC_DV.mpg=CrossFade==#808080,
96.000=Pump It Up Pro 2/141_JB_HD.mpg=1.000=0=0=1=====,
112.000=Pump It Up Pro 2/447_JumpBack.mpg=1.000=1=0=1===CrossFade==,
128.000=Pump It Up Pro 2/170_JB_HD.mpg=1.000=0=0=1=====,
144.000=Pump It Up Pro 2/279_JumpBack_NTSC_DV.mpg=1.000=0=0=1===FadeCenterVertical==,
152.000=Pump It Up Pro 2/279_JumpBack_NTSC_DV.mpg=2.000=0=0=1=Visualization2File=white flash===#303030,
153.000=Pump It Up Pro 2/279_JumpBack_NTSC_DV.mpg=2.000=0=0=1=Visualization2File=white flash===#303030,
154.000=Pump It Up Pro 2/279_JumpBack_NTSC_DV.mpg=2.000=0=0=1=Visualization2File=white flash===#303030,
155.000=Pump It Up Pro 2/279_JumpBack_NTSC_DV.mpg=2.000=0=0=1=Visualization2File=white flash===#303030,
160.000=Pump It Up Pro 2/359_JumpBack.mpg=1.000=0=0=1=====,
175.979=Pump It Up Pro 2/359_JumpBack.mpg=0.500=0=0=1=====,
176.000=Pump It Up Pro 2/360_JumpBack.mpg=1.000=0=0=1===FadeCenterHorizontal==,
187.979=Pump It Up Pro 2/360_JumpBack.mpg=0.600=0=0=1=====,
188.000=background.lua=1.000=1=0=1=Visualization2File=Pump It Up Pro 2/360_JumpBack.mpg=CrossFade=#808080=,
192.000=Pump It Up Pro 2/308_JumpBack_NTSC_DV.mpg=1.000=0=0=1=====,
208.000=Pump It Up Pro 2/657_JumpBack.mpg=1.000=0=0=1===CrossFade_Fastest=#FF00FF=,
224.000=Pump It Up Pro 2/1384_JumpBack.mpg=1.000=0=0=1=====,
240.000=Pump It Up Pro 2/172_JB_HD.mpg=1.000=0=0=1===FadeCenterHorizontal==,
256.000=Pump It Up Pro 2/1379_JumpBack.mpg=1.000=0=0=1=====,
272.000=Pump It Up Pro 2/1380_JumpBack.mpg=1.000=1=0=1===CrossFade==,
288.000=background.lua=1.000=0=0=1====#FF00FF=,
289.000=background.lua=1.000=0=0=1====#0000FF=,
290.000=background.lua=1.000=0=0=1====#FFFF00=,
291.000=background.lua=1.000=0=0=1====#00FF00=,
292.000=Pump It Up Pro 2/298_JumpBack_NTSC_DV.mpg=1.000=0=0=1=====,
297.000=Pump It Up Pro 2/298_JumpBack_NTSC_DV.mpg=0.600=1=0=1===CrossFade=#FF0000=,
299.000=Pump It Up Pro 2/bouncing.mpg=1.000=0=0=1=====,
315.000=Pump It Up Pro 2/psy_tunnel.mpg=1.000=1=0=1===CrossFade==,
323.000=Pump It Up Pro 2/psy_tunnel.mpg=1.000=0=0=1====#FF00FF=,
327.000=Pump It Up Pro 2/psy_tunnel.mpg=1.000=0=0=1====#FFFF00=,
331.000=Pump It Up Pro 2/psy_tunnel.mpg=1.000=0=0=1====#FF0000=,
333.000=Pump It Up Pro 2/psy_tunnel.mpg=1.000=0=0=1====#0000FF=,
335.000=Pump It Up Pro 2/psy_tunnel.mpg=1.000=0=0=1====#00FF00=,
337.000=Pump It Up Pro 2/psy_tunnel.mpg=1.000=1=0=1===CrossFade=#00FFFF=,
339.000=background.lua=1.000=0=0=1=Visualization2File=Pump It Up Pro 2/psy_tunnel.mpg===#808080,
344.500=background.lua=1.000=0=0=1=Visualization2File=Pump It Up Pro 2/psy_tunnel.mpg===#FF0000,
345.500=background.lua=1.000=0=0=1=====,
353.000=black=1.000=0=0=1=====,
354.000=background.lua=1.000=0=0=1=====,
99999=-nosongbg-=1.000=0=0=0 // don't automatically add -songbackground-
;
#BGCHANGES2:32.000=white flash=1.000=0=0=1=====,
64.000=white flash=1.000=0=0=1=====,
96.000=white flash=1.000=0=0=1=====,
128.000=white flash=1.000=0=0=1=====,
156.000=white reverse flash=0.500=0=0=1=====,
160.000=white flash=1.000=0=0=1=====,
175.000=background.lua=1.000=0=0=1=File1FlashOverlay===#808080=,
192.000=white flash=1.000=0=0=1=====,
222.000=white reverse flash=0.900=0=0=1=====,
224.000=white flash=1.000=0=0=1=====,
256.000=white flash=1.000=0=0=1=====,
288.000=white flash=2.400=0=0=1=====,
289.000=white flash=2.400=0=0=1=====,
290.000=white flash=2.400=0=0=1=====,
291.000=white flash=2.400=0=0=1=====,
292.000=white flash=1.000=0=0=1=====,
299.000=white flash=1.000=0=0=1=====,
323.000=white flash=1.000=0=0=1=====,
327.000=white flash=1.000=0=0=1=====,
331.000=white flash=1.600=0=0=1=====,
333.000=white flash=1.600=0=0=1=====,
335.000=white flash=1.600=0=0=1=====,
339.000=white flash=1.000=0=0=1=====,
344.500=white flash=1.600=0=0=1=====,
345.500=white flash=1.600=0=0=1=====,
346.500=white reverse flash=0.400=0=0=1====#000000=,
353.000=white flash=1.600=0=0=1=====,
354.000=white flash=1.600=0=0=1=====,
;
#KEYSOUNDS:;
#ATTACKS:TIME=90.510002:LEN=5.000000:MODS=*5 200% Mini,*10 Dizzy:TIME=90.959999:LEN=5.000000:MODS=*12 No Mini,*10 No Dizzy:TIME=104.570000:LEN=5.000000:MODS=*3 Dark,*3 Stealth:TIME=105.709999:LEN=5.000000:MODS=No Stealth:TIME=105.430000:LEN=5.000000:MODS=No Dark:TIME=105.000000:LEN=5.000000:MODS=*3 Flip:TIME=106.559998:LEN=5.000000:MODS=*5 Reverse:TIME=106.849998:LEN=5.000000:MODS=*5 No Flip:TIME=45.490002:LEN=15.000000:MODS=*10 50% Beat;

//---------------dance-single - ----------------
#NOTES:
     dance-single:
     :
     Medium:
     8:
     0.570,0.573,0.444,0.083,0.014,374.000,48.000,9.000,0.000,0.000,0.000,0.570,0.573,0.444,0.083,0.014,374.000,48.000,9.000,0.000,0.000,0.000:
0000
0000
0000
0000
,
0000
0000
0000
0000
,
0000
0000
0000
0000
,
0000
0000
0000
0000
,
0010
0000
1000
0100
1000
0000
0001
0100
,
0001
0100
0010
1000
,
0001
0010
0001
0000
1000
0010
1000
0000
,
1010
0000
0000
0000
,
0010
0100
0001
0010
,
0100
0000
1000
0000
0001
0100
0010
0000
,
1000
0100
0010
0100
,
1000
0000
0001
0000
0100
0010
0100
0000
,
0001
0010
0100
1000
,
0010
0000
1000
0000
0001
0010
0100
0000
,
1000
0001
0100
0010
,
0100
0000
0001
1000
0000
1000
0001
0000
,
0011
0011
1100
1100
,
0001
0000
0100
0010
0000
0010
0100
0000
,
0110
0110
1001
1001
,
0001
0000
0010
0001
0000
0001
1000
0000
,
1010
1010
0110
0110
,
0100
0000
0001
0100
0000
0100
0001
0000
,
1001
0000
1001
0000
0100
0010
0100
0000
,
2002
0000
0000
3003
,
0001
0000
0100
0001
0100
0000
0001
0100
,
0010
0100
0010
1000
,
0100
1000
0100
0000
1000
0001
1000
0000
,
0001
0100
0010
0000
,
0010
0000
1000
0100
1000
0000
0001
0100
,
0001
1000
0100
0010
,
0001
0000
1000
0010
1000
0000
0001
0010
,
0002
0000
0000
0000
,
1003
0000
0010
0000
1000
0000
0000
0010
0000
0000
1000
0000
0010
0000
0000
0000
,
0100
0001
0100
0000
0001
0100
0001
0000
,
0010
0000
0001
0000
0010
0000
0000
0001
0000
0000
0010
0000
0001
0000
0000
0000
,
1000
0010
1000
0000
0010
1000
0010
0000
,
0100
0000
0001
0000
1000
0000
0000
0100
0000
0000
0010
0000
0001
0000
0000
0000
,
1000
0010
0100
0000
0001
1000
0100
0000
,
0010
0011
0001
1001
,
1000
0010
0100
0001
1000
0000
1001
0000
,
1001
0110
1001
0110
,
0100
0010
0100
0010
0000
0010
0001
0000
,
0011
1100
0011
1100
,
1000
0100
1000
0100
0000
0100
1000
0000
,
1010
0110
0101
1001
,
0001
0010
0001
0100
0000
0100
0010
0000
,
1010
0000
0101
0000
0001
0010
0100
0000
,
1001
0000
0010
0100
0000
0100
0010
0000
,
0010
0000
0000
1000
0000
0010
0000
1000
,
0000
0010
0000
1000
0010
0000
1000
0000
,
0001
0000
0000
1000
0000
0001
0000
1000
,
0001
1000
0001
0010
,
0001
0000
0000
0100
0000
0010
0000
1000
,
0100
1000
0100
0010
,
0001
0000
0000
1000
0000
0000
0001
0000
,
0100
0010
1000
0100
,
0010
0001
0010
0001
,
1000
0010
1000
0010
,
0100
0001
0100
0001
,
1000
0100
1000
0100
,
0010
0001
0100
0010
,
1000
0100
0010
0100
,
1000
0010
0100
0001
,
0020
0230
2300
3001
,
0100
0110
0010
1010
,
1000
0000
0100
1000
0000
1000
0001
0000
,
0010
0110
0100
1100
,
1000
0000
0001
0100
0000
0100
0010
0000
,
0010
1010
1000
1001
,
0001
0000
0010
0001
0000
0001
0100
0000
,
0010
0000
0011
0000
0010
0100
0001
0000
,
2002
0000
3003
0000
,
0110
0110
1001
0000
,
0100
0000
1000
0100
1000
0000
0001
0100
,
0001
0000
0001
0200
0000
0000
0310
0000
,
1000
0010
1000
0100
,
1000
0001
1000
0000
0001
0000
0100
0000
,
1000
0010
0001
0100
,
0010
0110
0000
0010
,
1000
0010
1000
0000
0001
0010
0001
0000
,
0010
0100
1000
0001
,
0100
0000
0010
1000
0100
0000
0010
0000
,
0001
0000
0100
0010
1000
0000
0001
0000
,
0010
0000
0100
1000
0001
0000
0100
0000
,
0010
0100
0010
1000
,
0001
0000
1000
0001
1000
0000
0001
1000
,
0001
1000
0000
1000
0001
0000
0000
0000
,
0000
0000
0000
0000
,
0000
1001
1001
0000
;

//---------------dance-single - ----------------
#NOTES:
     dance-single:
     :
     Hard:
     10:
     0.747,0.778,0.490,0.093,0.305,502.000,53.000,10.000,0.000,0.000,0.000,0.747,0.778,0.490,0.093,0.305,502.000,53.000,10.000,0.000,0.000,0.000:
0000
0000
0000
0000
,
0000
0000
0000
0000
,
0000
0000
0000
0000
,
0000
0000
0000
0000
,
0010
0000
1000
0100
0001
0000
0001
0100
,
1000
0100
0001
0100
1000
0000
0010
0000
,
0100
0001
0010
1000
0010
0001
0100
0010
,
2000
0000
0000
3000
,
0010
0000
0000
0010
0100
0000
0000
0100
0001
0000
0000
0001
0010
0000
0000
0010
,
0100
0000
0000
0100
1000
0000
0000
1000
0010
0000
0000
0010
0100
0000
0000
0100
,
0001
0000
0000
0001
0010
0000
0000
0010
0100
0000
0000
0100
1000
0000
0000
1000
,
0001
0000
0000
0001
0100
0000
0000
0100
0010
0000
0000
0010
0100
0000
0000
0100
,
0001
0000
0000
0001
0010
0000
0000
0010
1000
0000
0000
1000
0010
0000
0000
0010
,
0001
0000
0000
0001
0100
0000
0000
0100
1000
0000
0000
1000
0010
0000
0000
0010
,
0001
0000
0000
0001
0100
0000
0000
0100
0010
0000
0000
0010
1000
0000
0000
1000
,
0100
0000
0000
0100
0010
0000
0000
0010
0001
0000
0000
0001
1000
0000
0000
0000
,
1010
0101
0011
1100
,
0001
0100
1000
0100
0000
0100
0010
0000
,
1010
1001
0011
0110
,
0100
1000
0001
0100
0000
0100
0010
0000
,
1010
1001
0011
0110
,
0100
1000
0001
0100
0000
0100
0010
0000
,
0110
0000
0101
0000
0001
1000
1100
0000
,
0110
0000
0010
0000
0001
1000
0001
0000
,
1001
0000
0010
0100
0001
0000
0001
0100
,
0010
1000
0100
1000
0001
0000
0100
0000
,
0010
1000
0100
0001
0100
1000
0010
0100
,
0001
0010
1000
0010
0001
0000
0100
0000
,
0110
0000
0010
1000
0001
0000
0001
0010
,
0100
0010
0001
0100
0010
0000
1000
0000
,
0100
0010
0100
1000
0010
0001
0010
0100
,
0002
0000
0000
0003
,
1000
0000
0010
0000
0100
0000
0000
0001
0000
0010
0100
0000
1000
0000
0000
0000
,
0010
0000
0100
0000
0001
0000
1000
0100
1000
0000
0001
0000
0100
0000
0000
0000
,
0010
0000
1000
0000
0100
0000
0000
1000
0000
0001
0100
0000
0010
0000
0000
0000
,
1000
0000
0001
0000
0010
0000
0100
1000
0100
0000
0010
0000
0001
0000
0000
0000
,
0100
0000
0010
0000
1010
0000
0000
0001
0000
0010
0100
0000
1100
0000
0000
0000
,
1000
0000
0010
0000
0101
0000
0001
0010
0001
0000
0010
0000
1100
0000
0000
0000
,
1001
0101
1010
0011
,
1000
0100
0001
0010
1000
0010
0001
0000
,
1001
1100
1001
0101
,
0001
0100
0010
0110
0000
0010
0110
0000
,
1010
1001
0011
0110
,
0100
1000
0001
0101
0000
0010
0110
0000
,
1010
1010
1001
1001
,
0001
0010
0001
0101
0000
0100
0110
0000
,
1010
0000
0110
0000
0100
0001
1000
0000
,
1001
0000
0100
0000
0010
0001
1000
0000
,
0010
0000
0000
0100
0000
0010
0000
1000
,
0000
0001
0000
0010
0100
0000
1000
0000
,
0001
0100
0000
0001
0000
0010
0000
0100
,
1000
0000
0001
0100
0000
0010
1000
0000
,
0001
0010
0001
0010
0100
1000
0100
1000
,
0001
0100
0001
0100
0010
1000
0010
1000
,
0100
0001
0100
1000
0010
0001
1000
0100
,
0001
0010
0100
1000
,
0010
0100
0000
0001
0000
1000
0000
0100
,
0000
0010
0000
0100
1000
0000
0010
0000
,
0001
1000
0000
0100
0000
0001
0000
0010
,
0000
0100
0000
1000
0001
0000
0100
0000
,
0010
0000
1000
0100
0000
1000
0000
0010
,
0100
0000
0001
0010
0000
0100
0000
0010
,
0001
0000
1000
0010
0000
0100
0000
0001
,
0010
0100
1000
0001
,
0100
0000
0000
0100
0010
0000
0000
0010
1000
0000
0000
1000
0001
0000
0000
0001
,
0010
0000
0000
0010
0100
0000
0000
0100
1000
0000
0000
1000
0001
0000
0000
0001
,
0100
0000
0000
0100
0010
0000
0000
0010
1000
0000
0000
1000
0100
0000
0000
0100
,
0010
0000
0000
0010
0001
0000
0000
0001
0100
0000
0000
0100
0010
0000
0000
0010
,
0100
0000
0000
0100
0001
0000
0000
0001
0010
0000
0000
0010
0100
0000
0000
0100
,
1000
0000
0000
1000
0010
0000
0000
0010
0100
0000
0000
0100
0001
0000
0000
0001
,
0010
0000
0000
0010
0100
0000
0000
0100
1000
0000
0001
0000
0100
0000
0000
0000
,
0210
0010
0010
0310
,
1010
0101
1001
0200
,
0310
0000
0001
0100
1000
0000
1000
0100
,
0001
0100
1000
0200
0000
0000
0301
0000
,
0001
0010
1000
0000
1000
0010
0001
0010
,
1000
0010
0001
0000
0100
0000
0010
1000
,
0100
1000
0010
0100
0001
0100
0010
1000
,
0001
1000
0020
0000
0130
0000
0001
0000
,
1000
0100
0001
0000
0001
0100
1000
0100
,
0001
0100
1000
0000
0100
0000
0010
0001
,
0010
0001
1000
0100
1000
0100
1000
0010
,
1000
0010
0100
0001
0100
0001
0010
0100
,
1000
0001
0100
0010
1000
0001
0020
0000
,
0230
2300
3002
0103
,
0100
0000
0100
0100
0100
0000
0100
0010
,
0100
0010
0000
0010
0110
0000
0000
0000
,
0000
0000
0000
0000
,
0000
0100
1001
0000
;

//---------------dance-single - ----------------
#NOTES:
     dance-single:
     :
     Easy:
     6:
     0.415,0.491,0.102,0.093,0.000,293.000,11.000,10.000,0.000,0.000,0.000,0.415,0.491,0.102,0.093,0.000,293.000,11.000,10.000,0.000,0.000,0.000:
0000
0000
0000
0000
,
0000
0000
0000
0000
,
0000
0000
0000
0000
,
0000
0000
0000
0000
,
0010
0000
0010
0000
,
1000
0100
1000
0000
,
0100
0010
0001
1000
,
0020
0000
0000
0000
0000
0030
0000
0000
,
0100
0001
0100
0010
,
1000
0100
0010
0001
,
0100
0010
1000
0100
,
0010
0100
1000
0001
,
0100
0010
0100
0001
,
0010
1000
0010
0001
,
0100
0010
1000
0100
,
0010
0001
0100
0010
,
0100
0100
0001
0001
,
1000
0000
0001
1000
0000
0000
0000
0000
,
0100
0100
0010
0010
,
0001
0000
0001
1000
0000
0000
0010
0000
,
0100
0001
0100
0010
,
1000
0000
1000
0100
0000
0000
0000
0000
,
0010
0000
0100
0000
1000
0001
1000
0000
,
1001
0000
0000
0000
,
0010
0000
1000
0010
1000
0000
0010
0000
,
0100
0001
0010
0010
,
0100
0100
1000
1000
,
0010
0100
0101
0000
,
0001
0000
0010
0001
0010
0000
0100
0000
,
1000
0001
0100
0100
,
0010
1000
0100
0010
,
0110
0000
0000
0000
,
0010
0000
0100
0000
0000
0010
0100
0000
,
1000
0001
1000
1000
,
0001
0000
1000
0000
0000
0001
1000
0000
,
0001
0010
0001
0001
,
1000
0000
0010
0000
0000
1000
0010
0000
,
0100
0001
0100
0100
,
0001
0010
0100
1000
,
0001
0100
0010
1000
,
0010
0100
0010
0100
,
0001
0000
1000
0001
0000
0000
0010
0000
,
0100
1000
0010
0100
,
0001
0000
1000
0001
0000
0001
1000
0000
,
0010
0100
0001
1000
,
0100
0000
0010
0001
0000
0000
1000
0000
,
0010
0000
0100
0000
0001
1000
0001
0000
,
1001
0000
0100
0000
0000
0010
0100
0000
,
1000
0000
0010
0000
,
0100
0001
1000
0100
,
0010
0000
0001
0000
,
0100
0010
0100
0001
,
1000
0000
0100
0000
,
0010
0001
1000
0010
,
0100
0000
0001
0000
,
1000
0001
2000
0000
,
3001
0010
0001
0010
,
0100
1000
0100
0000
,
1000
0010
0100
0001
,
0010
0100
1000
0000
,
0100
1000
0010
0100
,
0001
0100
0010
0000
,
1000
0100
0010
0001
,
0020
0230
2300
3002
,
0103
0100
0010
0010
,
1000
0000
0000
0001
0000
0000
1000
0000
,
0100
0100
0010
0010
,
0001
0000
0000
1000
0000
0000
0001
0000
,
0010
0010
0100
0100
,
1000
0000
0000
0010
0000
0000
0100
0000
,
0001
0001
0010
0010
,
0220
0000
0330
0000
,
0110
1001
0110
0000
,
0010
1000
0100
1000
,
0001
0000
0000
0100
0000
0000
0010
0000
,
1000
0100
1000
0001
,
0100
0010
1000
0100
,
0100
0010
0010
0001
,
0001
1001
0000
0010
,
0000
0100
0000
0001
,
0001
1000
0000
0100
,
0000
0010
0000
0001
,
1000
0010
0100
0001
,
0010
0100
1000
0002
,
0000
2003
0000
3010
,
0010
0010
0000
0010
,
0000
0010
0000
0000
0010
0000
0000
0000
,
0000
0000
0000
0000
,
0000
0110
0110
0000
;
