#VERSION:0.81;
#TITLE:Little Red Rappinghood;
#SUBTITLE:;
#ARTIST:Mickey Mouse Club;
#TITLETRANSLIT:;
#SUBTITLETRANSLIT:;
#ARTISTTRANSLIT:;
#GENRE:Disney Television;
#ORIGIN:;
#CREDIT:;
#BANNER:[Colors] - Little Red Rappinghood.png;
#BACKGROUND:[Colors] - Little Red Rappinghood-bg.png;
#PREVIEWVID:;
#JACKET:[Colors] - Little Red Rappinghood-jacket.png;
#CDIMAGE:;
#DISCIMAGE:;
#LYRICSPATH:;
#CDTITLE:;
#MUSIC:[Colors] - Little Red Rappinghood.mp3;
#OFFSET:-0.077;
#SAMPLESTART:20.400;
#SAMPLELENGTH:15.000;
#SELECTABLE:YES;
#BPMS:0.000=116.000;
#STOPS:;
#DELAYS:;
#WARPS:;
#TIMESIGNATURES:0.000=4=4;
#TICKCOUNTS:0.000=4;
#COMBOS:0.000=1;
#SPEEDS:0.000=1.000=0.000=0;
#SCROLLS:0.000=1.000;
#FAKES:;
#LABELS:0.000=Song Start;
#BGCHANGES:;
#KEYSOUNDS:;
#ATTACKS:
;

//---------------dance-single - ----------------
#NOTEDATA:;
#CHARTNAME:;
#STEPSTYPE:dance-single;
#DESCRIPTION:;
#CHARTSTYLE:;
#DIFFICULTY:Easy;
#METER:3;
#RADARVALUES:0.219,0.181,0.305,0.000,0.000,125.000,31.000,0.000,0.000,0.000,0.000,0.000,0.000,0.219,0.181,0.305,0.000,0.000,125.000,31.000,0.000,0.000,0.000,0.000,0.000,0.000;
#CREDIT:;
#NOTES:
0000
0000
0000
0000
,
0000
0000
0000
0000
,
0000
1000
0000
1001
,
0000
0001
0000
0011
,
0000
0010
0000
0110
,
0000
0100
0000
1100
,
0000
1001
0000
0101
,
0000
0011
0000
1001
,
0000
0110
0000
1100
,
0000
0101
0000
0110
,
0010
0010
1000
0000
,
1000
1000
0001
0000
,
0010
0010
0100
0000
,
1000
1000
0100
0000
,
0000
0001
0000
0000
0001
0000
1001
0000
,
0000
1000
0000
0000
1000
0000
1001
0000
,
0000
0100
0000
0110
,
0000
0010
0000
0011
,
0000
0001
0000
0101
,
0000
0100
0000
0110
,
0000
1010
0000
1100
,
0000
0011
0000
0101
,
0000
1001
0000
0110
,
0000
1001
0000
0110
,
0010
0010
1000
0000
,
1000
1000
0001
0000
,
0001
0001
0010
0000
,
0010
0010
0100
0000
,
0000
1000
0000
0000
1000
0000
1001
0000
,
0000
0001
0000
0000
0001
0000
1001
0000
,
0100
0100
1000
1000
,
0001
0001
0010
0010
,
0100
1000
0010
0001
,
1000
0100
0001
0010
,
1000
1000
0010
0010
,
0001
0001
0100
0100
,
0010
0100
0001
1000
,
0100
0010
0001
1000
,
0010
0010
0100
0000
,
0001
0001
0010
0000
,
0100
0100
1000
0000
,
0010
0010
0100
0000
,
0001
0001
1000
0000
,
0100
0100
0010
0000
,
0000
0100
0000
0000
0100
0000
0110
0000
,
0000
0010
0000
0000
0010
0000
0110
0000
,
1001
0000
0000
0000
;

//---------------dance-single - ----------------
#NOTEDATA:;
#CHARTNAME:;
#STEPSTYPE:dance-single;
#DESCRIPTION:;
#CHARTSTYLE:;
#DIFFICULTY:Hard;
#METER:9;
#RADARVALUES:0.674,0.648,0.443,0.020,0.871,432.000,45.000,2.000,0.000,0.000,0.000,0.000,0.000,0.674,0.648,0.443,0.020,0.871,432.000,45.000,2.000,0.000,0.000,0.000,0.000,0.000;
#CREDIT:;
#NOTES:
0000
0000
0000
0000
,
0000
0000
0000
0000
,
0001
0010
0100
1000
0100
0000
1000
0001
0100
0010
1000
0001
0010
0000
0000
0000
,
0100
0010
0100
0010
0001
0000
0100
0000
0010
0100
0000
0001
0000
0010
0001
0000
,
0010
0000
0100
0000
1100
0000
1000
0010
0000
0010
0100
0000
0101
0000
0001
1000
,
0000
1000
0100
0000
1100
0000
0100
0000
0010
0000
0001
0000
0101
0000
0000
0100
,
0010
0000
0010
1000
0001
0010
0001
0100
0000
0100
0000
0100
0010
0000
0010
1000
,
0000
1000
0001
0010
0001
0100
0010
1000
0000
0001
0000
1000
0010
0000
0000
0000
,
0100
0010
0100
0010
1000
0000
0010
1000
0001
0010
0001
0100
0010
0000
1000
0010
,
0100
0001
0100
1000
0100
0001
0100
1000
0100
0000
0110
0000
1001
0000
1000
0000
,
1010
0000
0000
0010
0000
0000
0110
0000
0100
0001
0000
0001
0100
0001
0010
0000
,
0110
0000
0000
0100
0000
0000
1000
0100
1000
0000
0001
0000
1001
0000
1000
0000
,
1100
0000
0000
0100
0000
0000
0110
0000
0010
0001
0000
0001
0010
0001
0100
0000
,
0110
0000
0000
0100
0000
0000
0001
0100
0001
0000
0100
0000
0100
0000
0000
0000
,
0010
1000
0100
0000
1000
0000
0010
1000
0100
0000
0000
0000
0011
0000
0000
0000
,
0010
0001
0100
0000
0001
0000
0010
0001
0100
0000
0000
0000
1010
0000
0000
1000
,
0001
0000
0000
0000
0000
0000
0010
0000
0000
0001
0000
0000
0100
0000
0000
0000
0010
0000
1000
0000
0000
0000
0010
0000
0100
0000
0000
0000
0001
0000
0100
0000
0000
0000
0000
0000
0001
0000
0000
0000
1000
0000
0001
0000
0000
0000
1000
0000
,
0001
0000
0000
0000
0001
0000
0010
0000
0000
0000
0000
0000
0100
0000
0000
0000
1000
0000
0100
0000
0000
0000
1000
0000
0010
0000
0000
0000
0100
0000
0000
0000
0000
0110
0000
0000
0000
0000
0000
0100
0000
0000
0001
0000
0000
0000
0000
0000
,
1000
0000
0000
0000
0001
0000
1000
0000
0000
0000
0000
0000
0100
0000
0000
0010
0000
0000
0100
0000
0000
0000
1000
0000
0000
0000
0000
0000
0000
0000
0100
0000
0000
0010
0000
0000
0000
0000
0000
0000
0000
0000
0001
0000
0000
0010
0000
0000
,
0100
1000
0010
0100
0001
0000
1000
0000
0001
0010
0000
0110
0000
0100
1000
0000
,
0001
0000
0000
1001
0000
1000
0010
0000
0100
0000
0010
0100
0000
0000
0010
0000
,
0000
0010
0000
1000
0100
0010
0001
0000
1000
0000
0001
0000
1001
0000
0000
0000
,
0001
0010
0000
0000
0001
0000
0100
0000
0110
0000
0000
1001
0000
0110
0000
0000
,
0000
0010
0000
1000
0010
0100
0001
0000
1000
0000
0001
0000
0010
0000
0100
0000
,
1100
0000
0000
1000
0000
0000
1010
0000
0010
0100
0000
0100
0010
0100
0001
0000
,
0011
0000
0000
0001
0000
0000
0100
0001
0100
0000
0000
0000
0010
1000
0001
0000
,
1001
0000
0000
0001
0000
0000
0011
0000
0010
0100
0000
0100
0010
0100
1000
0000
,
1001
0000
0000
0001
0000
0000
0100
0001
0100
0000
0000
0000
0110
0000
0000
0000
,
0010
1000
0100
0000
1000
0000
0010
1000
0100
0000
0000
0000
0011
0000
0000
0000
,
0010
0001
0100
0000
0001
0000
0010
0001
0100
0000
0000
0000
0010
1000
0001
1000
,
0001
0000
0010
0001
0000
0010
0100
1000
0100
0000
1000
0010
0000
0000
0100
0010
,
1000
0000
0000
0001
0000
0000
0010
0000
0000
0000
0000
0000
0100
0000
0000
0010
0000
0000
0001
0000
0000
0000
0000
0000
0100
0000
0000
0000
0001
0000
0000
0000
1000
0000
0000
0000
0001
0000
0000
0000
0000
0000
0000
0000
0000
1000
0000
0000
,
0100
1000
0010
0001
0010
1000
0100
0001
0100
0000
0010
0001
1000
0000
0100
1000
,
0010
0000
0000
0000
0000
0000
0100
0000
0000
0010
0000
0000
0100
0000
0000
0010
0000
0000
1000
0000
0000
0000
0000
0000
0001
0000
0000
0000
0010
0000
0000
0000
0100
0000
0000
0000
0000
0000
0000
0000
0000
0000
1000
0000
0000
0001
0000
0000
,
0010
0000
0100
0000
1000
0100
0001
0000
0100
1000
0010
0100
0000
0001
0000
0001
,
0000
0000
0000
1000
0000
0000
0000
0000
0000
0001
0000
0000
1000
0000
0000
0010
0000
0000
0100
0000
0000
0010
0000
0000
1000
0000
0000
0000
0001
0000
0000
0000
1001
0000
0000
0000
0000
0000
0000
0000
0000
0000
1000
0000
0000
0000
0000
0000
,
0010
0000
0000
0000
1000
0000
0000
0000
0100
0000
0000
0000
0010
0000
0000
0100
0000
0000
1000
0000
0000
0001
0000
0000
0100
0000
0000
0010
0000
0000
0000
0000
0000
0110
0000
0000
0000
0000
0000
0000
0000
0000
0000
0000
0000
0000
0000
0000
,
0010
1000
0001
0000
0010
0001
1000
0000
0100
1000
0000
1000
0001
0010
0100
0000
,
0110
0000
0000
0100
0000
0000
1100
0000
0100
1000
0000
1000
0001
0100
0001
0000
,
0011
0000
0000
0010
0000
0000
0100
0010
0100
1000
0100
1000
0001
0100
0001
0000
,
1001
0000
0000
0001
0000
0000
0101
0000
0100
0010
0000
0010
0100
0001
0010
0000
,
0110
0000
0000
0100
0000
0000
1000
0100
1000
0000
0000
0000
1001
0000
0001
0000
,
0101
0000
0000
0100
0000
0000
0110
0000
0010
0100
0000
0100
0001
0010
0100
0000
,
0110
0000
0000
0100
0000
0000
1000
0100
1000
0000
0001
0000
1000
0001
0000
1000
,
0001
0010
0100
0000
0010
0000
0001
0010
0100
0000
0000
0000
1010
0000
0000
0000
,
1000
0010
0100
0000
0010
0000
1000
0010
0100
0000
0000
0000
0011
0000
0001
0000
,
2002
0000
0000
0000
,
3003
0000
0000
0000
;

//---------------dance-single - ----------------
#NOTEDATA:;
#CHARTNAME:;
#STEPSTYPE:dance-single;
#DESCRIPTION:;
#CHARTSTYLE:;
#DIFFICULTY:Medium;
#METER:5;
#RADARVALUES:0.399,0.324,0.089,0.098,0.069,265.000,9.000,10.000,0.000,0.000,0.000,0.000,0.000,0.399,0.324,0.089,0.098,0.069,265.000,9.000,10.000,0.000,0.000,0.000,0.000,0.000;
#CREDIT:;
#NOTES:
0000
0000
0000
0000
,
0000
0000
0000
0000
,
1000
1000
0001
0000
0010
0010
0100
0000
,
1000
0100
0010
0100
0001
0100
1000
0000
,
0010
0010
1000
0000
0001
0001
1000
0000
,
0010
1000
0001
0010
0100
1000
0001
0000
,
1000
0100
1000
0000
0010
0100
0010
0000
,
0100
0001
0010
0001
0100
0010
0100
0000
,
0010
0100
0001
0000
0010
0100
1000
0000
,
0001
1000
0010
0100
0001
0010
0100
1000
,
0001
0000
0000
0001
0000
0000
1000
0000
1000
0000
0000
0000
0010
0000
1000
0000
,
0100
0000
0000
0100
0000
0000
0020
0000
0000
0000
0000
0000
0001
0000
0031
0000
,
0010
0000
0000
0010
0000
0000
0100
0000
0100
0000
0000
0000
1000
0000
1000
0000
,
0001
0000
0000
0001
0000
0000
0200
0000
0000
0000
0000
0000
0010
0000
0310
0000
,
0100
0001
0000
0100
0001
0000
1010
0000
,
0100
1000
0000
0100
1000
0000
0011
0000
,
0001
0001
1000
0000
0100
0100
0001
0000
,
0001
0010
0100
0010
1000
0010
0001
0000
,
1000
1000
0001
0000
0010
0010
0001
0000
,
0010
0100
1000
0010
0001
0010
0100
0000
,
0001
0000
1100
0000
1000
0010
0100
0000
,
0010
0010
1000
0010
0100
0001
1000
0000
,
0001
0000
1010
0000
1000
0100
0010
0000
,
0100
0100
1000
0100
0010
0001
1000
0001
,
1000
0000
0000
1000
0000
0000
0010
0000
0020
0000
0000
0000
0100
0000
0130
0000
,
0010
0000
0000
0010
0000
0000
0002
0000
0000
0000
0000
0000
0010
0000
0013
0000
,
0001
0000
0000
0001
0000
0000
0010
0000
0010
0000
0000
0000
1000
0000
1000
0000
,
0100
0000
0000
0100
0000
0000
0020
0000
0000
0000
0000
0000
0100
0000
0130
0000
,
0010
0001
0000
0010
0001
0000
1100
0000
,
0010
1000
0000
0010
1000
0000
0101
0000
,
0001
1000
0001
0000
1000
0010
1000
0000
,
0010
0100
0010
0001
0010
1000
0100
0000
,
0010
0010
0010
0000
0100
0100
0100
0000
,
1000
0001
1000
0001
0010
0100
1000
0000
,
0001
0100
1000
0000
0001
0010
1000
0000
,
0001
1000
0010
0100
0001
0010
0100
0000
,
0010
0010
0010
0000
0100
0100
0100
0000
,
1000
0100
0001
0100
1000
0010
0001
0010
,
0100
0000
0000
0100
0000
0000
0001
0000
0001
0000
0000
0000
1000
0000
1000
0000
,
0100
0000
0000
0100
0000
0000
0020
0000
0000
0000
0000
0000
0001
0000
0031
0000
,
0010
0000
0000
0010
0000
0000
0100
0000
0100
0000
0000
0000
0010
0000
0010
0000
,
0001
0000
0000
0001
0000
0000
2000
0000
0000
0000
0000
0000
0010
0000
3010
0000
,
1000
0000
0000
1000
0000
0000
0001
0000
0001
0000
0000
0000
0010
0000
0010
0000
,
0100
0000
0000
0100
0000
0000
2000
0000
0000
0000
0000
0000
0001
0000
3001
0000
,
1000
0100
0000
1000
0001
0000
0011
0000
,
0001
0100
0000
0001
1000
0000
0110
0000
,
2002
0000
0000
0000
,
3003
0000
0000
0000
;

//---------------dance-single - ----------------
#NOTEDATA:;
#CHARTNAME:;
#STEPSTYPE:dance-single;
#DESCRIPTION:;
#CHARTSTYLE:;
#DIFFICULTY:Beginner;
#METER:1;
#RADARVALUES:0.110,0.091,0.148,0.000,0.000,63.000,15.000,0.000,0.000,0.000,0.000,0.000,0.000,0.110,0.091,0.148,0.000,0.000,63.000,15.000,0.000,0.000,0.000,0.000,0.000,0.000;
#CREDIT:;
#NOTES:
// measure 0
0000
0000
0000
0000
,  // measure 1
0000
0000
0000
0000
,  // measure 2
1000
0000
1000
0000
,  // measure 3
0010
0000
0000
0000
,  // measure 4
1000
0000
1000
0000
,  // measure 5
0001
0000
0000
0000
,  // measure 6
0001
0000
0001
0000
,  // measure 7
0010
0000
0000
0000
,  // measure 8
0001
0000
0001
0000
,  // measure 9
1000
0000
0000
0000
,  // measure 10
1001
0000
0000
0000
,  // measure 11
0110
0000
0000
0000
,  // measure 12
1001
0000
0000
0000
,  // measure 13
0110
0000
0000
0000
,  // measure 14
0010
0000
0010
0000
,  // measure 15
0010
0000
0010
0000
,  // measure 16
1000
0000
1000
0000
,  // measure 17
0001
0000
0000
0000
,  // measure 18
1000
0000
1000
0000
,  // measure 19
0100
0000
0000
0000
,  // measure 20
0010
0000
0010
0000
,  // measure 21
0001
0000
0000
0000
,  // measure 22
0010
0000
0010
0000
,  // measure 23
0100
0000
0000
0000
,  // measure 24
1001
0000
0000
0000
,  // measure 25
0110
0000
0000
0000
,  // measure 26
1001
0000
0000
0000
,  // measure 27
0110
0000
0000
0000
,  // measure 28
0100
0000
0100
0000
,  // measure 29
0100
0000
0100
0000
,  // measure 30
1000
0000
0001
0000
,  // measure 31
1000
0000
0000
0000
,  // measure 32
0001
0000
1000
0000
,  // measure 33
0001
0000
0000
0000
,  // measure 34
0010
0000
0100
0000
,  // measure 35
0010
0000
0000
0000
,  // measure 36
0100
0000
0010
0000
,  // measure 37
0100
0000
0000
0000
,  // measure 38
0110
0000
0000
0000
,  // measure 39
1001
0000
0000
0000
,  // measure 40
0110
0000
0000
0000
,  // measure 41
1001
0000
0000
0000
,  // measure 42
0110
0000
0000
0000
,  // measure 43
1001
0000
0000
0000
,  // measure 44
0100
0000
0100
0000
,  // measure 45
0100
0000
0100
0000
,  // measure 46
0110
0000
0000
0000
;
