#TITLE:クリスタライズシルバー;
#SUBTITLE:;
#ARTIST:Godspeed;
#TITLETRANSLIT:Crystallized Silver;
#SUBTITLETRANSLIT:;
#ARTISTTRANSLIT:;
#GENRE:;
#CREDIT:;
#BANNER:[Colors] - Crystallized Silver-bn.png;
#BACKGROUND:[Colors] - Crystallized Silver-bg.png;
#LYRICSPATH:;
#CDTITLE:cdtitle.png;
#MUSIC:[Colors] - Crystallized Silver.ogg;
#OFFSET:-0.270;
#SAMPLESTART:91.379;
#SAMPLELENGTH:13.300;
#SELECTABLE:YES;
#BPMS:0.000=135.000
,76.000=270.000
;
#STOPS:
;
#BGCHANGES:;
#KEYSOUNDS:;
#ATTACKS:;

//---------------dance-single - ----------------
#NOTES:
     dance-single:
     :
     Hard:
     10:
     0.843,0.964,0.283,0.399,0.105,720.000,39.000,55.000,0.000,0.000,0.000,0.843,0.964,0.283,0.399,0.105,720.000,39.000,55.000,0.000,0.000,0.000:
0000
0000
0000
0000
,
0000
0000
0000
0000
,
0000
0000
0000
0000
,
0000
0000
0000
0000
,
0000
0000
0000
0000
,
0000
0000
0000
0000
,
0000
0000
0000
0000
,
0001
0000
0000
1000
0100
0000
0100
0000
1100
0000
0000
1000
0010
0000
0010
0000
,
0100
0000
0001
0000
1000
0000
0100
0000
0010
0000
0000
0010
0001
0000
1001
0000
,
0000
0000
1000
0000
0010
0000
0100
0000
0001
0000
1000
0000
0100
1000
0010
0000
,
0100
0000
0000
0100
0001
0000
0001
0000
0011
0000
0000
0010
0001
0000
0001
0000
,
1000
0000
0010
1000
0001
0000
1000
0000
0100
0000
0010
0000
0001
0000
1001
0000
,
0000
0000
1000
0000
0010
0000
0100
0000
0001
0000
0010
0000
0100
1000
0100
1000
,
0001
0000
0000
0001
0100
0000
0100
0000
0110
0000
0000
0010
1000
0000
1000
0000
,
0001
0000
0010
0100
1000
0000
0001
0000
1000
0000
0010
0000
0100
0000
0101
0000
,
0000
0000
1000
0001
1000
0000
0010
0000
0100
0010
0100
0010
1000
0000
0001
0000
,
1000
0000
0000
1000
0100
0000
0100
0000
0110
0000
0000
0010
0001
0000
0001
0000
,
1000
0000
0010
0100
0001
0000
1000
0000
0100
0000
0010
0000
0100
0000
1100
0000
,
0000
0000
0001
0100
0001
0000
1000
0000
1100
0000
0000
0000
1000
0010
0100
0010
,
2000
3010
1000
0010
0100
0001
1000
0001
,
0010
0000
0100
0000
0000
1100
0000
0000
,
1001
0000
0001
0100
0001
0000
1000
0010
,
1000
0000
0001
0010
0001
0100
0010
1000
,
0001
0010
0001
0010
0100
1000
0001
1000
,
0010
0000
0100
0000
0000
0101
0000
0000
,
1001
0000
1000
0100
1000
0000
0001
0010
,
0001
0000
1000
0010
1000
0010
0100
0001
,
1000
0100
1000
0100
0010
0001
1000
0001
,
1000
0000
0001
0000
0000
0101
0000
0000
,
0001
0010
0001
0010
0100
1000
0001
1000
,
0001
0000
1000
0000
0000
1010
0000
0000
,
1000
0100
1000
0100
0010
0001
1000
0001
,
1000
0000
0001
0000
0000
0101
0000
0000
,
0001
0000
1000
0010
1000
0000
0001
0010
,
0001
0000
1000
0010
0100
0001
0100
0001
,
1000
0001
0010
0001
,
1000
0010
0100
0000
0001
0000
1000
0000
,
0001
0100
0010
0100
,
0001
0000
1000
0000
0100
0010
0001
0000
,
1000
0000
0010
0000
1000
0001
1000
0000
,
0001
0010
0100
0010
,
0001
0000
0100
0000
0010
1000
0010
0000
,
1000
0000
0001
0000
1000
0100
0010
0001
,
1000
0010
0100
0010
,
1000
0000
0001
0000
1000
0100
1000
0000
,
0001
0010
0100
0010
,
0001
0000
1000
0000
0001
0100
0001
0000
,
1000
0000
0100
0010
0100
0000
1000
0000
,
0010
0100
0010
0000
1000
0000
0001
0000
,
0010
0100
1000
0001
,
0100
0000
0100
0000
0001
1000
0001
1000
,
0001
0010
0100
0010
0001
0010
0100
2000
,
3000
0010
0100
0002
0003
1000
0100
1000
,
0001
0100
0001
0100
0000
0010
0000
0100
,
0000
0001
0000
0000
0000
2002
3003
0000
,
1000
0100
0010
0100
1000
0100
0010
0002
,
0003
0100
0010
2000
3000
0001
0010
0001
,
1000
0100
1000
0100
0000
1000
0010
0000
,
0100
0001
0010
0001
0100
0010
0100
0001
,
1000
0100
1000
0001
1000
0010
0100
0020
,
0030
1000
0100
0020
0030
0001
1000
0001
,
0100
0010
0000
1010
0000
1010
0000
0101
,
0000
0101
0000
0000
0000
2002
3003
0000
,
0001
0100
0001
1000
0001
0010
0100
0020
,
0030
0001
0100
0020
0030
1000
0100
1000
,
0001
0010
0001
0010
0000
0001
0100
0000
,
0010
0100
0001
0100
0010
1000
0001
1000
,
0100
0000
1000
0000
0001
0100
0000
0010
,
0100
0001
1000
0100
,
1000
0000
0001
0000
1000
0010
0000
0100
,
0010
1000
0001
0000
1001
0000
0000
0000
,
1000
0000
0100
0000
1000
0010
0000
0100
,
0010
0100
0001
1000
,
0001
0000
0010
0000
0100
1000
0000
0001
,
1000
0010
1000
0000
0001
0000
0100
0000
,
0001
0010
0100
0000
1000
0001
0000
0100
,
0001
0010
0001
0100
,
0010
0000
1000
0000
0001
0010
0000
0001
,
0100
0010
0100
0000
0010
1000
0010
0000
,
1000
0000
0100
0000
1000
0010
0000
0100
,
0001
1000
0100
0010
,
0100
0000
1000
0000
0001
0100
0010
0000
,
0100
0001
1000
0100
1000
0001
1000
0010
,
0200
0300
0202
0303
,
0022
0033
0000
2200
3300
0000
2002
3003
,
0001
0000
1000
0010
1000
0010
0100
0000
,
0001
0000
1000
0100
1000
0100
0010
0000
,
0001
0000
0100
0010
1000
0001
1000
0001
,
1000
0000
0010
0100
0001
1000
0001
1000
,
0001
0000
0010
0000
0100
0000
1000
0001
,
1000
0010
0100
0001
0100
0010
1000
0001
,
1000
0000
0001
0010
0100
0010
0100
1000
,
0001
0000
1000
0010
0100
0010
0100
0001
,
1000
0100
1000
0010
,
0100
0001
0100
0001
1000
0000
0001
0000
,
2000
3200
0320
0032
,
2003
0000
3001
0000
1000
0001
1000
0000
,
0002
0023
0230
2300
,
3002
0000
1003
0000
0001
0100
0001
0100
,
0001
1000
1100
0000
,
1000
0001
0101
0000
,
0010
0000
0100
0000
0001
1000
0000
0001
,
0010
0100
0010
0000
0001
1000
0001
0000
,
1000
0010
1010
0000
,
0001
0010
0011
0000
,
0001
0000
0100
0000
0010
1000
0000
0001
,
1000
0001
0010
0001
1000
0010
0100
0001
,
1000
0100
1000
0000
0001
1000
0000
0000
,
0001
1000
1010
0010
,
0100
0000
0001
0000
1001
0000
1000
0001
,
1000
0100
0010
0000
0001
0000
1000
0000
,
0002
0203
0320
2030
,
3002
0023
0230
2300
,
3001
0000
0100
0000
0001
0000
1000
0000
0100
0000
1000
0000
,
0010
0000
0100
0000
0001
0000
1000
0000
0100
0000
0010
0000
,
0100
1000
0001
1000
0100
0010
0001
0200
,
0300
0001
0010
0200
0300
1000
0001
1000
,
0001
0100
0001
0100
0000
0010
0000
1000
,
0000
0001
0000
0000
0000
2002
3003
0000
,
0010
1000
0001
1000
0010
0100
0001
0020
,
0030
0001
0100
0020
0030
1000
0001
1000
,
0100
0010
0001
2000
0000
0000
3001
0000
,
1000
0010
0100
0010
1000
0100
1000
0010
,
0100
0001
1000
0001
0010
0100
1000
0200
,
0300
1000
0010
0200
0300
0001
1000
0001
,
0100
0010
0000
1010
0000
1010
0000
1001
,
0000
1001
0000
0000
0000
0202
0303
0000
,
0001
0100
0001
1000
0001
0010
0100
0020
,
0030
0001
0100
0020
0030
0100
0001
1000
,
0001
0010
0001
0020
0000
0000
0130
0000
,
1000
0010
1000
0001
0010
0100
0010
0001
,
0100
0010
0100
0010
1000
0100
0010
0001
,
2000
0000
0000
0000
,
3000
0000
0000
0000
;

//---------------dance-single - ----------------
#NOTES:
     dance-single:
     :
     Medium:
     7:
     0.467,0.578,0.130,0.210,0.000,404.000,18.000,29.000,0.000,0.000,0.000,0.467,0.578,0.130,0.210,0.000,404.000,18.000,29.000,0.000,0.000,0.000:
0000
0000
0000
0000
,
0000
0000
0000
0000
,
0000
0000
0000
0000
,
0000
0000
0000
0000
,
0000
0000
0000
0000
,
0000
0000
0000
0000
,
0000
0000
0000
0000
,
0001
0000
0010
0100
1000
0000
0010
0000
,
0010
0000
1000
0100
0010
0000
0001
1000
,
0000
0000
0010
0000
1000
0000
0001
0010
,
0100
0000
1000
0000
0001
0000
1000
0010
,
0100
0000
0010
0000
1000
0000
0001
0010
,
0000
0000
0100
0000
0010
0000
0001
1000
,
0001
0000
1000
0010
0100
0000
0010
0000
,
1000
0000
0001
0100
0001
0000
1000
0100
,
0000
0000
1000
0000
0010
0000
0100
0001
,
1000
0000
0001
0010
0100
0000
1000
0000
,
0001
0000
1000
0010
0100
0000
0001
1000
,
0000
0000
0001
0000
0010
0000
0001
0100
,
0010
0000
1000
0001
,
1000
0000
0100
0000
0000
0100
0000
0000
,
0100
1000
0001
1000
,
0010
1000
0100
0010
,
0001
0000
1000
0010
,
1000
0000
0001
0000
0000
0001
0000
0000
,
0001
0010
0001
0100
,
0001
0010
0100
1000
,
0001
0100
0001
0100
,
0010
0000
1000
0000
0000
1000
0000
0000
,
1000
0100
1000
0100
,
0010
0000
0001
0000
0000
0001
0000
0000
,
0001
0100
0001
0100
,
0010
0000
1000
0000
0000
1000
0000
0000
,
1000
0100
0010
0100
,
1000
0100
0010
0001
,
1000
0000
1000
0000
,
0001
0100
0001
1000
,
0001
0000
0001
0000
,
1000
0100
1000
0010
,
1000
0000
1000
0000
,
0001
0010
0100
0010
,
0001
0000
0001
0000
,
1000
0010
1000
0010
,
0100
0001
1000
0000
,
0100
1000
0001
0000
,
1000
0010
0100
0000
,
0010
0100
0001
1000
,
0001
0010
0001
0000
,
1000
0001
1000
0000
,
0001
0100
0010
1000
,
0001
1000
1001
0000
,
0001
0100
0001
0000
,
1000
0000
0100
0000
,
1000
0010
1000
0010
,
0100
0000
0001
0000
,
1000
0100
1000
0000
,
0001
0000
0100
0000
,
0001
0010
0001
0000
,
1000
0100
1000
0100
,
0010
0001
0010
0000
,
0001
0000
0100
0000
,
0010
0000
1000
0000
,
0001
0000
1001
0000
,
1000
0100
1000
0000
,
0001
0000
0100
0000
,
0001
0010
0001
0000
,
0010
0100
0010
0100
,
0010
0000
0010
0000
,
0010
0001
1000
0001
,
0100
0000
0100
0000
,
0100
0010
1000
0000
,
0001
0000
0001
0000
,
0001
0010
0100
1000
,
0001
0000
0001
0000
,
0001
0100
0010
1000
,
0100
0000
0100
0000
,
1000
0001
1000
0000
,
0010
0000
0010
0000
,
1000
0001
1000
0001
,
0100
0000
0100
0000
,
0010
1000
0010
0000
,
1000
0001
1000
0001
,
0010
0000
0000
0010
0000
0000
0010
0000
,
0002
0003
2002
3003
,
1000
0000
0000
0010
0000
0000
1000
0000
,
0001
0010
0001
0010
,
0100
1000
0100
1000
,
0001
0100
0020
0030
,
1000
0001
2000
3000
,
0001
0010
0001
2000
,
3002
0203
0320
2030
,
3001
0100
0001
0000
,
1000
0100
1000
0000
,
0001
0100
0001
0100
,
0010
1000
0010
1000
,
0002
0023
0230
2300
,
3002
0003
1000
0010
,
2000
3200
0320
0032
,
2003
3000
0001
0100
,
0010
0000
1010
0000
,
1000
0000
1001
0000
,
0001
0000
0011
0000
,
0010
0100
1000
0100
,
0010
0000
0011
0000
,
0001
0000
0101
0000
,
0100
0000
0110
0000
,
0010
1000
0001
1000
,
0100
0000
0110
0000
,
0010
0000
0011
0000
,
0001
0000
1001
0000
,
1000
0010
1000
0010
,
0200
0302
0203
0320
,
2030
3002
2003
3200
,
1300
0000
1000
0000
,
0001
0000
0001
0001
,
1000
0100
1000
0000
,
0001
0000
0101
0000
,
0001
0010
0100
1000
,
0100
0000
1100
0000
,
1000
0010
1000
0000
,
0001
0000
0011
0000
,
0001
0100
0010
0000
,
1000
0100
1000
0100
,
0010
0001
1000
0000
,
0001
0000
1001
0000
,
1000
0000
0010
0100
,
0010
0000
0101
0000
,
0001
0010
0001
0000
,
1000
0000
0001
0100
,
0010
0000
1010
0000
,
1000
0100
1000
0100
,
0010
0001
0010
0001
,
2000
0000
0000
0000
,
3000
0000
0000
0000
;

//---------------dance-single - ----------------
#NOTES:
     dance-single:
     :
     Easy:
     4:
     0.289,0.386,0.014,0.029,0.000,273.000,2.000,4.000,0.000,0.000,0.000,0.289,0.386,0.014,0.029,0.000,273.000,2.000,4.000,0.000,0.000,0.000:
0000
0000
0000
0000
,
0000
0000
0000
0000
,
0000
0000
0000
0000
,
0000
0000
0000
0000
,
0000
0000
0000
0000
,
0000
0000
0000
0000
,
0000
0000
0000
0000
,
0001
1000
0010
0000
,
1000
0100
1000
0100
,
0010
0000
0001
1000
,
0001
0100
0010
0000
,
1000
0001
1000
0001
,
0010
0000
0100
1000
,
0001
1000
0010
0000
,
0100
0001
0100
0001
,
1000
0001
1000
0100
,
0010
0001
1000
0000
,
0001
0100
0001
0100
,
0010
0000
1000
0001
,
1000
0000
0100
0000
,
1000
0000
0001
0000
,
0001
0000
0100
0000
,
0010
0000
0100
0000
,
0010
0000
1000
0000
,
0010
0000
1000
0000
,
0001
0000
0010
0000
,
0001
0000
0010
0000
,
0100
0000
1000
0000
,
0001
0000
0000
0000
,
0100
0000
0001
0000
,
1000
0000
0000
0000
,
0001
0000
0010
0000
,
0100
0000
0000
0000
,
1000
0000
0010
0000
,
0100
0000
0001
0000
,
1000
0000
0001
0000
,
1000
0000
0100
0000
,
1000
0000
0001
0000
,
0100
0000
0001
0000
,
0001
0000
1000
0000
,
0001
0000
0010
0000
,
0001
0000
1000
0000
,
0010
0000
1000
0000
,
1000
0000
0100
0000
,
0010
0000
0100
0000
,
1000
0000
0010
0000
,
0100
0000
0001
0000
,
0001
0000
0010
0000
,
0100
0000
0010
0000
,
0001
0000
0100
0000
,
0010
0000
1000
0000
,
0001
0010
0001
0000
,
1000
0000
0001
0000
,
1000
0000
0010
0000
,
0010
0000
0100
0000
,
0001
0010
0001
0000
,
1000
0000
0001
0000
,
1000
0000
0010
0000
,
0100
0000
0001
0000
,
1000
0100
1000
0000
,
0001
0000
1000
0000
,
0001
0000
0100
0000
,
0100
0000
0010
0000
,
1000
0100
1000
0000
,
0001
0000
1000
0000
,
0001
0000
0010
0000
,
0100
0000
1000
0000
,
0001
0000
0001
0000
,
1000
0000
1000
0000
,
0001
0000
0001
0000
,
1000
0000
0100
0000
,
1000
0000
1000
0000
,
0010
0000
0100
0000
,
0001
0000
0010
0000
,
0100
0000
0010
0000
,
0001
0000
0100
0000
,
0001
0000
0100
0000
,
0010
0000
1000
0000
,
0001
0000
1000
0000
,
0001
0000
0010
0000
,
0100
0000
0010
0000
,
0001
0000
0100
0000
,
0010
0000
0100
0000
,
0220
0000
0330
0000
,
0010
0000
1000
0000
,
0001
0000
0010
0000
,
0001
0000
0010
0000
,
0100
0000
1000
0000
,
0001
0000
1000
0000
,
0010
0000
0100
0000
,
0001
1000
0001
0000
,
1000
0000
0100
0000
,
1000
0000
0001
0000
,
1000
0000
0010
0000
,
0100
0000
0001
0000
,
1000
0000
0100
0000
,
0010
0000
0001
0000
,
1000
0000
0001
0000
,
0100
0000
0010
0000
,
1000
0000
1000
0000
,
0001
0000
0001
0000
,
1000
0000
1000
0000
,
0100
0000
0010
0000
,
0001
0000
0001
0000
,
1000
0000
1000
0000
,
0001
0000
0001
0000
,
0100
0000
0010
0000
,
1000
0000
0100
0000
,
1000
0000
0001
0000
,
1000
0000
0010
0000
,
0100
0000
0001
0000
,
1000
0000
0100
0000
,
0010
0000
0001
0000
,
1000
0000
0001
0000
,
0010
0000
0100
0000
,
1000
0001
1000
0000
,
0001
0000
0100
0000
,
0001
0000
0010
0000
,
0100
0000
1000
0000
,
0001
1000
0001
0000
,
1000
0000
0100
0000
,
1000
0000
0010
0000
,
0100
0000
0001
0000
,
1000
0100
1000
0000
,
0001
0000
1000
0000
,
0001
0000
0100
0000
,
0100
0000
0001
0000
,
1000
0010
1000
0000
,
0001
0000
0010
0000
,
0100
0000
0010
0000
,
0001
0000
0100
0000
,
0010
0000
1000
0000
,
2002
0000
0000
0000
,
3003
0000
0000
0000
;
