#TITLE:Colors;
#SUBTITLE:;
#ARTIST:REDALiCE feat. Nomiya Ayumi;
#TITLETRANSLIT:;
#SUBTITLETRANSLIT:;
#ARTISTTRANSLIT:;
#GENRE:;
#CREDIT:;
#BANNER:[Colors] - Colors.png;
#BACKGROUND:[Colors] - Colors - bg.png;
#LYRICSPATH:;
#CDTITLE:chen.png;
#MUSIC:[Colors] - Colors.ogg;
#OFFSET:0.015;
#SAMPLESTART:47.998;
#SAMPLELENGTH:12.000;
#SELECTABLE:YES;
#BPMS:0.000=160.000;
#STOPS:;
#BGCHANGES:;
#KEYSOUNDS:;

//---------------dance-single - C. Yakumo----------------
#NOTES:
     dance-single:
     C. Yakumo:
     Challenge:
     10:
     0.862,1.000,0.396,0.277,0.606:
0000
0000
0000
0000
,
0000
0000
0000
0000
,
0000
0000
0000
0000
,
0000
0000
0000
0000
,
0001
1000
0010
1000
0100
0010
0100
1000
,
0001
0100
0010
1000
0100
0001
0100
0010
,
0100
1000
0001
0100
0010
1000
0100
1000
,
0004
0000
0103
0101
0000
0011
0010
0100
,
1000
0000
0001
0000
0100
0000
0010
0000
1000
0000
0001
0000
0100
0000
0010
1000
,
0001
0010
0100
0000
0010
0000
0001
0000
1000
0000
0100
0000
1000
0000
0001
0010
,
0100
1000
0001
0000
0100
0000
0010
0000
1000
0000
0001
0000
1000
0000
0010
0100
,
0001
0000
0000
1000
0000
0000
0100
0000
0000
0000
0000
0000
0010
0000
0000
0000
0000
0000
0001
0000
1000
0000
0001
0000
1000
0000
0000
0000
0000
0000
0100
0000
0000
0000
0000
0000
0010
0000
0000
0000
0000
0000
0100
0000
0000
1000
0000
0000
,
0001
0100
0010
0000
1000
0000
0001
0000
0100
0000
0001
0000
1000
0000
0010
0100
,
0001
1000
0100
0000
0010
0000
0001
0000
0010
0000
0100
0000
0010
0000
0001
1000
,
0100
1000
0010
0000
0100
0000
0001
0000
1000
0000
0010
0000
0100
0000
0010
1000
,
0001
0000
0101
0000
1010
1000
0000
0100
,
0110
0000
0010
0000
0001
0000
1000
0000
0010
0000
0100
0000
0010
0000
1000
0001
,
0010
0100
0010
0000
0001
0000
1000
0000
0010
0000
0100
0000
0001
0000
0010
0100
,
1000
0000
0000
0001
0000
0000
1000
0000
0010
0000
1000
0000
0010
0000
0000
0000
0000
0000
0100
0000
0000
0000
0000
0000
0001
0000
0000
0000
0000
0000
1000
0000
0000
0100
0000
0000
0010
0000
0000
0000
0000
0000
0100
0000
0000
1000
0000
0000
,
0001
0000
0000
0100
0000
0000
0010
0000
0000
0000
0000
0000
1000
0000
0000
0000
0000
0000
0100
0000
0010
0000
0100
0000
0010
0000
0000
0000
0000
0000
0001
0000
0000
0000
0000
0000
0100
0000
0000
0000
0000
0000
0010
0000
0000
0100
0000
0000
,
0001
0010
0100
0000
0010
0000
0001
0000
0100
0000
0010
0000
1000
0000
0010
0100
,
0001
1000
0100
0000
0010
0000
0001
0000
1000
0000
0010
0000
0100
0000
0001
1000
,
0001
0000
0000
0010
0000
0000
0100
0000
1000
0000
0100
0000
1000
0000
0000
0000
0000
0000
0001
0000
0000
0000
0000
0000
0100
0000
0000
0000
0000
0000
0010
0000
0000
0000
0000
0000
1000
0000
0000
0000
0000
0000
0100
0000
0000
1000
0000
0000
,
0001
0000
0000
0010
0000
0000
1000
0000
0010
0000
0000
0100
0000
0000
1000
0000
,
1002
0000
0103
0000
0010
0000
1000
0000
0100
0010
0001
1000
0010
0100
0010
0000
,
1000
0000
0001
0000
0010
0100
1000
0000
0001
0000
0100
0000
0010
0000
1000
0000
,
0100
1000
0100
0000
0010
0000
0001
0000
1000
0000
0010
0000
0100
0000
0001
0000
,
0011
0000
0000
0000
1100
0000
0000
0000
1010
0000
0010
1000
0100
0000
0010
0000
,
0001
0000
1000
0000
0010
0000
0100
0000
0010
0000
1000
0001
0100
0001
1000
0100
,
0010
0001
0010
0000
0100
0000
1000
0010
0100
0000
0001
0000
0100
0010
0100
0001
,
2000
0000
3001
0010
0100
0000
0010
0000
0012
0000
0103
0000
0010
0000
1000
0000
,
1400
0000
0300
1001
,
0011
0000
0110
0000
1100
0000
0001
0101
,
0000
0000
0100
0000
0110
0000
0000
0000
2010
0000
0000
0000
0100
0000
3001
0010
,
0100
0000
1000
0000
0010
0000
1000
0100
0010
0000
0001
0000
0100
0010
1000
0001
,
0100
0000
0010
0000
1000
0000
0100
0000
0010
0000
0100
1000
0000
0010
1000
0001
,
0010
0000
0110
0100
1100
1000
0001
0101
,
0100
0010
1000
0000
1001
0000
0001
0000
0011
0000
0010
0000
1001
0000
1200
0000
,
0310
0000
0001
0000
0100
0000
0010
1000
0001
0000
0010
0000
0100
1000
0100
0010
,
M004
M000
M000
M000
M000
M000
M000
M000
M103
0000
0110
0000
0000
0000
0010
0000
,
2010
0000
0000
0000
0000
3100
0010
0001
,
2000
0000
0010
0000
0010
3001
1000
0100
,
0020
0000
0000
0000
000M
000M
000M
000M
000M
0000
0130
0000
1000
0000
0001
0000
,
0400
0000
0000
0000
0000
0000
0320
0000
0000
0000
0030
0000
1010
0000
1000
0001
,
0020
0000
0000
0000
0000
0000
0000
0000
0000
0000
0130
1000
0001
0100
0001
0010
,
0100
0010
0001
0100
0010
1000
0100
0010
0100
0000
1000
0000
0001
0000
0020
0000
,
0000
0000
0031
1000
0010
0100
2000
0000
,
0000
0000
3100
0000
0010
0000
1000
0000
0002
0000
0000
0000
0000
0000
0013
0100
,
1000
0000
0001
0000
0000
0000
0100
0001
0010
0000
0100
0000
0010
0000
0002
0000
,
0000
0000
0000
0000
0000
0000
1003
0010
0200
0000
0000
0000
0000
0000
0310
1000
,
0002
0000
0000
0000
0000
0000
0000
0000
0013
0000
0000
0100
0000
0000
0001
0000
,
0100
0000
0000
1000
0000
0000
0001
0000
1000
0000
0010
0000
0100
0000
0000
0001
0000
0000
2000
0000
0000
0000
0000
0000
,
3010
0000
0100
0000
0001
1000
0100
0010
0001
1000
0020
0000
0000
0000
0000
0000
,
0000
0000
0000
0000
0000
0000
0000
0000
2030
0000
0000
3020
0000
0000
0130
0000
,
0002
0000
0000
0023
0000
0000
0130
0000
0001
0000
0100
0000
0020
0000
0000
0000
,
0031
1000
0010
0000
0100
0000
0001
1000
0100
0000
0010
0100
2000
0000
0000
0000
,
0000
0000
3001
0010
0100
1000
0001
0100
0010
1000
0001
0010
0001
0100
0010
0000
,
1000
0000
0100
0000
0010
0000
0001
0000
0000
0100
0000
0000
0010
0000
0000
0100
0000
0000
2000
0000
0000
0000
0000
0000
,
0000
3100
0001
1000
0010
0100
0010
0000
1000
0000
0001
0000
0020
0000
0000
0000
,
0430
0000
1300
1001
0000
0201
0000
0000
,
0310
1000
0001
0100
0010
1000
0100
0010
0001
1000
0010
0100
0001
0010
0100
1000
,
0001
0100
0001
1000
0100
0010
0100
1000
0010
0100
0001
1000
0010
1000
0100
0010
,
0001
0100
0001
1000
0010
0100
0010
1000
0001
0010
0001
1000
0100
1000
0001
0100
,
0010
1000
0100
1000
0010
0100
0001
0010
0100
1000
0001
0000
1001
0000
1000
0100
,
0010
0000
0001
1000
0010
0100
0010
0000
1000
0001
0010
0100
1000
0000
0010
0000
,
0100
0001
0100
0010
1000
0000
0100
1000
0010
0000
1000
0000
0100
0010
0100
1000
,
0002
0000
0103
0010
1000
0000
0001
0000
0021
0000
0130
0000
1000
0000
0010
0000
,
0410
0000
0300
1001
,
1010
0000
0101
0000
0011
0000
0010
0110
,
0000
0000
0100
0000
1100
0000
0000
0000
1002
0000
0000
0000
0010
0000
1003
0010
,
0100
0000
0001
0000
0010
0000
0100
1000
0001
0000
0100
0000
0010
1000
0001
1000
,
0010
0000
0100
0000
0001
0000
1000
0000
0100
0000
0010
0001
0000
1000
0010
1000
,
0001
0000
0011
0010
0110
0100
1000
1001
,
0001
0100
0010
0000
1010
0000
1000
0000
1100
0000
0100
0000
1001
0000
0201
0000
,
0310
0000
1000
0000
0100
0000
0010
0001
0100
0000
0010
0000
1000
0010
0100
0001
,
0040
0000
0000
0000
0130
1100
0000
1000
,
0001
0100
0010
0100
0001
0010
0100
0010
,
0001
0100
0010
1000
0100
0001
0100
0010
,
0001
1000
0100
0010
0100
1000
0010
0100
,
0001
0100
1000
0100
0020
0000
0230
0000
,
0301
0010
0100
0010
0001
1000
0010
0100
,
0001
0010
0100
1000
0010
0001
0010
0100
,
0001
1000
0001
0100
0010
1000
0100
0010
,
0004
0000
0013
0110
0000
2002
0000
0000
,
3003
0000
0000
0000
;

//---------------dance-single - C. Yakumo----------------
#NOTES:
     dance-single:
     C. Yakumo:
     Beginner:
     1:
     0.095,0.132,0.032,0.000,0.000:
0000
0000
0000
0000
,
0000
0000
0000
0000
,
0000
0000
0000
0000
,
0000
0000
0000
0000
,
0001
0000
0000
0000
,
0000
0000
0000
0000
,
0001
0000
0000
0000
,
0000
0000
0000
0000
,
1000
0000
0000
0000
,
0100
0000
0000
0000
,
0010
0000
0000
0000
,
0001
0000
0001
0000
,
0001
0000
0000
0000
,
1000
0000
0000
0000
,
0010
0000
0000
0000
,
0100
0000
0100
0000
,
0100
0000
0000
0000
,
0001
0000
0000
0000
,
0010
0000
0000
0000
,
0001
0000
0001
0000
,
0001
0000
0000
0000
,
1000
0000
0000
0000
,
0010
0000
0000
0000
,
0100
0000
0000
0000
,
0001
0000
0000
0000
,
0010
0000
0000
0000
,
0100
0000
0000
0000
,
1000
0000
0000
0000
,
0001
0000
0000
0000
,
1000
0000
0000
0000
,
0100
0000
0010
0000
,
0001
0000
0000
0000
,
1001
0000
0000
0000
,
0000
0000
0000
0000
,
0001
0000
0000
0000
,
0100
0000
0000
0000
,
0110
0000
0000
0000
,
0000
0000
0000
0000
,
0010
0000
0000
0000
,
1000
0000
0000
0000
,
0001
0000
0000
0000
,
1000
0000
0000
0000
,
0100
0000
0000
0000
,
0010
0000
0000
0000
,
0100
0000
0000
0000
,
1000
0000
0000
0000
,
0001
0000
0001
0000
,
0001
0000
0001
0000
,
1000
0000
0000
0000
,
0000
0000
0010
0000
,
0100
0000
0010
0000
,
1000
0000
0000
0000
,
0001
0000
0000
0000
,
0000
0000
0000
0000
,
0010
0000
0010
0000
,
0100
0000
0000
0000
,
0000
1000
0000
0000
,
0000
0000
0000
0000
,
0000
0001
0000
0000
,
0010
0000
0000
0000
,
0001
0000
0000
0000
,
0100
0000
0000
0000
,
0001
0000
0000
0000
,
1000
0000
0000
0000
,
0100
0000
0000
0000
,
0010
0000
0000
0000
,
0001
0000
0000
0000
,
1000
0000
0000
0000
,
1001
0000
0000
0000
,
0000
0000
0000
0000
,
1000
0000
0000
0000
,
0100
0000
0000
0000
,
0110
0000
0000
0000
,
0000
0000
0000
0000
,
0010
0000
0000
0000
,
0001
0000
0000
0000
,
1000
0000
0000
0000
,
0010
0000
0000
0000
,
0100
0000
0000
0000
,
0001
0000
0000
0000
,
0010
0000
0000
0000
,
0001
0000
0000
0000
,
1000
0000
0000
0000
,
0100
0000
0000
0000
;

//---------------dance-single - C. Yakumo----------------
#NOTES:
     dance-single:
     C. Yakumo:
     Easy:
     4:
     0.234,0.300,0.055,0.214,0.000:
0000
0000
0000
0000
,
0000
0000
0000
0000
,
0000
0000
0000
0000
,
0000
0000
0000
0000
,
0001
0000
1000
0000
,
0001
0000
0010
0000
,
0100
0000
1000
0000
,
0002
0000
0000
0000
,
1003
0000
0000
0010
,
0100
0000
0000
0100
,
0001
0000
0000
0001
,
1000
0000
0100
0000
,
0010
0000
0000
0001
,
0100
0000
0000
0010
,
1000
0000
0000
0100
,
0010
0000
0100
0000
,
1000
0000
0000
0010
,
0100
0000
0000
0001
,
0010
0000
0000
0001
,
1000
0000
0100
0000
,
0010
0000
0000
0100
,
1000
0000
0000
0010
,
0100
0000
0000
0001
,
1000
0000
0000
0000
,
0100
0000
0010
0000
,
0001
1000
0001
0000
,
0100
0000
0010
0000
,
1001
1001
1001
0000
,
1000
0000
0010
0000
,
0100
0000
0001
0000
,
0010
0000
0100
0000
,
2000
0000
0000
0000
,
3001
0000
0100
0000
0010
0000
0000
1000
,
0000
0100
0010
0000
,
0001
0000
0100
0000
,
0010
0000
1000
0000
,
0100
0000
0010
0000
,
0100
0000
1000
0000
,
0010
0000
0100
0000
,
0002
0000
0000
0000
,
2003
0000
0000
3100
,
0020
0000
0000
0031
,
2000
0000
0000
3010
,
0100
0000
0000
0001
0000
0000
1000
0000
,
0200
0000
0000
0000
0000
0320
0000
0000
,
0000
0000
0000
0000
0000
0000
0000
0032
,
0000
1003
0010
0200
,
0000
0320
0000
0000
2030
0000
0000
0000
,
3100
0000
0000
0000
0020
0000
0000
0032
,
0000
0000
0000
2003
0000
0000
0000
3020
,
0000
0000
0230
0000
,
0301
1000
0100
0010
,
0200
0000
0000
0000
,
0000
0000
2300
0000
,
3002
0000
0203
0000
,
0310
1000
0001
0020
,
0000
0230
0000
0000
,
2300
0000
0000
0000
,
0000
3002
0000
0000
0000
0000
0000
0000
,
1003
0000
0010
0100
0000
0100
0000
0000
,
0001
0000
1000
0000
,
0100
0010
0001
0000
,
0100
0000
0010
0000
,
1000
0010
0100
1001
,
0001
0000
1000
0000
,
0010
0100
0001
0010
,
0110
0000
1001
0000
,
0110
0000
0000
0000
,
1000
0000
0100
0000
0010
0000
0000
0100
,
0000
0010
0001
0000
,
1000
0000
0010
0000
,
0100
0000
0010
0000
,
1000
0000
0001
0000
,
0010
0000
0100
0000
,
1000
0000
0001
0000
,
0200
0000
0000
0000
,
0310
0000
1000
0000
,
0100
0010
0100
1000
,
0001
0000
1000
0000
,
0010
0100
0001
1000
,
0100
0000
0010
0000
,
0001
0000
1000
0000
,
0010
0000
0100
0000
,
0001
0000
1000
0100
0000
0200
0000
0000
,
0300
0000
0000
0000
;

//---------------dance-single - C. Yakumo----------------
#NOTES:
     dance-single:
     C. Yakumo:
     Medium:
     6:
     0.509,0.466,0.262,0.436,0.012:
0000
0000
0000
0000
,
0000
0000
0000
0000
,
0000
0000
0000
0000
,
0000
0000
0000
0000
,
0001
0100
0001
0010
,
0100
1000
0010
0100
,
0001
0010
0001
1000
,
0100
0000
0010
0001
0000
0001
0100
0001
,
0200
0000
0000
0000
0000
0310
1000
0010
,
0200
0000
0000
0000
0000
0301
1000
0001
,
0020
0000
0000
0000
0000
0031
1000
0020
,
0000
0130
0010
0100
0001
2000
0000
3200
,
0000
0000
0000
0000
0300
0010
0100
0010
,
0002
0000
0000
0000
0003
1000
0001
1000
,
0020
0000
0000
0000
0030
1000
0010
1000
,
0001
0000
0101
0000
0100
0010
0000
0010
,
2001
0000
0000
0000
0000
3001
0010
0001
,
2000
0000
0000
0000
3000
0100
0010
0001
,
2000
0000
0000
0000
0000
3010
0100
0002
,
0000
0103
0010
0100
0001
2000
0000
3200
,
0000
0000
0000
0300
0000
0010
0100
1000
,
0020
0000
0000
0000
0030
0100
0001
1000
,
0020
0000
0000
0000
0000
0130
0001
1000
,
0200
0320
0032
0203
,
0301
1000
0001
0000
0100
0010
0100
0000
,
0010
1000
0010
0000
1000
0100
1000
0000
,
0001
0010
0001
0000
1000
0001
1000
0000
,
1010
1001
0101
0000
,
0001
0010
0001
0000
1000
0100
1000
0000
,
0010
0100
0010
0000
0100
0001
0100
0000
,
0010
1000
0010
0000
1000
0001
1000
0100
,
0020
0000
0000
0031
,
1001
0000
0101
0000
1010
0000
0000
1100
,
0000
0000
0110
0000
0011
0000
0000
0002
,
0000
0103
0010
1000
0001
0010
0100
0010
,
0001
1000
0010
0100
0002
0000
0000
0003
,
1001
0000
0011
0000
1100
0000
0000
0101
,
0000
0000
1010
0000
1100
0000
0000
0200
,
0000
1300
0001
1000
0010
0100
0010
1000
,
0200
0000
0000
0000
0310
0010
0000
0001
,
2001
0000
0000
0000
0000
3010
0100
0001
,
0020
0000
0000
0000
0000
0130
0010
0001
,
2000
0000
0000
0000
0000
3010
0100
0001
,
2000
0000
0000
3002
0000
0000
0023
0000
,
0230
0000
0000
0000
0000
1300
0001
1000
,
0001
1000
0001
1000
0001
1000
0001
0020
,
0000
0000
0031
0100
0001
0010
0200
0000
,
0000
0310
0001
1000
0020
0000
0000
0130
,
0001
0100
0000
0010
1000
0001
0010
0200
,
0000
0000
0000
0310
0002
0000
0000
1003
,
0020
0000
0000
0000
0000
0000
0000
0000
0130
0000
0000
0001
0000
0000
1000
0000
,
0200
0320
0000
0000
,
0031
1000
0001
0100
0010
2000
0000
0000
,
0000
0000
0000
0000
0000
0000
0000
0000
3100
0000
0000
0010
0000
0000
0001
0000
,
1000
0000
0000
0010
0000
0000
0100
0000
0001
0000
1000
0000
0001
0000
0000
0000
,
0010
0000
0100
0000
1000
0001
0200
0000
,
0000
0310
1000
0001
0010
0100
1000
0010
,
0100
0001
1000
0000
0100
0000
0020
0000
,
0000
0031
1000
0001
0100
0010
1000
0000
,
1001
0000
0100
1001
0000
1001
0000
0000
,
0001
0000
0100
0000
,
0010
1000
0001
0100
0010
0000
0000
0000
,
2000
0000
0000
3100
0010
0001
0010
0100
,
2000
0000
3002
0000
0103
0010
1000
0000
,
0100
0000
0010
0000
,
0001
0010
0100
1000
0001
0000
0100
0001
,
2000
0000
0000
3100
0010
0001
1000
0010
,
0200
0000
0000
0301
,
1001
0000
0101
0000
1010
0000
0000
1100
,
0000
0000
0011
0000
1001
0000
0000
2000
,
0000
3010
0100
0010
1000
0001
0010
0100
,
1000
0001
1000
0100
0020
0000
0030
0000
,
0011
0000
0101
0000
1010
0000
0000
1001
,
0000
0000
0011
0000
1100
0000
0000
2000
,
0000
0000
3001
0100
0010
1000
0001
0010
,
0200
0000
0000
0000
0310
0001
0000
0001
,
1000
0010
0100
0001
,
0010
0001
1000
0100
,
0010
0001
0100
0010
,
1000
0001
0020
0230
,
1300
0010
0100
0010
,
1000
0001
0010
0100
,
0010
0001
1000
0010
,
0100
0000
0001
1000
0000
2000
0000
0000
,
3000
0000
0000
0000
;

//---------------dance-single - C. Yakumo----------------
#NOTES:
     dance-single:
     C. Yakumo:
     Hard:
     8:
     0.588,0.566,0.301,0.444,0.036:
0000
0000
0000
0000
,
0000
0000
0000
0000
,
0000
0000
0000
0000
,
0000
0000
0000
0000
,
0001
0100
0001
0010
0100
1000
0010
0100
,
0001
0010
0100
0010
0001
1000
0010
0100
,
0001
0100
0010
1000
0001
1000
0100
0010
,
0002
0000
1003
0010
0000
0010
0100
0001
,
2000
0000
0000
0000
3000
0100
0010
0100
,
0002
0000
0000
0000
0003
0100
0010
0001
,
2000
0000
0000
0000
3000
0010
0100
2000
,
0000
3100
0001
1000
0100
0020
0000
0230
,
0000
0000
0000
0000
0300
1000
0001
0100
,
0020
0000
0000
0000
0030
0100
0001
0010
,
2000
0000
0000
0000
3000
0010
0100
1000
,
1010
0000
0101
0000
0001
1000
0000
0000
,
1002
0000
0000
0000
0003
0010
0100
1000
,
0020
0000
0000
0000
0030
0100
0001
0100
,
2000
0000
0000
0000
3000
0100
0010
2000
,
0000
3100
0010
0001
0010
0200
0000
2300
,
0000
0000
0000
0000
3000
0001
0100
0001
,
0020
0000
0000
0000
0030
0100
0010
0100
,
2000
0000
0000
0000
3000
0100
0001
0010
,
0100
1000
0001
0100
,
0020
0030
0200
0300
,
0001
1000
0100
0010
0002
0000
0003
0000
,
0200
0000
0000
0310
1000
0001
0010
0100
,
1100
0000
0011
0000
0101
0100
0001
0000
,
2000
3000
0200
0300
,
0010
0001
1000
0010
0100
0000
0001
0010
,
0210
0000
0000
1300
1001
0001
0100
0010
,
2010
0000
0000
3001
,
1001
0000
0101
0000
1010
0000
0000
1100
,
0000
0100
0110
0000
0011
0000
1000
0001
,
0100
0010
1000
0100
0010
0001
0100
0010
,
0100
0000
0001
0000
1000
0000
0001
0000
0010
0000
0100
1000
0000
0100
1000
0000
,
1001
0000
0011
0000
1100
0000
0000
0101
,
0000
0100
0110
0000
1010
0000
0001
0100
,
0010
1000
0001
0010
0100
1000
0010
0100
,
0002
0000
0000
0000
1003
1000
0000
0010
,
0200
0000
0000
0000
0000
0301
1000
0100
,
0002
0000
0000
0000
0000
0103
0010
0001
,
0200
0000
0000
0000
0000
0310
1000
0001
,
0020
0000
0000
0230
0000
0000
1300
0001
,
0200
0000
0000
0000
0000
0310
1000
0010
,
0100
0001
0010
0100
1000
0001
0100
0020
,
0000
0000
0130
0001
1000
0100
0020
0000
,
0000
0130
1000
0001
0200
0000
0000
0310
,
1000
0100
0000
0010
0001
0100
0010
2000
,
0000
0000
0000
3100
0020
0000
0000
0031
,
2000
0000
0000
0000
0000
0000
0000
0000
3010
0000
0000
0100
0000
0000
0001
0000
,
0010
0000
0000
0100
0000
0000
1000
0000
0010
0000
0100
0000
0001
0000
0000
1000
0000
0000
0200
0000
0000
0000
0000
0000
,
0310
0001
1000
0010
0100
0001
0020
0000
,
0000
0000
0000
0000
0000
0000
0000
0000
0130
0000
0000
1000
0000
0000
0001
0000
,
0100
0000
0000
0010
0000
0000
1000
0000
0001
0000
0010
0000
0200
0000
0000
0000
,
1300
0001
0100
0010
1000
0100
0020
0000
,
0000
0031
0100
0010
1000
0100
0010
0001
,
0100
0010
0100
0001
0010
0100
2000
0000
,
0000
3001
0100
0001
1000
0100
0010
0000
,
0011
0000
0001
1001
0000
1001
0000
0000
,
2000
3000
0020
0030
,
0100
0010
1000
0100
0001
0000
0000
0000
,
0200
0000
0000
1300
0001
0010
1000
0010
,
0001
0000
0100
0000
0010
1000
0100
0000
,
0020
0030
0002
0003
,
0100
0010
0001
0010
1000
0000
0100
0010
,
0002
0000
0000
0103
0010
1000
0100
0010
,
0200
0000
0000
1300
,
1010
0000
0101
0000
0011
0000
0000
0110
,
0000
0100
1100
0000
0101
0000
1000
0100
,
0010
0001
0100
0010
1000
0001
0010
0100
,
1000
0000
0010
0000
0100
0000
0001
0000
1000
0000
0100
0010
0000
0100
0010
0000
,
0011
0000
1010
0000
0110
0000
0000
0101
,
0000
0001
0011
0000
1100
0000
0001
1000
,
0100
0010
0001
0100
0010
1000
0001
0010
,
0200
0000
0000
0000
1300
1000
0000
0001
,
0100
0010
1000
0100
0010
0001
0100
0010
,
1000
0001
0010
0100
1000
0100
0010
0001
,
0100
0010
1000
0001
0010
0001
1000
0010
,
0100
0001
0010
0100
2000
0000
3002
0000
,
0103
0010
1000
0100
0010
0001
0100
0010
,
0100
0001
1000
0001
0100
0010
1000
0100
,
0010
0001
0100
0010
0100
0001
1000
0001
,
0020
0000
0130
0110
0000
2002
0000
0000
,
3003
0000
0000
0000
;
