#TITLE:Black and Gold;
#SUBTITLE:;
#ARTIST:Ellie Goulding;
#TITLETRANSLIT:;
#SUBTITLETRANSLIT:;
#ARTISTTRANSLIT:;
#GENRE:;
#CREDIT:;
#BANNER:[Colors] - Black And Gold.png;
#BACKGROUND:[Colors] - Black And Gold-bg.png;
#LYRICSPATH:;
#CDTITLE:;
#MUSIC:[Colors] - Black And Gold.ogg;
#OFFSET:-1.482;
#SAMPLESTART:35.977;
#SAMPLELENGTH:11.636;
#SELECTABLE:YES;
#BPMS:0.000=165.000
,160.000=82.500
,192.000=165.000
,240.000=82.500
,247.000=165.000
;
#STOPS:
;
#BGCHANGES:;
#KEYSOUNDS:;
#ATTACKS:;

//---------------dance-single - ----------------
#NOTES:
     dance-single:
     :
     Hard:
     8:
     0.577,0.732,0.009,0.556,0.218,375.000,1.000,60.000,0.000,0.000,0.000,0.577,0.732,0.009,0.556,0.218,375.000,1.000,60.000,0.000,0.000,0.000: // measure 0
0000
0000
0000
0000
,  // measure 1
0000
0000
0000
0000
,  // measure 2
0000
0000
0000
0000
,  // measure 3
0000
0000
0000
0000
,  // measure 4
1000
0000
0010
0100
0000
0001
0010
0000
,  // measure 5
0000
0100
2000
0000
0001
0001
0001
0001
,  // measure 6
3001
0000
0010
0100
0000
0010
0001
0000
,  // measure 7
0000
0100
0020
0000
1000
1000
1000
1000
,  // measure 8
2030
0000
3020
0000
0130
0001
0010
0100
,  // measure 9
0000
0010
0001
0000
0100
1000
0100
0001
,  // measure 10
1000
0000
0100
0001
1000
0000
0010
0001
,  // measure 11
0000
1000
0010
0000
1000
0100
1000
0001
,  // measure 12
0200
0000
0302
0000
0013
1000
0010
0001
,  // measure 13
0000
1000
0020
0000
1000
1000
1000
1000
,  // measure 14
1030
0000
0010
0001
1000
0000
0100
0001
,  // measure 15
0000
0010
0200
0000
1000
1000
1000
1000
,  // measure 16
2300
0000
3002
0000
0013
0100
0010
0002
,  // measure 17
0000
0000
1000
1000
0000
0000
1000
1003
,  // measure 18
0200
0000
0320
0000
0130
1000
0010
0200
,  // measure 19
0000
0302
0000
0000
0100
0000
0103
0010
,  // measure 20
1000
0100
1000
0010
0100
0000
0001
0010
,  // measure 21
0000
0001
0100
0000
0001
0010
0100
0010
,  // measure 22
0200
0000
2300
0000
3010
0100
0001
0100
,  // measure 23
0000
0010
1000
0000
0100
0010
0001
0100
,  // measure 24
2000
0000
3200
0000
0302
0000
1003
0100
,  // measure 25
0000
0001
1000
0000
0010
0001
0100
0100
,  // measure 26
0020
0000
0032
0000
0023
0000
1030
0100
,  // measure 27
2000
0000
3001
0000
0002
0000
0103
0001
,  // measure 28
0100
0000
0010
0000
0100
0001
0010
0100
,  // measure 29
0000
1000
0010
0000
1000
0100
1000
0001
,  // measure 30
1000
0000
0010
0100
0010
0000
1000
0100
,  // measure 31
0000
1000
0010
0000
0100
0010
1000
0100
,  // measure 32
0002
0000
0203
0000
2300
0000
3010
0001
,  // measure 33
0000
1000
0100
0000
0001
0010
0001
1000
,  // measure 34
0020
0000
2030
0000
3100
0010
0100
0010
,  // measure 35
0000
0001
0000
0010
0001
1000
0100
0000
,  // measure 36
1000
0000
0010
0100
0000
0010
1000
0000
,  // measure 37
0000
0100
1000
0000
0001
1000
0001
1000
,  // measure 38
0001
0010
0001
0100
0000
0010
0100
0000
,  // measure 39
0010
1000
0010
0000
1000
0100
1000
0100
,  // measure 40
1000
0000
0010
0000
0100
0000
0001
0000
0010
0000
0000
0001
0010
0001
0100
0000
,  // measure 41
0010
0100
0000
0010
1000
0010
0000
1000
0100
1000
0000
0100
1000
0010
0100
0001
,  // measure 42
0010
0001
0000
0100
0010
0100
0000
0010
1000
0010
0000
1000
0100
0010
0100
1000
,  // measure 43
0010
0100
0000
0010
0100
0001
0000
0100
0001
0010
0000
0100
0010
0001
1000
0000
,  // measure 44
0100
1000
0000
0100
0010
0100
0000
0010
0001
0010
0000
0001
0100
0010
0100
0001
,  // measure 45
0010
0001
0000
0010
0100
0010
0000
0100
1000
0200
0000
0000
1000
0000
1000
0000
,  // measure 46
2300
0000
0001
0001
3002
0000
0100
0100
,  // measure 47
0203
0000
0000
0000
0010
0000
0010
0000
0310
1000
0001
0000
1002
1000
1000
1000
,  // measure 48
2003
0000
3200
0000
0302
0000
0103
1000
,  // measure 49
0000
0010
0001
0000
1000
0000
0100
0001
,  // measure 50
0200
0000
0302
0000
2003
0000
3001
1000
,  // measure 51
0002
0000
0013
0000
0002
0000
0103
0001
,  // measure 52
2000
0000
3200
0000
1300
0001
0010
0100
,  // measure 53
0000
0010
0000
0001
0000
0100
0010
0010
,  // measure 54
1000
0000
0001
0010
0001
0000
1000
0001
,  // measure 55
0000
0200
0001
0001
0001
0001
0302
0000
,  // measure 56
0203
0000
2300
0000
3200
0000
0301
1000
,  // measure 57
0000
0100
1000
0000
0001
0000
0100
0001
,  // measure 58
0200
0000
0320
0000
1030
0010
1000
0200
,  // measure 59
0000
2300
0000
3001
1000
0001
0020
0000
,  // measure 60
0031
0000
1000
0100
0000
0000
1000
0000
0000
0010
0100
0000
0010
1000
0100
0001
,  // measure 61
0000
0100
0000
0010
0002
0000
0203
0000
2300
0000
0000
0000
3200
0000
0000
0000
,  // measure 62
0301
0010
0200
0000
0000
0000
0000
0000
,  // measure 63
0000
0300
0000
0000
;

//---------------dance-single - ----------------
#NOTES:
     dance-single:
     :
     Medium:
     6:
     0.421,0.469,0.102,0.139,0.060,292.000,11.000,15.000,0.000,0.000,0.000,0.421,0.469,0.102,0.139,0.060,292.000,11.000,15.000,0.000,0.000,0.000:
0000
0000
0000
0000
,
0000
0000
0000
0000
,
0000
0000
0000
0000
,
0000
0000
0000
0000
,
1000
0000
0010
0000
0100
0010
0100
0000
,
0001
0000
0010
0000
0100
0010
0100
1000
,
0010
0000
0100
0000
0010
1000
0010
0000
,
1000
0001
0100
0101
,
1100
1001
0001
0010
,
0001
0000
0100
0000
0010
0100
0010
0100
,
0010
1000
0100
0001
,
1000
0010
0001
0011
,
1010
1001
1000
0010
,
0100
0000
0001
0000
0010
0001
1000
0001
,
1000
0010
0001
1000
,
0100
0000
0001
0000
1000
0001
1000
0001
,
1000
0000
0100
0000
1000
0010
0100
0000
,
0002
0010
0000
0010
,
0103
0000
0010
0000
1000
0100
1000
0000
,
0010
0000
0100
0000
0001
0100
0001
1000
,
0100
1000
0010
0100
,
0002
0010
0000
0010
,
1003
0000
0100
0000
1000
0010
0100
0000
,
0010
0000
1000
0000
0001
0010
0001
1000
,
0001
0100
0010
1000
,
0200
0000
1000
0000
0000
0000
1000
1000
,
1300
0000
0010
0000
0100
0000
0001
0010
,
0002
0000
1000
0000
2003
0000
0010
0010
,
3010
0100
0001
0010
,
0002
0000
0100
0000
0000
0000
0100
0100
,
0103
0010
1000
0100
,
0010
0100
1000
0000
0010
0100
0001
0010
,
0001
0010
0100
1000
,
0200
0010
0000
0010
,
0310
0001
0100
0010
,
0100
0000
0100
0000
0010
0100
0010
0000
,
0100
0000
0001
0000
0010
0001
0010
0000
,
0001
1000
0001
0000
1000
0000
0010
0000
,
0100
0100
0010
1000
,
0100
0000
0100
0000
1000
0000
0001
1000
,
0001
0000
0100
0000
0010
0000
1000
0000
0100
0000
0000
0000
1000
0100
1000
0000
,
0010
0000
0100
0000
0001
0000
0010
0001
,
0010
0001
0000
0000
0100
0000
0000
0000
0010
0000
0000
0000
1000
0000
0100
0000
,
1000
0100
0000
0000
1000
0000
0000
0000
0010
0000
0000
0000
0100
0010
0100
0000
,
0001
0000
0010
0000
0001
0000
0100
0010
,
1000
0010
0000
0000
1000
0100
0000
0000
1000
0010
0000
0000
0100
0000
0010
0000
,
1000
0000
0010
1000
0001
0000
0010
0001
,
1000
0000
0000
0000
0010
0000
0100
0000
0001
0100
0001
0000
1000
0001
1000
0001
,
1000
0100
1000
0010
,
0200
0010
0000
0010
,
0310
0000
0100
0000
0001
0000
0010
0001
,
0020
0000
0031
0000
0002
0000
1003
0001
,
1000
0100
1000
0010
,
0200
0001
0000
0001
,
0301
0010
0001
0100
,
0010
0000
1000
0010
1000
0001
0010
0000
,
0001
1001
1000
1010
,
0010
0100
0010
0000
1000
0010
1000
0100
,
1000
1100
0100
0110
,
0010
0000
0011
0000
0001
0010
0001
0000
,
1000
0000
0001
0100
0000
0000
0001
0000
0000
0000
0100
0000
0010
0000
1000
0010
,
0000
1000
0000
0000
0200
0000
0320
0000
0032
0000
0000
0000
1003
0000
0000
0000
,
0010
0100
0020
0000
0000
0000
0000
0000
,
0000
0030
0000
0000
;

//---------------dance-single - ----------------
#NOTES:
     dance-single:
     :
     Easy:
     4:
     0.292,0.375,0.019,0.000,0.000,219.000,2.000,0.000,0.000,0.000,0.000,0.292,0.375,0.019,0.000,0.000,219.000,2.000,0.000,0.000,0.000,0.000:
0000
0000
0000
0000
,
0000
0000
0000
0000
,
0000
0000
0000
0000
,
0000
0000
0000
0000
,
1000
0010
0000
0100
,
0000
0010
1000
0100
,
0010
0001
0000
0010
,
0000
0001
0100
0010
,
0100
0001
0010
0100
,
0000
1000
0000
1000
,
0010
0100
0010
1000
,
0001
0000
1000
0000
,
0001
0100
0001
1000
,
0100
0010
0000
0010
,
0100
1000
0010
0100
,
0001
0010
0100
0010
,
0100
1000
0010
0100
,
0001
0101
0000
0100
,
0001
0010
0100
1000
,
0010
0000
1000
0000
,
0001
0010
0100
0010
,
0001
0011
0000
0010
,
0001
0100
0010
1000
,
0100
1000
0000
0010
,
0010
0100
0010
1000
,
0000
0100
0000
1000
,
0010
0100
0001
0010
,
0010
0000
0001
0000
,
1000
0010
0100
0010
,
1000
0001
0000
0001
,
1000
0010
0100
0001
,
0010
0001
0001
0100
,
0100
0010
1000
0100
,
0010
0100
0000
0100
,
1000
0010
0100
0001
,
0010
0010
0001
0001
,
1000
0001
0000
0100
,
0000
0010
0100
0100
,
0010
0000
1000
1000
,
0001
0000
0010
0010
,
0001
0000
0100
0000
0010
0000
1000
1000
,
1000
0000
0100
0000
1000
0000
0010
0010
,
0010
0000
0100
0000
0001
0000
0010
0010
,
0010
0000
0001
0000
1000
0000
0001
0001
,
0001
0000
1000
0000
0100
0000
1000
0010
,
0100
0000
0010
0000
1000
0000
0001
0010
,
0100
0000
0100
1000
0010
0000
0010
1000
,
0001
0000
0001
0010
0001
0001
0100
0100
,
0010
1000
0100
1000
,
0000
0010
0000
0010
,
0100
0010
1000
0001
,
0010
0001
0001
1000
,
1000
0100
1000
0010
,
0100
0001
0000
0001
,
0001
0010
0001
0100
,
0010
1000
1000
1000
,
0100
1000
0010
0100
,
0000
0001
0000
0010
,
0001
0100
0010
1000
,
0100
0100
1000
0010
,
0100
0010
0000
1000
0000
0001
0010
0001
,
0010
0000
0100
1000
0100
0000
1000
0000
,
0010
0100
0000
0000
;

//---------------dance-single - ----------------
#NOTES:
     dance-single:
     :
     Beginner:
     2:
     0.177,0.259,0.000,0.000,0.000,134.000,0.000,0.000,0.000,0.000,0.000,0.177,0.259,0.000,0.000,0.000,134.000,0.000,0.000,0.000,0.000,0.000:
0000
0000
0000
0000
,
0000
0000
0000
0000
,
0000
0000
0000
0000
,
0000
0000
0000
0000
,
1000
0000
0000
0000
,
0000
0000
0000
0000
,
0010
0000
0000
0000
,
0000
0000
0000
0000
,
0100
0000
0000
0000
,
0000
0000
0000
0000
,
0001
0000
0000
0000
,
0000
0000
0010
0000
,
0010
0000
0000
0000
,
0000
0000
0000
0000
,
0100
0000
0000
0000
,
1000
0000
0000
0000
,
0001
0000
0000
0000
,
0000
0000
0000
0000
,
0010
0000
0010
0000
,
0001
0000
0001
0000
,
0100
0000
0000
0000
,
0000
0000
0000
0000
,
0010
0000
0010
0000
,
1000
0000
0001
0000
,
1000
1000
1000
1000
,
0000
0010
0000
0100
,
0100
0100
0100
0100
,
0100
0000
0001
0000
,
0010
0010
0010
0010
,
0000
0100
0000
1000
,
1000
0000
0010
0000
,
0100
0000
0001
0000
,
0010
0010
0010
0010
,
0000
0001
0000
1000
,
1000
1000
1000
1000
,
1000
0000
0001
0000
,
0100
0100
0000
0010
,
0000
1000
1000
1000
,
1000
0000
0100
0100
,
0100
0000
0010
0010
,
0010
0001
1000
0000
,
0001
0100
0010
0000
,
1000
0010
1000
0000
,
0100
0000
0010
0000
0001
0000
0010
0010
,
0010
0000
0001
0000
0100
0000
0001
0001
,
0001
1000
0001
1000
,
1000
0010
0010
0100
,
0100
0000
0001
0000
0001
0000
1000
1000
,
1000
1000
0000
0010
,
0000
0100
0000
0010
,
0010
0000
0100
0000
,
0001
0000
0010
0000
,
0001
0001
0001
0001
,
0001
0001
0000
1000
,
1000
0000
0010
0000
,
0100
0100
0100
0100
,
0100
0000
0010
0000
,
1000
0000
0000
0000
,
0001
0000
0010
0000
,
0100
0000
0010
0010
,
0010
0000
0000
0001
,
0001
0000
0100
0100
0100
0000
0010
0000
,
0000
0010
0000
0000
;
