#TITLE:Black Snow;
#SUBTITLE:;
#ARTIST:KgZ;
#TITLETRANSLIT:;
#SUBTITLETRANSLIT:;
#ARTISTTRANSLIT:;
#GENRE:;
#CREDIT:;
#BANNER:[Colors] - Black Snow-bn.png;
#BACKGROUND:[Colors] - Black Snow-bg.png;
#LYRICSPATH:;
#CDTITLE:cdtitle.png;
#MUSIC:[Colors] - Black Snow.ogg;
#OFFSET:-0.024;
#SAMPLESTART:48.022;
#SAMPLELENGTH:12.000;
#SELECTABLE:YES;
#BPMS:0.000=160.000
;
#STOPS:
;
#BGCHANGES:;
#KEYSOUNDS:;
#ATTACKS:;

//---------------dance-single - ----------------
#NOTES:
     dance-single:
     :
     Hard:
     8:
     0.539,0.507,0.156,0.107,0.012,427.000,19.000,13.000,0.000,0.000,0.000,0.539,0.507,0.156,0.107,0.012,427.000,19.000,13.000,0.000,0.000,0.000:
0000
0000
0000
0000
,
0000
0000
0000
0000
,
0000
0000
0000
0000
,
0000
0000
0000
0000
,
0000
0000
0000
0000
,
0000
0000
0000
0000
,
0000
0000
0000
0000
,
0000
0000
0000
0000
,
0001
0100
0001
0000
1000
0001
1000
0000
,
0001
0010
0100
0010
0100
1000
0010
0000
,
0100
0001
0100
0000
0001
1000
0001
0000
,
1000
0100
0001
0100
1000
0010
0100
0000
,
0001
1000
0100
0000
1000
0001
0100
0000
,
0010
1000
0001
0000
0010
0001
1000
0000
,
0010
1000
0010
0100
0001
1000
0001
0000
,
0010
0100
1000
0000
0001
0100
0001
0100
,
0010
1000
0001
0000
1000
0100
0010
0000
,
0100
1000
0100
0010
0001
0100
0010
0000
,
1000
0100
0010
0000
0100
1000
0001
0000
,
1000
0010
0001
0010
1000
0001
0010
0000
,
0001
0100
0010
0000
0100
0001
0010
0000
,
0100
1000
0010
0000
0100
0010
1000
0000
,
0001
0010
1000
0010
0001
1000
0010
1000
,
0001
0100
1000
0100
0001
0010
0100
1000
,
0002
0000
0103
0000
0001
0010
0100
0000
,
2000
0000
3010
0000
1000
0001
0010
0000
,
0200
0000
1300
0000
0001
0100
0010
0000
,
2000
0100
0001
3010
,
0002
0000
1003
0010
0100
0001
0010
0000
,
0200
0000
1300
0001
0010
0100
1000
0000
,
0020
0000
0130
0001
1000
0100
0010
0000
,
0001
0000
0101
0000
0100
0010
1000
0001
,
1001
0000
1000
0100
0010
0001
0100
0000
,
1010
0000
1000
0001
0010
0100
0010
0000
,
0011
0000
0001
0100
1000
0100
0001
0000
,
0101
0000
0100
0010
1000
0001
1000
0100
,
0010
0000
0001
0100
0001
1000
0100
0000
,
0011
0000
0001
0100
0010
1000
0001
0000
,
1001
0000
1000
0100
0001
0100
1000
0000
,
1100
0000
1001
0000
0001
0100
0010
0100
,
0020
0000
1030
0000
0001
0010
0001
0100
,
0010
0000
0000
1000
0000
0000
0001
0000
1000
0000
0100
0000
0010
0000
0000
0000
,
0002
0000
0000
0003
0100
0000
0000
0000
0010
0000
1000
0000
0001
0000
1000
0000
,
0001
0000
0000
0010
0000
0000
0001
0000
1000
0000
0010
0000
0100
0000
0000
0000
,
0002
0000
1003
0000
0001
0010
1000
0010
,
0100
0000
0000
1000
0000
0000
0010
0000
0100
0000
0001
0000
1000
0000
0000
0000
,
0001
0010
0200
0000
1300
0010
0200
0000
,
0310
0000
1000
0000
0001
0010
0001
0010
,
0100
0000
1000
1001
0000
0000
0101
0000
,
0010
0000
1000
1100
0000
0000
0011
0000
,
0001
0100
0010
0000
0100
0001
0010
0000
,
0100
1000
0001
1000
0010
0100
0001
0010
,
0200
0000
0000
0300
,
1000
0001
1000
0000
0001
0100
0010
0000
,
1000
0100
0001
0100
1000
0001
0100
0000
,
0001
0010
0001
0000
0010
0100
1000
0000
,
0001
0100
1000
0100
0001
1000
0100
0000
,
1000
0010
0100
0001
1000
0001
0010
0000
,
0001
0100
0010
1000
0001
1000
0100
0000
,
0010
0001
0100
0000
0010
1000
0001
0000
,
1000
0100
1000
0010
0100
0001
1000
0100
,
0010
0001
1000
0000
0010
0100
0001
0000
,
1000
0100
1000
0010
0001
0010
0100
0000
,
0010
1000
0001
0000
1000
0100
0010
0000
,
0001
0100
0001
0010
1000
0010
0100
0000
,
1000
0010
1000
0001
0010
0100
0010
0000
,
0001
0100
0001
1000
0100
0010
0100
0000
,
1000
0001
0100
0000
0001
1000
0100
0000
,
0010
0001
0100
0010
1000
0001
0010
0100
,
0010
0000
0001
0101
0000
1000
1100
0000
,
0100
1000
0010
0000
0100
0010
1000
0000
,
0001
0000
1000
1100
0000
0001
0101
0000
,
0100
0010
1000
0000
0001
0010
0100
0000
,
1000
0000
0001
0011
0000
1000
1010
0000
,
0010
0100
0001
0000
0010
0001
0100
0010
,
1000
0100
1000
0010
0100
0001
1000
0000
,
0001
0010
0001
0100
1000
0100
0001
0010
,
0100
0000
0000
0000
;

//---------------dance-single - ----------------
#NOTES:
     dance-single:
     :
     Challenge:
     7:
     0.497,0.507,0.099,0.370,0.029,366.000,12.000,45.000,0.000,0.000,0.000,0.497,0.507,0.099,0.370,0.029,366.000,12.000,45.000,0.000,0.000,0.000:
0000
0000
0000
0000
,
0000
0000
0000
0000
,
0000
0000
0000
0000
,
0000
0000
0000
0000
,
0000
0000
0000
0000
,
0000
0000
0000
0000
,
0000
0000
0000
0000
,
0000
0000
0000
0000
,
0001
0000
0100
0000
0001
0010
0100
0000
,
1100
0000
0001
0100
0010
1000
0001
0000
,
1000
0000
0100
0000
1000
0001
0100
0000
,
0101
0000
0001
1000
0001
0010
0100
0000
,
2000
0000
3001
0200
0000
0310
0200
0000
,
0302
0000
1003
0200
0000
0310
0200
0000
,
1300
0010
0100
0000
0001
1000
0100
0000
,
1000
0000
0010
0000
1000
0100
0010
0001
,
1000
0000
0001
0000
0100
0010
1000
0000
,
1001
0000
0001
0010
1000
0010
0001
0000
,
0100
0000
0000
0010
0000
0000
1000
0000
0001
0000
0010
0000
,
0100
0000
1000
0001
1000
0010
0100
0000
,
0002
0000
1003
0200
0000
0310
0002
0000
,
2003
0000
3001
0200
0000
0310
2000
0000
,
3001
0010
0100
0000
0010
0001
0100
0000
,
0010
0000
1010
0000
1000
0100
0001
0100
,
2000
0000
3001
0200
0000
0000
0302
0000
,
2003
0000
3001
0020
0000
0000
0230
0000
,
2300
0000
3010
0200
0000
0000
0302
0000
,
2003
0100
0000
3100
,
2000
0000
3001
0200
0000
0000
0320
0000
,
2030
0000
3001
0020
0000
0000
0230
0000
,
0320
0000
0031
0200
0000
0000
0320
0000
,
1030
0000
0100
0000
1000
0100
1000
0100
,
0010
0000
0001
0100
0000
1000
0100
0000
,
0001
0000
1000
0100
0000
0001
0100
0000
,
1000
0000
0001
0100
0010
0000
1000
0000
,
0002
0100
1000
0013
,
0001
0000
1000
0010
0000
0001
0010
0000
,
1000
0000
0001
0010
0000
1000
0010
0000
,
0001
0000
1000
0010
0100
0000
0001
0000
,
1000
0000
0100
0000
1000
0100
1000
0100
,
0010
0000
0001
0000
1000
0010
1000
0010
,
0100
0000
0000
0001
0000
0000
1000
0000
0001
0000
0000
0000
0010
0000
0000
0000
,
0001
0000
0100
0000
0010
1000
0010
1000
,
0001
0000
0000
0010
0000
0000
0001
0000
0100
0000
0000
0000
0010
0000
0000
0000
,
1000
0000
0001
0000
1000
0100
0010
0100
,
1000
0000
0000
0001
0000
0000
0100
0000
0010
0000
0000
0000
1000
0000
0000
0000
,
0001
0011
1000
1010
,
0001
0000
0011
0000
1000
0010
1000
0010
,
0100
0000
0001
0010
0000
0010
0100
0000
,
1000
0000
0001
0100
0000
0100
0010
0000
,
1000
0001
0010
0000
0100
1000
0001
0000
,
1000
0000
0010
1000
0001
0010
0100
1000
,
0020
0000
0000
0030
,
1000
0000
0001
0000
1000
0100
0010
0000
,
0011
0000
0001
0100
1000
0100
0001
0000
,
1000
0000
0100
0000
1000
0010
0100
0000
,
0101
0000
0001
1000
0100
0010
0100
0000
,
2000
0000
3010
0200
0000
0301
2000
0000
,
3002
0000
0013
0200
0000
1300
0002
0000
,
1003
0010
0100
0000
0001
1000
0100
0000
,
0010
0000
0001
0000
1000
0010
1000
0010
,
0100
0000
0001
0000
0010
0100
1000
0000
,
1001
0000
0001
0100
0001
1000
0100
0000
,
0010
0000
0000
0001
0000
0000
1000
0000
0010
0000
0100
0000
,
0010
0000
1000
0001
1000
0100
0010
0000
,
0002
0000
1003
0020
0000
0130
0002
0000
,
2003
0000
3001
0020
0000
0130
2000
0000
,
3001
0100
0010
0000
1000
0001
0010
0000
,
0001
0000
0100
0000
0001
0010
0100
1000
,
0001
0000
1000
0010
0000
0010
0100
0000
,
0001
0010
0100
1000
0010
0100
0001
0000
,
1000
0000
0001
0010
0000
0010
0100
0000
,
1000
0010
0100
0001
0010
0100
1000
0000
,
0001
0000
1000
0010
0000
0010
0100
0000
,
0001
0010
0100
0010
0001
0100
0010
1000
,
0001
0101
1000
1100
,
1000
0010
1000
0010
0100
0001
0010
0100
,
1000
0000
0000
0000
;

//---------------dance-single - ----------------
#NOTES:
     dance-single:
     :
     Medium:
     6:
     0.370,0.412,0.074,0.123,0.000,291.000,9.000,15.000,0.000,0.000,0.000,0.370,0.412,0.074,0.123,0.000,291.000,9.000,15.000,0.000,0.000,0.000: // measure 0
0000
0000
0000
0000
,  // measure 1
0000
0000
0000
0000
,  // measure 2
0000
0000
0000
0000
,  // measure 3
0000
0000
0000
0000
,  // measure 4
0000
0000
0000
0000
,  // measure 5
0000
0000
0000
0000
,  // measure 6
0000
0000
0000
0000
,  // measure 7
0000
0000
0000
0000
,  // measure 8
0001
0100
0001
0000
,  // measure 9
1000
0000
0001
0000
1000
0100
0010
0000
,  // measure 10
0001
1000
0010
0000
,  // measure 11
1000
0000
0001
0000
0010
0100
1000
0000
,  // measure 12
0001
0000
0100
0010
0000
0000
1000
0000
,  // measure 13
0001
0000
0010
0100
0000
0000
1000
0000
,  // measure 14
0001
0100
1000
0100
,  // measure 15
0001
0000
0010
0000
0100
0000
1000
0001
,  // measure 16
1000
0010
1000
0000
,  // measure 17
0001
0000
1000
0000
0001
0010
0100
0000
,  // measure 18
1000
0001
1000
0010
,  // measure 19
0100
0000
0001
0000
1000
0100
1000
0000
,  // measure 20
0001
0000
0100
0010
0000
0000
1000
0000
,  // measure 21
0001
0000
0010
0100
0000
0000
1000
0000
,  // measure 22
0001
0100
0001
1000
,  // measure 23
0001
0000
0010
0000
0100
1000
0001
1000
,  // measure 24
0002
0100
0000
0100
,  // measure 25
2003
0100
0000
0100
,  // measure 26
3002
0010
0000
0010
,  // measure 27
2003
0010
0000
3010
,  // measure 28
1000
0001
0020
0130
,  // measure 29
0010
0001
0200
0310
,  // measure 30
0100
0001
0020
0130
,  // measure 31
0010
0000
0001
0000
1000
0001
1000
0001
,  // measure 32
1000
0001
0101
0100
,  // measure 33
0001
1000
1100
0100
,  // measure 34
1000
0010
0100
0000
0001
0000
1001
0000
,  // measure 35
2000
0100
0000
3100
,  // measure 36
1000
0001
0011
0010
,  // measure 37
0001
1000
1010
0010
,  // measure 38
1000
0100
0010
0000
0001
0000
1001
0000
,  // measure 39
1000
0000
0010
0000
1000
0001
1000
0001
,  // measure 40
2000
0000
3000
0000
0001
0000
0100
0001
,  // measure 41
0100
0001
1000
0100
,  // measure 42
2000
0000
3000
0000
0001
0000
1000
0010
,  // measure 43
1000
0001
0010
0100
,  // measure 44
2000
0000
3000
0000
0001
0000
0100
0010
,  // measure 45
0100
0010
1000
0001
,  // measure 46
2000
3100
0020
0130
,  // measure 47
2000
0000
3001
0000
1000
0010
1000
0010
,  // measure 48
1000
0000
0001
0100
0000
0000
0001
0000
,  // measure 49
1000
0000
0001
0010
0000
0000
0001
0000
,  // measure 50
1000
0010
0001
0010
,  // measure 51
1000
0000
0001
0000
1000
0100
1000
0100
,  // measure 52
0020
0000
0000
0030
,  // measure 53
0001
1000
0001
0100
,  // measure 54
0010
0000
1000
0000
0001
0010
0001
0000
,  // measure 55
1000
0001
1000
0100
,  // measure 56
0010
0000
0001
0000
1000
0001
1000
0000
,  // measure 57
0001
0000
0100
0010
0000
0000
1000
0000
,  // measure 58
0001
0000
0010
0100
0000
0000
1000
0000
,  // measure 59
0001
0100
1000
0100
,  // measure 60
0001
0000
0010
0000
0100
0000
1000
0001
,  // measure 61
1000
0010
1000
0100
,  // measure 62
0010
0000
0100
0000
1000
0001
1000
0000
,  // measure 63
0001
0100
0001
0010
,  // measure 64
0100
0000
0010
0000
0001
1000
0001
0000
,  // measure 65
1000
0000
0010
0100
0000
0000
0001
0000
,  // measure 66
1000
0000
0100
0010
0000
0000
0001
0000
,  // measure 67
1000
0010
0001
0010
,  // measure 68
1000
0000
0100
0000
0010
0000
0001
1000
,  // measure 69
0001
0000
1000
0010
0000
0000
1010
0000
,  // measure 70
1000
0100
1000
0100
,  // measure 71
1000
0000
0001
0100
0000
0000
0101
0000
,  // measure 72
0001
0010
0001
0010
,  // measure 73
0001
0000
1000
0100
0000
0000
1100
0000
,  // measure 74
1000
0010
1000
0010
,  // measure 75
1000
0100
0001
0100
,  // measure 76
1000
0000
0010
0000
0100
0001
1000
0001
,  // measure 77
1000
0000
0000
0000
;

//---------------dance-single - ----------------
#NOTES:
     dance-single:
     :
     Easy:
     4:
     0.293,0.253,0.041,0.066,0.000,236.000,5.000,8.000,0.000,0.000,0.000,0.293,0.253,0.041,0.066,0.000,236.000,5.000,8.000,0.000,0.000,0.000: // measure 0
0000
0000
0000
0000
,  // measure 1
0000
0000
0000
0000
,  // measure 2
0000
0000
0000
0000
,  // measure 3
0000
0000
0000
0000
,  // measure 4
0000
0000
0000
0000
,  // measure 5
0000
0000
0000
0000
,  // measure 6
0000
0000
0000
0000
,  // measure 7
0000
0000
0000
0000
,  // measure 8
0001
1000
0001
1000
,  // measure 9
0100
0000
0100
0010
,  // measure 10
0001
1000
0001
1000
,  // measure 11
0010
0000
0010
0100
,  // measure 12
0001
0010
0100
0010
,  // measure 13
0001
0100
0010
0100
,  // measure 14
0001
0010
0100
1000
,  // measure 15
0001
0100
0010
1000
,  // measure 16
1000
0001
1000
0001
,  // measure 17
0010
0000
0010
0100
,  // measure 18
1000
0001
1000
0001
,  // measure 19
0100
0000
0100
0010
,  // measure 20
1000
0100
0010
0100
,  // measure 21
1000
0010
0100
0010
,  // measure 22
1000
0100
0010
0001
,  // measure 23
1000
0010
0100
0001
,  // measure 24
2000
0000
3001
0100
,  // measure 25
0002
0000
1003
0100
,  // measure 26
2000
0000
3001
0010
,  // measure 27
0002
0000
0000
0000
,  // measure 28
0203
0000
0301
0010
,  // measure 29
0200
0000
1300
0010
,  // measure 30
0200
0000
0301
0010
,  // measure 31
0100
1000
0100
1000
,  // measure 32
0001
0000
1000
0010
,  // measure 33
1000
0000
0001
0010
,  // measure 34
0001
0000
1000
0100
,  // measure 35
1000
0001
1000
0001
,  // measure 36
1000
0000
0001
0100
,  // measure 37
0001
0000
1000
0100
,  // measure 38
1000
0000
0001
0010
,  // measure 39
0001
1000
0001
1000
,  // measure 40
0010
0000
0010
0100
,  // measure 41
0001
0010
0100
1000
,  // measure 42
0010
0000
0010
0100
,  // measure 43
0001
1000
0100
0010
,  // measure 44
0001
0000
0001
1000
,  // measure 45
0010
0100
0001
0010
,  // measure 46
0100
0000
1000
0000
,  // measure 47
0001
1000
0001
0100
,  // measure 48
0001
0000
1001
0000
,  // measure 49
1000
0000
1100
0000
,  // measure 50
1000
0001
1000
0001
,  // measure 51
0100
0010
1000
0001
,  // measure 52
2000
0000
0000
3000
,  // measure 53
0001
0100
0001
0100
,  // measure 54
0010
0000
0010
1000
,  // measure 55
0001
0010
0001
0010
,  // measure 56
0100
0000
0100
1000
,  // measure 57
0001
0100
0001
0100
,  // measure 58
0010
1000
0010
1000
,  // measure 59
0001
0010
0100
1000
,  // measure 60
0010
0100
0001
1000
,  // measure 61
1000
0100
1000
0100
,  // measure 62
0010
0000
0010
0001
,  // measure 63
1000
0010
1000
0010
,  // measure 64
0100
0000
0100
0001
,  // measure 65
1000
0100
1000
0100
,  // measure 66
0010
0001
0010
0001
,  // measure 67
1000
0010
0100
0001
,  // measure 68
0010
0100
1000
0001
,  // measure 69
1000
0000
1010
0000
,  // measure 70
0010
0100
0010
0100
,  // measure 71
0001
0000
0011
0000
,  // measure 72
0010
0100
0010
0100
,  // measure 73
1000
0000
1001
0000
,  // measure 74
0001
0100
0001
0100
,  // measure 75
0010
1000
0001
1000
,  // measure 76
0001
0010
0100
1000
,  // measure 77
0001
0000
0000
0000
;
