#TITLE:Black Rose Apostle;
#SUBTITLE:;
#ARTIST:世阿弥;
#TITLETRANSLIT:;
#SUBTITLETRANSLIT:;
#ARTISTTRANSLIT:ZEAMI;
#CREDIT:DigiMindAxel;
#BANNER:Black Rose Apostle.png;
#BACKGROUND:Black Rose Apostle-bg.png;
#LYRICSPATH:;
#CDTITLE:TAIKO NO TATSUJIN.png;
#MUSIC:Black Rose Apostle.mp3;
#OFFSET:-10.055;
#SAMPLESTART:36.184;
#SAMPLELENGTH:12.000;
#SELECTABLE:YES;
#BPMS:0.000=102.000,8.000=204.000;
#STOPS:8.000=0.882
,217.500=0.882
;
#BGCHANGES:;

//---------------dance-single - ----------------
#NOTES:
     dance-single:
     :
     Easy:
     4:
     0.342,0.322,0.233,0.156,0.000:
1002
0000
0000
0003
,
2001
0000
3020
0000
,
0030
0000
1001
0001
,
1000
0001
1000
0100
,
0010
0001
1000
0010
,
0100
0010
1000
0001
,
1000
0001
1000
0001
,
0100
0010
1000
0100
,
0010
0100
1000
1000
,
1000
0001
0001
0001
,
1000
1000
1000
0001
,
0001
0001
1000
1000
,
1000
0001
0001
0001
,
1000
1000
0010
0010
,
0100
0100
0001
0001
,
0010
0100
1000
0100
,
0010
0001
1000
0001
,
1000
0001
0100
0010
,
0100
0010
0100
0001
,
1000
0001
1000
0100
,
0010
0002
0000
1000
,
1000
1003
0100
1000
,
0010
0200
0000
0001
,
0001
0301
1000
0001
,
0010
0200
0000
1300
,
0001
1000
0020
0000
,
0230
0000
0310
1000
,
0100
0010
0001
1000
,
0001
0200
0000
0310
,
0100
0010
1000
0001
,
1000
0002
0000
0000
,
1003
0100
0020
0000
,
0000
0031
1000
0100
,
2000
0000
3002
0000
,
1000
0000
2003
0000
,
3001
1000
0010
0100
,
0010
0100
0010
1000
,
0001
1000
1001
0000
,
0000
0000
0000
0000
,
0001
0100
0110
0000
,
0000
0000
0000
0000
,
1000
0010
0110
0000
,
0000
0000
0000
0000
,
0001
1000
1001
0000
,
0000
0000
1000
0000
,
0001
0000
1001
0000
,
0000
0110
0000
0000
,
1001
1000
1001
0000
,
0000
0110
0000
0000
,
1001
0001
1001
0000
,
0000
0110
0000
0000
,
1001
1000
1001
0000
,
0000
0000
0110
0000
,
0000
0000
2002
0000
,
0000
0000
0000
3003
0000
0000
0001
0000
,
1000
0001
1000
0100
,
1000
0001
0000
0010
,
0001
0010
0001
1000
,
0100
1000
0000
0010
,
0100
0010
1000
0100
,
0010
0001
1000
0100
,
1000
0100
0000
1000
,
0001
1000
0000
0010
,
0100
0010
0100
0010
,
0100
0001
0010
0100
,
1000
0100
1000
0100
,
1000
0010
0100
0001
,
1000
0001
1000
0001
,
0010
0100
1000
0010
,
0100
0010
0100
0010
,
1000
0100
0010
0001
,
1000
0001
1000
0100
,
1000
0001
1001
0000
,
1001
0000
0000
0001
,
0000
1001
0000
0110
,
0000
0000
0110
0000
,
0000
1001
0000
0000
0000
0000
1001
0000
,
0000
0000
0000
0000
,
0000
0000
0000
2002
,
0000
0000
0000
0000
,
0000
0000
0000
0000
,
0000
0000
0000
0000
,
0000
0000
0000
3003
;

//---------------dance-single - ----------------
#NOTES:
     dance-single:
     :
     Medium:
     7:
     0.486,0.536,0.346,0.199,0.000:
1001
0100
0000
0000
,
1001
0100
0220
0000
,
0330
0000
0000
0000
1000
0000
0001
0100
,
0000
0001
0100
0000
0000
0001
1000
0000
,
1001
0100
0010
1001
,
0010
0000
0100
0000
0110
0000
1000
0010
,
0000
1000
0010
0000
0000
1000
0001
0000
,
1001
0010
0100
1001
,
0100
0000
0100
0000
1000
0000
0001
0100
,
0001
0000
1001
0000
1000
0100
1000
0000
,
1001
0000
0001
0010
0001
0000
1001
0000
,
1000
0010
1000
0000
0110
0000
0010
0100
,
0010
0000
0110
0000
0100
0010
0100
0000
,
0001
0010
0001
0000
0100
0010
0100
0000
,
0010
1000
0010
0000
1000
0001
1000
0000
,
0110
0000
0010
0100
0010
0100
0010
0000
,
1000
0010
1000
0000
0001
0100
0001
0000
,
1000
0001
1000
0000
0100
0010
0000
0100
,
0010
0000
0001
0000
0000
1000
0001
0000
,
0001
0000
1000
0001
1000
0000
1001
0000
,
0010
0100
0010
2000
0000
0000
0001
0000
,
3001
1000
0010
0100
,
0010
0100
0010
2000
0000
0000
0001
0000
,
3001
1000
0100
0010
,
0100
0010
0100
2000
0000
0000
0001
0000
,
3001
0000
1000
0000
0200
0000
0000
2300
,
0000
0000
3000
0010
0100
0000
0001
0000
,
1000
0001
1000
0001
1000
0200
0000
0000
,
0000
1300
0001
2000
0000
0000
0100
0000
,
3100
1000
0010
0100
,
0001
0000
0010
0200
0000
0000
0300
0000
,
0010
0001
0010
0001
0200
0000
0000
0000
,
0300
0001
1000
0000
0100
0000
0010
0000
,
0001
1000
0001
0000
2000
0000
0100
0000
,
0100
3100
0020
0001
,
0032
0000
1000
0000
1003
0100
1000
0000
,
0001
0010
0001
0000
0100
0010
0100
0010
,
0100
0001
1000
0000
1001
0000
0000
0000
,
0100
0000
0100
0000
,
1000
0100
1100
0000
,
0010
0000
0010
0000
,
0001
0100
0101
0000
,
0010
0000
0010
0000
,
1000
0001
1001
0000
,
0100
0010
0110
0000
,
1000
0001
1000
0000
1001
0000
0000
0001
,
0000
0000
0110
0000
0000
1000
0000
0000
,
1001
0000
1001
0000
0110
0000
0000
0001
,
0000
0000
0110
0000
0000
1000
0000
0000
,
0001
1000
0001
0000
0110
0000
0000
1000
,
0000
0000
0110
0000
0000
0001
0000
0000
,
1001
0000
1001
0000
0120
0000
0000
0100
,
0000
0130
1001
0001
,
1000
0000
0001
0000
1000
0001
1000
0001
,
1000
0000
0000
0000
0000
0000
0001
0000
0000
0000
0000
0000
1000
0000
0000
0000
0000
0000
0002
0003
0000
0000
0000
0000
0000
0000
0000
0000
0000
0000
0000
0000
0000
0000
0000
0000
1001
0000
0000
0000
0000
0000
0000
0000
0000
0000
0000
0000
,
0010
0000
0100
0000
1000
0001
0000
0001
,
1000
0000
0010
0100
0010
0000
1000
0000
,
0001
0100
0001
0000
1000
0000
0020
0000
,
0100
0130
0000
1001
,
0100
0000
0010
0000
0001
1000
0000
1000
,
0001
0000
1000
0000
0100
1000
0100
0000
,
1000
0001
1000
0000
0010
0000
0200
0000
,
0010
0000
0310
0000
0000
0000
1000
0100
,
1000
0000
0100
1000
0100
0000
0010
0001
,
0010
0000
0001
0010
0001
0000
0100
0010
,
0100
0000
0010
0100
0010
0000
1000
0001
,
1000
0000
0001
1000
0001
0000
1000
0010
,
1000
0000
0010
1000
0010
0000
0100
0001
,
0100
0000
0001
0100
0001
2000
0000
0000
,
3001
0000
1000
0000
0001
0010
0000
0010
,
0001
0000
1000
0000
0001
0200
0000
0000
,
0310
0000
0100
0000
0010
0100
0010
0000
,
0010
0000
0010
0000
1000
0002
0000
0000
,
1000
0000
0000
1003
,
0000
1100
0000
1100
,
0000
1100
0000
0000
0101
0000
0000
0000
,
0000
0101
0000
0000
0000
0000
1001
0000
,
0000
0000
0000
0000
,
0000
0000
0000
0000
0000
0000
0002
2000
,
0000
0000
0000
0000
,
0000
0000
0000
0000
,
0000
0000
0000
0000
,
0000
0000
0000
3003
;

//---------------dance-single - ----------------
#NOTES:
     dance-single:
     :
     Hard:
     9:
     0.654,0.608,0.467,0.449,0.009: // measure 1
0201
0000
0000
0000
0001
0000
0000
0000
0000
0000
0300
0000
0000
0001
0000
0001
,  // measure 2
2000
3010
0220
0000
,  // measure 3
0330
0000
0000
0000
0001
0100
0001
1000
,  // measure 4
0000
1000
0100
0000
0010
0100
1000
0001
,  // measure 5
1000
0000
0010
0100
0010
1000
0001
0000
,  // measure 6
1000
0000
1001
0000
1000
0100
1000
0001
,  // measure 7
0000
0001
0100
0000
0010
0100
0001
1000
,  // measure 8
0001
0000
0100
0001
0010
0001
0100
0000
,  // measure 9
1001
0000
1001
0000
0001
0010
0001
1000
,  // measure 10
0001
0100
0001
1000
0001
0010
0001
1000
,  // measure 11
0001
0100
0001
1000
0001
1000
0100
0001
,  // measure 12
0100
1000
0001
1000
0100
1000
0001
1000
,  // measure 13
0010
1000
0001
1000
0100
1000
0001
1000
,  // measure 14
0100
0010
0001
0010
0100
1000
0001
0100
,  // measure 15
1000
0100
0001
0000
1000
0100
0001
0100
,  // measure 16
1000
0001
0100
0010
1000
0010
0100
0001
,  // measure 17
1000
0001
0010
0100
0010
0001
1000
0010
,  // measure 18
0100
0010
1000
0000
1000
0001
0000
0001
,  // measure 19
0010
0000
0010
0100
0000
0100
1000
0010
,  // measure 20
0100
0001
1000
0000
1001
0000
1001
0000
,  // measure 21
1000
0100
0001
0200
0000
1300
0002
0000
,  // measure 22
0023
0000
0130
0000
0110
0000
0100
0010
,  // measure 23
0001
0100
1000
0200
0000
0301
2000
0000
,  // measure 24
3020
0000
0130
0000
0110
0000
0100
0010
,  // measure 25
1000
0100
0001
0200
0000
1300
0002
0000
,  // measure 26
2003
0000
3100
0000
1001
0000
1000
0020
,  // measure 27
0000
0000
0130
0001
0020
0000
0230
0000
,  // measure 28
1300
0010
0001
0010
1000
0002
0000
0000
,  // measure 29
1003
0100
0001
0200
0000
0000
2300
0000
,  // measure 30
3020
0000
0130
0000
0110
0000
0010
1000
,  // measure 31
0100
0000
1000
0002
0000
0000
0103
0000
,  // measure 32
0001
0100
1000
0100
0002
0000
1000
0000
,  // measure 33
1003
0001
0010
0000
0011
0000
0011
0000
,  // measure 34
0001
1000
1000
0000
0100
0010
0200
0000
,  // measure 35
1000
0000
1300
0000
0001
1000
0002
0000
,  // measure 36
0100
0000
0103
0000
0001
0100
1000
0000
,  // measure 37
0001
0010
1000
0001
0010
0100
1000
0100
,  // measure 38
0010
0001
1000
0001
2002
0000
3003
0000
,  // measure 39
0001
0100
0001
0100
,  // measure 40
0101
0110
2002
3003
,  // measure 41
1000
0100
1000
0100
,  // measure 42
1100
0110
2002
3003
,  // measure 43
1000
0010
1000
0010
,  // measure 44
1010
0110
2002
3003
,  // measure 45
0010
0110
2002
3000
,  // measure 46
1003
0010
0010
0000
0110
0000
0000
0101
,  // measure 47
0000
0000
1010
0000
0000
0110
0000
0000
,  // measure 48
1001
0000
1001
0000
0110
0000
0000
1100
,  // measure 49
0000
0000
0110
0000
0000
0011
0000
0000
,  // measure 50
0001
1000
0010
0000
1001
0000
0000
1100
,  // measure 51
0000
0000
0101
0000
0000
1100
0000
0000
,  // measure 52
1001
0000
1001
0000
0120
0000
0000
0100
,  // measure 53
0000
0130
1002
2003
,  // measure 54
3002
0000
2003
0000
3001
0010
0100
1000
,  // measure 55
0100
0000
0000
0000
0000
0000
0010
0000
0000
0000
0000
0000
0001
0000
0000
0000
0000
0000
2000
3000
0000
0000
0000
0000
0000
0000
0000
0000
0000
0000
0000
0000
0000
0000
0000
0000
1001
0000
0000
0000
0000
0000
0000
0000
0000
0000
0000
0000
,  // measure 56
1100
0000
0011
0000
0001
1000
0100
1000
,  // measure 57
0001
0100
0010
1000
0001
0000
1001
0000
,  // measure 58
1000
0010
0100
0010
1000
0000
1010
0000
,  // measure 59
0010
0000
0110
0000
0100
0010
0010
0000
,  // measure 60
1010
0000
0101
0000
0001
0100
0001
1000
,  // measure 61
0100
0010
0001
1000
0001
0000
0100
0010
,  // measure 62
0001
0010
0100
0000
0101
0000
0100
0000
,  // measure 63
0110
0000
0100
0010
0010
0000
1000
0010
,  // measure 64
1000
0001
0010
0001
1000
0010
1000
0001
,  // measure 65
0010
0001
1000
0100
0010
0001
0001
1000
,  // measure 66
0100
1000
0001
0100
0001
1000
0100
1000
,  // measure 67
0001
0100
0001
0010
0100
2000
0000
3001
,  // measure 68
1000
0100
1000
0001
0010
0002
0000
1003
,  // measure 69
0001
0100
0001
1000
0010
2000
0000
3001
,  // measure 70
2000
0000
3001
0010
0100
1000
0001
0100
,  // measure 71
0100
0000
0001
1000
1000
0020
0000
0000
,  // measure 72
0130
0001
1000
0100
0010
0100
1000
0001
,  // measure 73
0001
0000
1001
0000
1000
0002
0000
0000
,  // measure 74
0200
0000
0000
0000
0303
0000
0001
0001
,  // measure 75
1000
1000
0001
0001
1000
1000
0001
0000
,  // measure 76
0001
0100
0000
0100
0020
0000
0000
1000
,  // measure 77
1030
0002
0000
0000
1000
1003
0200
0000
,  // measure 78
0000
0000
0000
0000
,  // measure 79
0000
0000
0000
0000
0300
0000
2000
0002
,  // measure 80
0000
0000
0000
0000
,  // measure 81
0000
0000
0000
0000
,  // measure 82
0000
0000
0000
0000
,  // measure 83
0000
0000
0000
3003
;

//---------------dance-single - ----------------
#NOTES:
     dance-single:
     :
     Beginner:
     2:
     0.139,0.170,0.112,0.000,0.000:
0000
0000
0000
0000
,
0000
0000
0000
0000
,
0000
0000
0001
0000
,
0000
1000
0000
0000
,
0001
0000
0000
1000
,
0000
0000
0010
0000
,
0000
0100
0000
0000
,
0010
0000
0000
1000
,
0000
0000
0100
0000
,
0000
0010
0000
0000
,
0100
0000
0000
0010
,
0000
0000
0001
0000
,
0000
1000
0000
0000
,
0001
0000
0000
1000
,
0000
0000
0000
0000
,
1001
0000
1000
0000
,
0001
0000
1000
0000
,
0001
0000
1000
0000
,
0001
0000
0100
0000
,
0010
0000
1001
0000
,
0000
1000
0000
0000
,
0001
0000
1000
0000
,
0000
0000
0001
0000
,
1000
0000
0001
0000
,
0000
1000
0000
0000
,
0001
0000
1000
0000
,
0010
0000
0100
0000
,
0010
0000
1000
0000
,
0000
0000
0001
0000
,
0000
0000
1000
0000
,
0000
0000
0001
0000
,
0000
0000
1000
0000
,
0000
0000
0100
0000
,
0000
0000
0010
0000
,
0000
0000
0001
0000
,
0000
0000
1000
0000
,
0001
0000
1000
0000
,
0001
0000
1001
0000
,
0000
0000
0000
0000
,
0000
0000
0110
0000
,
0000
0000
0000
0000
,
0000
0000
1001
0000
,
0000
0000
0000
0000
,
0000
0000
0110
0000
,
0000
0000
0010
0000
,
0100
0000
0010
0000
,
0000
0000
0000
0000
,
0000
0000
1001
0000
,
0000
0000
0000
0000
,
0000
0000
1001
0000
,
0000
0000
0000
0000
,
0000
0000
0010
0000
,
0000
0000
0100
0000
,
0000
0000
0010
0000
,
0000
0000
0000
1001
,
0000
0001
0000
1000
,
0000
0001
0000
1000
,
0000
0010
0000
0100
,
0000
0000
0000
0010
,
0000
0100
0000
0010
,
0000
0100
0000
0001
,
0000
1000
0000
0001
,
0000
0000
0000
0010
,
0000
0001
0000
0010
,
0000
0001
0000
1000
,
0000
0010
0000
1000
,
0000
0001
0000
0100
,
0000
0001
0000
1000
,
0000
0100
0000
0010
,
0000
0001
0000
1000
,
0000
0000
0000
0001
,
0000
1000
0000
0001
,
0000
1000
0000
0010
,
0000
0000
0000
0000
,
0000
0000
0000
0110
,
0000
0000
0110
0000
,
0000
0000
0000
1001
,
0000
0000
0000
0000
,
0000
0000
0000
1001
;
