#VERSION:0.81;
#TITLE:Black Jesus † Amen Fashion;
#SUBTITLE:;
#ARTIST:Lady Gaga;
#TITLETRANSLIT:;
#SUBTITLETRANSLIT:;
#ARTISTTRANSLIT:;
#GENRE:;
#ORIGIN:;
#CREDIT:;
#BANNER:Black Jesus † Amen Fashion-banner.png.png;
#BACKGROUND:Black Jesus † Amen Fashion-bg.png.png;
#PREVIEWVID:;
#JACKET:Black Jesus † Amen Fashion-jacket.png.png;
#CDIMAGE:;
#DISCIMAGE:;
#LYRICSPATH:;
#CDTITLE:;
#MUSIC:Black Jesus † Amen Fashion.mp3;
#OFFSET:-0.301;
#SAMPLESTART:76.304;
#SAMPLELENGTH:12.000;
#SELECTABLE:YES;
#BPMS:0.000=119.992,
32.000=59.992,
40.000=119.992;
#STOPS:;
#DELAYS:;
#WARPS:;
#TIMESIGNATURES:0.000=4=4;
#TICKCOUNTS:0.000=4;
#COMBOS:0.000=1;
#SPEEDS:0.000=1.000=0.000=0;
#SCROLLS:0.000=1.000;
#FAKES:;
#LABELS:0.000=Song Start;
#BGCHANGES:;
#KEYSOUNDS:;
#ATTACKS:
;

//---------------dance-single - ----------------
#NOTEDATA:;
#CHARTNAME:;
#STEPSTYPE:dance-single;
#DESCRIPTION:;
#CHARTSTYLE:;
#DIFFICULTY:Beginner;
#METER:1;
#RADARVALUES:0.114,0.136,0.009,0.000,0.000,92.000,1.000,0.000,0.000,0.000,0.000,0.000,0.000,0.114,0.136,0.009,0.000,0.000,92.000,1.000,0.000,0.000,0.000,0.000,0.000,0.000;
#CREDIT:;
#OFFSET:-0.183;
#BPMS:0.000=120.000
,32.000=60.000
,40.000=120.000
;
#STOPS:;
#DELAYS:;
#WARPS:;
#TIMESIGNATURES:0.000=4=4
;
#TICKCOUNTS:0.000=4
;
#COMBOS:0.000=1
;
#SPEEDS:0.000=1.000=0.000=0
;
#SCROLLS:0.000=1.000
;
#FAKES:;
#LABELS:0.000=Song Start
;
#NOTES:
0000
0000
0000
0000
,
0000
0000
0000
0000
,
1000
1000
1000
0000
,
0000
0000
0000
0000
,
0001
0001
0001
0000
,
0000
0000
0000
0000
,
0100
0100
0100
0000
,
0000
0000
0000
0000
,
0010
0000
1000
0000
,
0100
0000
0001
0000
,
1000
1000
1000
0000
,
0001
0001
0001
0000
,
0100
0100
0100
0000
,
0010
0000
0010
0000
,
1000
1000
1000
0000
,
0100
0100
0100
0000
,
0010
0010
0010
0000
,
0001
0000
0001
0000
,
1000
0000
0000
0000
,
0001
0000
0000
0000
,
0100
0000
0000
0000
,
0010
0000
0000
0000
,
1000
0000
0000
0000
,
0100
0000
0000
0000
,
0010
0000
0000
0000
,
0001
0000
0000
0000
,
0100
0000
0000
0000
,
0100
0000
0000
0000
,
0010
0000
0000
0000
,
0010
0000
0000
0000
,
1000
0000
0000
0000
,
1000
0000
0000
0000
,
0001
0000
0000
0000
,
0001
0000
0000
0000
,
1000
1000
1000
0000
,
0001
0000
1001
0000
,
1000
0000
1000
0000
,
1000
0000
0001
0000
,
0100
0000
0100
0000
,
0010
0000
0010
0000
,
1000
0000
1000
0000
,
0100
0000
0100
0000
,
0010
0000
0010
0000
,
0001
0000
0001
0000
,
1000
0000
1000
0000
,
0010
0000
0010
0000
,
0100
0000
0100
0000
,
0001
0000
0001
0000
,
0010
0000
0010
0000
,
0100
0000
0100
0000
,
1000
0000
1000
0000
,
0001
0000
0001
0000
,
0100
0100
0100
0100
;

//---------------dance-single - ----------------
#NOTEDATA:;
#CHARTNAME:;
#STEPSTYPE:dance-single;
#DESCRIPTION:;
#CHARTSTYLE:;
#DIFFICULTY:Easy;
#METER:3;
#RADARVALUES:0.224,0.227,0.095,0.017,0.000,169.000,11.000,2.000,0.000,0.000,0.000,0.000,0.000,0.224,0.227,0.095,0.017,0.000,169.000,11.000,2.000,0.000,0.000,0.000,0.000,0.000;
#CREDIT:;
#OFFSET:-0.394;
#BPMS:0.000=119.992
;
#STOPS:;
#DELAYS:;
#WARPS:;
#TIMESIGNATURES:0.000=4=4
;
#TICKCOUNTS:0.000=4
;
#COMBOS:0.000=1
;
#SPEEDS:0.000=1.000=0.000=0
;
#SCROLLS:0.000=1.000
;
#FAKES:;
#LABELS:0.000=Song Start
;
#NOTES:
0000
0000
0000
0000
,
0000
0000
0000
0000
,
1000
0001
1000
0000
,
0000
0000
0000
0000
,
0100
0010
0100
0000
,
0000
0000
0000
0000
,
0001
0010
0100
0000
,
0000
0000
0000
0000
,
1000
0001
0100
0010
,
1000
0010
0100
0001
,
1000
1000
1000
0000
,
0001
0001
0001
0000
,
0100
0100
0100
0000
,
0010
0000
0010
0000
,
1000
0100
0010
0000
,
0001
1000
0001
0000
,
0100
0010
1000
0000
,
0010
0000
0100
0100
,
0001
1000
0100
0010
,
0100
1000
0001
0001
,
1000
0010
0100
0001
,
0010
0100
1000
0000
,
0001
0100
0010
1000
,
0100
0010
0100
1000
,
0001
1000
0010
0100
,
0001
0100
0010
0000
,
1000
1000
0001
0001
,
1001
0001
0010
0100
,
1000
1000
0001
0001
,
0100
0100
0010
0010
,
1000
0010
0100
0001
,
0101
0001
0100
0010
,
1000
0100
0010
0100
,
1000
0001
0001
0001
,
1000
0000
0000
1000
0000
0000
1000
0000
,
0002
2003
3001
1001
,
0010
0000
1000
1000
,
0100
0010
0100
1100
,
0100
0000
0010
0010
,
0001
0100
0010
0101
,
0100
0000
0010
0010
,
1000
0100
0010
0110
,
0100
0000
1000
1000
,
0001
0100
0010
0110
,
0010
0000
0100
0100
,
0001
0010
0100
1100
,
1000
0000
0001
0001
,
0010
0001
0100
0110
,
0010
0000
1000
0100
,
0010
0100
1000
1001
,
0001
0000
0100
0010
,
1000
0010
0100
0101
,
0001
0100
0010
0010
;

//---------------dance-single - ----------------
#NOTEDATA:;
#CHARTNAME:;
#STEPSTYPE:dance-single;
#DESCRIPTION:;
#CHARTSTYLE:;
#DIFFICULTY:Medium;
#METER:4;
#RADARVALUES:0.324,0.323,0.103,0.129,0.000,237.000,12.000,15.000,0.000,0.000,0.000,0.000,0.000,0.324,0.323,0.103,0.129,0.000,237.000,12.000,15.000,0.000,0.000,0.000,0.000,0.000;
#CREDIT:;
#OFFSET:-0.309;
#BPMS:0.000=119.992
,32.000=59.992
,40.000=119.992
;
#STOPS:;
#DELAYS:;
#WARPS:;
#TIMESIGNATURES:0.000=4=4
;
#TICKCOUNTS:0.000=4
;
#COMBOS:0.000=1
;
#SPEEDS:0.000=1.000=0.000=0
;
#SCROLLS:0.000=1.000
;
#FAKES:;
#LABELS:0.000=Song Start
;
#NOTES:
0000
0000
0000
0000
,
0000
0000
0000
0000
,
2000
3002
1003
0000
,
0000
0000
0000
0000
,
0200
0320
0130
0000
,
0000
0000
0000
0000
,
0002
0023
0032
0003
,
0000
0000
0000
0000
,
1000
0100
0010
0000
0001
0100
0010
0000
,
1000
0001
0100
0000
0010
1000
0100
1100
,
1000
0100
1000
0100
1000
0000
0000
0000
,
0002
2003
3001
0000
,
0100
0010
1000
0010
0100
0000
0001
0000
,
2000
3200
0320
0031
,
0100
0010
1000
0010
0100
0000
0000
0000
,
0001
0001
0001
0001
1000
0000
0000
0000
,
0100
0010
0100
1000
0100
0000
0010
0000
,
0001
0001
1000
1000
,
1001
0000
0001
0010
0100
0000
1000
0000
,
0001
0000
0100
0000
0010
1000
0010
0000
,
0100
0000
0001
1000
0100
0000
0010
0000
,
0100
0000
1000
0000
0001
1000
0010
0000
,
0100
0000
0001
1000
0100
0000
0010
0000
,
0100
0000
1000
0000
0001
0010
0100
0000
,
1000
0000
0010
0100
0001
0000
0100
0000
,
0010
0000
1000
0000
0001
1000
0001
0000
,
1000
0000
0100
0010
0100
0000
1100
0000
,
0011
0000
0001
0100
0010
0000
1010
0000
,
0101
0001
1000
0100
,
0010
0000
0100
0100
0100
0000
1000
1000
,
1000
0000
0001
0100
0010
0000
0100
0000
,
0001
0000
1000
0100
0010
0000
0100
0000
,
1000
0001
1000
0010
,
0100
0000
0001
0100
0010
1000
1000
0000
,
2000
0000
0000
3002
0000
0000
1003
0000
,
0001
1000
0001
0000
1001
0000
1001
0000
,
0100
0000
0000
0000
0010
1000
0010
0000
,
0100
0000
0100
0000
0001
1000
0001
0000
,
0010
0000
1100
0000
0001
0001
0001
0000
,
1000
1000
0010
0000
0100
0100
0100
0000
,
0010
0000
0000
0000
1000
0001
1000
0000
,
0010
0000
0101
0000
0001
0001
1000
0000
,
0100
0100
1100
0000
0100
0010
0001
0000
,
0000
0001
1000
0000
0010
0010
0100
0000
,
0001
0100
0010
0000
0010
0100
0100
0000
,
0010
0000
1000
0000
0100
1000
0100
0000
,
0010
0010
1100
0000
1000
1000
0001
0000
,
0000
1000
0010
0000
0100
0100
0010
0000
,
1000
0000
0000
0000
0001
0010
0100
0000
,
1000
0000
1000
0000
0001
0001
1000
0000
,
0001
1000
0010
0000
0100
0010
1000
0000
,
0000
1000
0010
0000
0100
0100
0001
0000
,
1000
0100
0010
0100
1000
0100
0020
0000
,
0000
0000
0000
0030
;

//---------------dance-single - ----------------
#NOTEDATA:;
#CHARTNAME:;
#STEPSTYPE:dance-single;
#DESCRIPTION:;
#CHARTSTYLE:;
#DIFFICULTY:Hard;
#METER:6;
#RADARVALUES:0.422,0.390,0.370,0.120,0.021,287.000,43.000,14.000,0.000,0.000,0.000,0.000,0.000,0.422,0.390,0.370,0.120,0.021,287.000,43.000,14.000,0.000,0.000,0.000,0.000,0.000;
#CREDIT:;
#OFFSET:-0.312;
#BPMS:0.000=119.992
,32.000=59.992
,40.000=119.992
;
#STOPS:;
#DELAYS:;
#WARPS:;
#TIMESIGNATURES:0.000=4=4
;
#TICKCOUNTS:0.000=4
;
#COMBOS:0.000=1
;
#SPEEDS:0.000=1.000=0.000=0
;
#SCROLLS:0.000=1.000
;
#FAKES:;
#LABELS:0.000=Song Start
;
#NOTES:
0000
0000
0000
0000
,
0000
0000
0000
0000
,
1000
0100
0000
0020
0000
0000
0030
0000
,
0001
0100
0000
0020
0000
0000
0130
0000
,
0010
1000
0000
0002
0000
0000
0003
0000
,
1000
0100
0000
0020
0000
0000
0130
0000
,
1000
0010
0000
0200
0000
0000
0300
0000
,
0001
1000
0001
1000
0001
1000
0001
1000
,
0010
0000
1000
0000
0100
0010
0000
0000
0001
0000
1000
0000
0010
0100
0000
0000
,
0001
0000
0010
0000
0100
1000
0000
0000
0001
0000
1000
0000
0010
0100
0001
0000
,
1100
0100
0010
0100
0010
0000
0000
0000
,
1100
0101
1100
0001
,
1000
0010
1000
0010
0100
0000
0001
1000
,
0100
0000
0001
1000
0100
0000
1001
0000
,
1001
0010
0100
0010
0100
0000
0000
0000
,
1010
0010
1010
1000
1010
0000
1000
0000
,
1001
0001
1000
0001
1000
0000
0001
0010
,
0200
0000
1300
0010
0200
0000
0301
1000
,
0001
0000
1000
0100
0010
0000
1100
0000
,
0101
0000
0001
1000
0100
0010
0100
1000
,
0001
0100
0010
0100
0001
0000
1010
0000
,
0101
0000
0001
0010
0100
1000
0010
0100
,
0001
1000
0100
0010
0100
0000
1100
0000
,
0110
0000
0010
0001
0100
0010
0100
0001
,
1000
0100
0010
0100
1000
0000
1010
0000
,
0110
0000
0010
0100
0001
0100
0010
0000
,
1000
0100
0010
0100
1000
0000
1100
0000
,
0101
0000
0001
1000
0100
0000
1010
0000
,
1100
0000
0001
0100
0010
0000
1000
0000
,
0100
0000
0020
0100
0130
0000
0200
0010
,
0310
0000
0010
1000
0100
0000
1100
0000
,
0011
0000
0001
0100
0010
0000
1010
0000
,
0101
0001
1000
0100
,
1000
0000
0000
0000
0001
0000
1000
0000
0001
0000
1000
0001
1000
0000
0002
0000
,
1000
1003
2000
0001
3001
0002
1000
1003
,
0010
0100
0010
0000
0110
0000
0110
0000
,
1001
0000
0000
0000
0001
0010
0100
0000
,
1000
1000
0001
0001
1000
0100
0110
0000
,
0010
0100
1000
0000
0001
0001
0100
0000
,
0000
0010
0100
0000
0001
0100
1010
0000
,
1100
0000
0000
0000
0001
1000
0100
0000
,
1000
0001
0100
0010
1000
0010
0100
0000
,
0001
0010
1100
0000
0001
1000
0010
0000
,
0000
0100
0100
0000
0001
0100
0010
0000
,
1100
0000
0000
0000
0001
0010
0100
0000
,
1000
1000
0001
0001
0100
0010
0110
0000
,
1010
0000
0101
0000
0001
0010
0100
0000
,
0000
1000
1000
0000
0001
1000
1001
0000
,
0110
0000
0000
0000
0010
0100
0001
0000
,
1000
0100
0010
0100
1000
1000
1100
0000
,
0101
1000
0100
0000
0001
1000
0010
0000
,
0100
0100
0010
0000
1000
0001
1001
0001
,
0210
0010
0010
0020
,
0000
0000
0000
0330
0000
0000
0000
0000
;

//---------------dance-single - ----------------
#NOTEDATA:;
#CHARTNAME:;
#STEPSTYPE:dance-single;
#DESCRIPTION:;
#CHARTSTYLE:;
#DIFFICULTY:Challenge;
#METER:8;
#RADARVALUES:0.526,0.534,0.533,0.069,0.279,358.000,62.000,8.000,0.000,0.000,0.000,0.000,0.000,0.526,0.534,0.533,0.069,0.279,358.000,62.000,8.000,0.000,0.000,0.000,0.000,0.000;
#CREDIT:;
#OFFSET:-0.284;
#BPMS:0.000=119.992
,32.000=59.992
,40.000=119.992
;
#STOPS:;
#DELAYS:;
#WARPS:;
#TIMESIGNATURES:0.000=4=4
;
#TICKCOUNTS:0.000=4
;
#COMBOS:0.000=1
;
#SPEEDS:0.000=1.000=0.000=0
;
#SCROLLS:0.000=1.000
;
#FAKES:;
#LABELS:0.000=Song Start
;
#NOTES:
// measure 0
0000
0000
0000
0000
,  // measure 1
0000
0000
0000
0000
,  // measure 2
1001
1100
1001
0000
,  // measure 3
0001
0200
0000
0320
0000
0000
0130
0000
,  // measure 4
0101
1100
0101
0000
,  // measure 5
0001
0020
0000
0230
0000
0000
0310
0000
,  // measure 6
1001
1010
1001
0001
,  // measure 7
0010
0100
1000
0100
0010
0001
0100
0010
,  // measure 8
1000
0000
0000
0000
0100
0000
0000
0010
0000
0000
0100
0000
0000
1000
0000
0000
0001
0000
0000
0000
0100
0000
0000
0010
0000
0000
1000
0000
0000
0010
0000
0000
,  // measure 9
0100
0000
0000
0000
0001
0000
0000
0010
0000
0000
0100
0000
0000
1000
0000
0000
0001
0000
0000
0000
1000
0000
0000
0010
0000
0000
0100
0000
0001
0000
0000
0000
,  // measure 10
1100
0100
0010
0001
0010
0000
0000
0000
,  // measure 11
0101
1100
0101
1001
,  // measure 12
0001
0000
1000
0000
0010
0000
1000
0000
0001
0000
0000
0000
1000
0100
1000
0100
,  // measure 13
0010
0000
0000
0000
0010
0001
0010
0001
0000
0000
0000
0000
0001
0100
0001
0100
,  // measure 14
0010
0010
1000
1000
0001
0000
0000
0000
,  // measure 15
1100
0000
0100
0000
0110
0000
0010
0000
0011
0000
0000
0000
0001
0000
0000
0001
,  // measure 16
1000
0000
1000
0000
0010
0000
0010
0000
0100
0000
0000
0000
0001
0100
0001
0100
,  // measure 17
0010
0000
0000
0000
0010
1000
0010
1000
0100
0000
0000
0000
0100
0010
0100
0010
,  // measure 18
0001
0000
0001
1000
0100
0000
1100
0000
,  // measure 19
0101
0000
0001
0010
0100
1000
0010
1000
,  // measure 20
1010
0010
0100
0001
0100
0000
1001
0000
,  // measure 21
0101
0000
0001
0010
0100
1000
0001
1000
,  // measure 22
1001
0001
1000
0100
0010
0000
0110
0000
,  // measure 23
1100
0000
1000
0100
0010
0001
0100
0010
,  // measure 24
1010
0010
0100
0001
0010
0000
1100
0000
,  // measure 25
1001
0000
0010
0100
0001
0010
0100
1000
,  // measure 26
1100
1000
0100
0010
0001
0001
0100
0000
,  // measure 27
0110
0000
0010
1000
0100
0010
0100
1000
,  // measure 28
1100
0000
1000
0100
0010
0000
0010
0000
,  // measure 29
1001
0000
0000
0000
0001
1000
0100
1000
0001
0000
0000
0000
0001
1000
0010
1000
,  // measure 30
0001
0000
1000
0100
0010
0000
0110
0000
,  // measure 31
1100
0000
0001
0100
0010
0100
0001
1000
,  // measure 32
1010
0000
0010
1000
0100
0000
0110
0000
,  // measure 33
1001
0000
0000
0000
0001
1000
0010
1000
0001
0000
1000
1000
0001
0000
1000
0000
,  // measure 34
2001
0001
3001
2001
0001
3001
2001
0001
,  // measure 35
3001
1000
0000
0001
0000
1000
0001
0000
1001
0000
0000
0000
0110
0000
0000
0000
,  // measure 36
0010
0000
1000
0000
0100
0000
0000
0000
0010
0000
0010
0001
0000
0001
0100
0000
,  // measure 37
0010
0000
1000
0000
0100
0000
0010
0000
0100
1000
0000
1000
0001
0000
0000
0000
,  // measure 38
1000
0010
0000
0000
1010
0000
0010
0000
0100
0000
0001
0100
0000
0100
0010
0000
,  // measure 39
1000
0100
0010
0000
0011
0110
1100
0000
,  // measure 40
0001
1000
0000
0000
1010
0000
0000
0000
0010
0000
0100
0001
0000
0001
0100
0000
,  // measure 41
0010
0000
1000
0000
0100
0000
0010
0000
0001
0100
0000
0100
0010
0000
0000
0000
,  // measure 42
0010
1000
0000
0000
1100
0000
0110
0000
0010
0000
0001
0100
0000
0100
0010
0000
,  // measure 43
1000
0100
0010
0000
1100
0110
0011
0000
,  // measure 44
0001
1000
0000
0000
1010
0000
0000
0000
0010
0000
0100
0001
0000
0001
0100
0000
,  // measure 45
0010
0000
1000
0000
0100
0000
0010
0000
0100
1000
0000
0010
0100
0000
0000
0000
,  // measure 46
0001
1000
0000
0000
0110
0000
0010
0000
0100
0000
0010
1000
0000
1000
0100
0000
,  // measure 47
0010
0100
1000
0000
0110
0011
0101
0000
,  // measure 48
0001
0100
0000
0000
0110
0000
0000
0000
0010
0000
1000
0100
0000
0100
1000
0000
,  // measure 49
0001
0000
0100
0000
0010
0000
1000
0000
0010
0100
0000
0001
1000
0000
0000
0000
,  // measure 50
0100
0010
0000
0000
1100
0000
0001
0000
0100
0000
0010
1000
0000
0100
0010
0000
,  // measure 51
0100
1000
0001
0000
0110
0110
1010
0010
,  // measure 52
0100
0001
0100
0001
1000
0100
2000
0000
,  // measure 53
0000
0000
0000
0000
,  // measure 54
3000
0000
0000
0000
;
