#TITLE:BLUE STRAGGLER;
#SUBTITLE:;
#ARTIST:L.E.D.;
#TITLETRANSLIT:;
#SUBTITLETRANSLIT:;
#ARTISTTRANSLIT:;
#CREDIT:;
#BANNER:[Colors] - BLUE STRAGGLER.png;
#BACKGROUND:[Colors] - BLUE STRAGGLER-background.png;
#JACKET:[Colors] - BLUE STRAGGLER-jacket.png;
#LYRICSPATH:;
#CDTITLE:;
#MUSIC:[Colors] - BLUE STRAGGLER.mp3;
#OFFSET:-1.668;
#SAMPLESTART:13.640;
#SAMPLELENGTH:12.000;
#SELECTABLE:YES;
#BPMS:0.000=160.000;
#STOPS:208.000=1.125
;
#BGCHANGES:;

//---------------dance-single - ----------------
#NOTES:
     dance-single:
     :
     Hard:
     9:
     0.520,0.686,0.271,0.070,0.516:
0001
0010
0100
0010
0000
0100
1000
0001
,
0000
0001
0000
1000
0000
1000
0000
0001
,
1000
0001
1000
0100
0000
0100
0000
0010
,
0000
0001
0000
0010
0000
0100
0000
0010
,
0001
1000
0001
0100
0000
0010
0000
0100
,
0000
0001
0000
1000
0000
0001
0000
0010
,
0000
0100
0010
0001
0000
1000
0000
0010
,
0000
1000
0000
0010
0000
0100
0000
0010
,
1000
0000
0000
1000
0000
0000
0001
0000
0000
0001
0000
0000
1000
0000
0001
0000
,
0000
0100
0000
0000
0010
0000
0000
1000
0000
0000
0010
0000
0000
0100
0000
0001
,
1000
0000
0000
0100
0000
0000
1000
0000
0000
0010
0000
0000
0100
0000
0001
0000
,
0000
1000
0000
0000
0001
0000
0000
0100
0000
0000
0001
0000
0000
0010
0000
0100
,
1000
0000
0000
0001
0000
0000
0001
0000
0000
1000
0000
0000
0010
0000
1000
0000
,
0000
0100
0000
0100
0000
0000
0010
0000
0000
0001
0000
0000
1000
0000
0010
0000
,
0000
1000
0000
0000
0001
0000
0000
0010
0000
0100
0000
0000
1000
0000
0001
0000
,
0000
0101
0000
0000
0101
0000
0000
1010
0000
0000
1010
0000
1000
0000
0100
0000
,
0010
0000
0000
0000
1001
0000
0001
0000
0000
0100
0000
0000
0001
0000
0010
0000
,
0000
0100
0000
0000
0010
0000
0000
0001
0000
0000
0100
0000
0010
0000
1000
0000
,
0100
0000
0000
1000
0000
0000
0100
0000
0000
0010
0000
0000
0100
0000
0000
1000
,
0000
0001
0000
0000
1000
0000
0000
0010
0000
0000
1000
0000
0001
0000
1000
0000
,
0001
0000
0000
0010
0000
0000
0001
0000
0000
0100
0000
0000
0001
0000
1000
0000
,
0100
0000
0000
1000
0000
0000
0010
0000
0000
0100
0000
0000
0001
0000
1000
0000
,
0100
0000
0010
0000
0100
0000
0010
0000
0100
0000
0010
0000
0100
0000
0010
0001
,
0000
0011
0000
0000
1100
0000
0000
0101
0000
0000
1010
0000
1000
0001
1000
0001
,
1000
0000
0000
0100
0000
0000
0010
0000
0000
0100
0000
0000
0010
0000
0001
0000
,
0000
0100
0000
0000
0001
0000
0000
1000
0000
0000
0100
0000
0000
1000
0000
0001
,
0100
0000
0000
0010
0000
0000
1000
0000
0000
0010
0000
0000
0100
0000
0001
0000
,
0000
1000
0000
0000
0100
0000
0000
0010
0000
0000
0100
0000
0000
1000
0000
0001
,
1000
0100
1000
0100
1000
0100
1000
0100
,
0010
0001
0010
0001
0010
0001
0010
0001
,
0010
0100
1000
0100
0010
0001
0010
0100
,
0000
1001
0000
0000
1010
0000
0000
0101
0000
0000
0011
0000
0000
1001
0000
1000
,
0020
0000
0000
0000
,
0000
0000
0000
0030
,
0200
0000
0000
0300
,
0002
0003
2000
3000
,
0002
0000
0000
0000
,
0000
0000
0000
0003
,
2000
0000
0000
3000
,
0200
0000
0000
0300
,
1001
0000
0001
0000
0000
0100
0000
0000
0001
0000
0000
0100
0000
0000
0001
0100
,
0000
0000
0010
0000
0000
1000
0000
0000
0010
0000
0000
1000
0000
0000
0010
1000
,
0000
0000
0100
0000
0000
0010
0000
0000
0100
0000
0000
0010
0000
0000
0010
0000
,
0000
0000
0001
0000
0000
1000
0000
0000
0001
0000
0000
1000
0000
0000
1000
0000
,
0000
0000
0010
0100
0000
0100
0000
0100
0000
0000
0010
0000
1000
0000
0001
1000
,
0000
0000
0100
0000
0000
0010
0000
0000
0001
0000
0000
1000
0000
0000
0010
0000
,
0100
0000
0001
0000
0000
0010
0000
0000
0100
0000
0000
1000
0000
0000
0010
0100
,
0000
0000
0001
0000
0000
1000
0000
0000
0100
0000
0000
1000
0000
0000
0001
1000
,
0001
0000
0000
1001
,
0110
0000
0000
0110
,
1001
1001
0110
0110
,
0101
1010
1100
0011
,
1001
0000
0001
0100
1000
0100
0001
0010
,
1000
0000
0010
0000
0100
0000
1000
0000
0000
0100
0000
0000
1000
0000
0000
0010
,
0000
0000
0100
0001
0000
0000
1000
0000
0000
0100
0000
0000
0010
0000
0000
0100
,
0000
0000
1000
0001
0000
0000
0100
0000
0000
0001
0000
0000
0100
0000
0000
0001
,
0000
0000
0010
0000
0000
0000
0100
0000
0000
0100
0000
0000
0010
0000
0100
0000
,
1000
0000
0001
0100
0000
0000
0001
0000
0000
0100
0000
0010
0100
0000
0001
0000
,
0100
0000
0001
1000
0000
0000
0100
0000
0000
0010
0000
0000
0100
0000
0000
1000
,
0000
0000
0001
1000
0000
0000
0010
0000
0000
1000
0000
0000
0001
0000
0000
1000
,
0000
0000
0100
0010
0000
0000
0001
0000
0000
0010
0000
0000
0100
0000
0000
1000
,
0000
0000
0001
1000
0001
0000
0010
0000
0000
0100
0000
0000
1000
0000
0000
0010
,
0000
0000
0100
0010
0000
0000
0100
0000
0000
0010
0000
0000
1000
0000
0000
0010
,
0000
0000
1000
0010
0000
0000
0100
0000
0000
0001
0000
0000
0010
0000
0000
0100
,
0000
0000
0010
0000
0000
0000
0001
0000
0000
0100
0000
0000
0100
0000
0001
0000
,
0100
0000
0010
1000
0000
0000
0001
0000
0000
1000
0000
1000
0100
0000
0001
0000
,
0100
0000
0010
0100
0000
0000
0010
0000
0000
0010
0000
0000
0100
0000
0000
1000
,
0000
0000
0001
1000
0001
0000
1000
0000
0100
0000
1000
0000
0100
0000
0010
0000
,
0001
0000
0100
0000
0000
0000
0101
0000
0000
1010
0000
0000
1100
0000
0000
0011
,
0000
0000
0001
1000
0020
0000
0000
0000
0000
0000
0000
0000
0000
0000
0000
0000
,
0000
0000
0000
0000
,
0000
0030
0000
0000
;

//---------------dance-single - ----------------
#NOTES:
     dance-single:
     :
     Medium:
     6:
     0.415,0.561,0.324,0.088,0.144:
0001
0000
1000
0001
0000
0100
0001
0100
,
0000
0100
0000
0010
0000
0010
0000
0100
,
0000
0001
1000
0100
0000
1000
0000
0010
,
0000
0100
0000
0001
0000
1000
0000
0100
,
0010
0001
0010
0001
0000
0010
0000
0100
,
0000
0010
0000
0001
0000
1000
0000
0010
,
0000
0100
0001
0100
0000
0010
0000
1000
,
0000
0001
0000
1000
0000
0100
0000
1000
,
0100
0000
1000
0000
0010
0000
0100
0001
,
0100
0000
0010
0000
1000
0000
0010
0100
,
0010
0000
1000
0000
0100
0000
0010
0001
,
0010
0000
0001
0000
0100
0000
0010
0100
,
1001
0000
0001
0000
0100
0000
0010
1000
,
0010
0000
0100
0000
0001
0000
1000
0100
,
1000
0000
0010
0000
0100
0000
0001
0010
,
0000
0100
0000
0000
0010
0000
0000
0001
0000
0000
1000
0000
0001
0000
0100
0000
,
0020
0000
0130
0000
0001
0000
1000
0100
,
1000
0000
0010
0000
0100
0000
0001
0100
,
0001
0000
0100
0000
0010
0000
1000
0010
,
1000
0000
0010
0000
1000
0000
0001
0010
,
0011
0000
0001
0000
0100
0000
0010
0100
,
0110
0000
1000
0000
0001
0000
0010
0100
,
0110
0010
0100
1000
,
0000
0100
0000
0000
0010
0000
0000
0001
0000
0000
0001
0000
0010
0000
0100
0000
,
1100
0100
0010
0001
,
0010
0001
0100
0010
,
1001
0001
1000
0100
,
1000
0010
0100
0010
,
1001
0001
0100
0010
,
1010
0010
0100
0001
,
0101
0001
1001
1000
,
0000
1100
0000
0000
1001
0000
0000
0101
0000
0000
1001
0000
0000
0101
0000
0000
,
1020
0000
0000
0000
,
0000
0000
0000
0030
,
2000
0000
0000
3000
,
0002
0003
0200
0300
,
0002
0000
0000
0000
,
0000
0000
0000
0003
,
2000
0000
0000
3000
,
0200
0000
0000
0300
,
1100
0000
0000
0000
,
0100
0000
0000
0000
,
0110
0000
0000
0000
,
0010
0000
0001
1000
,
0001
0100
0001
0001
,
0100
0010
1000
1000
,
0110
0010
1000
0001
,
1001
0001
1100
0100
,
0110
0000
0000
0110
,
1001
0000
0000
1001
,
0110
0000
1001
0000
,
0110
1001
0110
1001
,
0110
0000
0100
0010
0001
1000
0010
0100
,
0001
0000
1000
0000
0001
0000
0100
0000
0000
0001
0000
0000
0100
0000
0000
0001
,
0000
0000
0100
0000
0000
0000
0010
0000
0000
1000
0000
0000
0010
0000
0000
1000
,
0000
0000
0010
0000
0000
0000
1000
0000
0000
0001
0000
0000
1000
0000
0000
0001
,
0000
0000
1000
0000
0000
0000
0100
0000
0000
0010
0000
0000
0100
0000
0000
0010
,
0000
0000
0100
0000
0000
0000
0010
0000
0000
0001
0000
0000
0010
0000
0000
0001
,
0000
0000
0010
0000
0000
0000
0001
0000
0000
0100
0000
0000
0001
0000
0000
0100
,
0000
0000
0001
0000
0000
0000
0100
0000
0000
0010
0000
0000
0100
0000
0000
0010
,
0000
0000
0100
0000
0000
0000
0010
0000
0000
1000
0000
0000
0010
0000
0000
1000
,
0000
0000
0010
0000
0000
0000
1000
0000
0000
0100
0000
0000
0010
0000
0000
0001
,
0000
0000
0010
0000
0000
0000
0001
0000
0000
0010
0000
0000
0100
0000
0000
1000
,
0000
0000
0100
0000
0000
0000
1000
0000
0000
0010
0000
0000
0100
0000
0000
0001
,
0000
0000
1000
0000
0000
0000
0001
0000
0000
1000
0000
0000
0100
0000
1000
0000
,
0010
0000
0100
0000
0001
0000
0100
0000
0000
0010
0000
0000
1000
0000
0001
0000
,
0010
0100
1000
0000
0001
0000
1000
0100
,
0010
0001
0011
0000
1100
0000
0101
0000
,
1010
0000
0000
0000
0000
0000
0001
0000
0000
0100
0000
0000
0010
0000
0000
1000
,
0000
0001
2002
0000
0000
0000
0000
0000
,
0000
0000
0000
0000
,
0000
3003
0000
0000
;

//---------------dance-single - ----------------
#NOTES:
     dance-single:
     :
     Easy:
     4:
     0.301,0.437,0.271,0.044,0.000:
0001
0100
0000
0001
,
1000
1000
0001
0001
,
1000
0100
0000
1000
,
0010
0100
0010
0100
,
0001
0100
0000
0001
,
1000
0100
1000
0001
,
0100
0100
0000
0001
,
1000
0100
0010
0001
,
1001
0001
0100
0001
,
1000
0001
1000
0001
,
1000
0100
0010
0001
,
1000
0100
1000
0100
,
1000
0010
1000
0010
,
0100
0010
0100
0010
,
0100
0001
0100
0001
,
1000
0000
0000
0000
,
0002
0103
0001
0010
,
0100
0010
0001
1000
,
0100
1000
0010
0100
,
0001
1000
0100
1000
,
0100
0010
0001
0100
,
0001
1000
0100
1000
,
0010
0100
0010
0100
,
0010
0000
0000
0000
,
1001
0001
1000
0100
,
1000
0001
0100
0001
,
1001
0001
0010
0001
,
1000
0010
1000
0001
,
1001
0001
0100
0010
,
1010
0010
1000
0100
,
1100
0100
0110
0010
,
0011
0000
0000
0000
,
1001
0000
0000
0000
,
0000
0000
0000
0000
,
0001
0000
0000
0000
,
0100
0000
0010
0000
,
1000
0000
0000
0000
,
0000
0000
0000
0000
,
0001
0000
0000
0000
,
0100
0000
0000
0000
,
1001
0000
0000
0000
,
0000
0000
0000
0000
,
1001
0000
0000
0000
,
1001
0000
1001
0001
,
1001
0000
0000
0000
,
0010
0000
0000
0000
,
0110
0000
0000
0000
,
1001
0000
0110
0000
,
1001
0000
0000
1001
,
1001
0000
0000
1001
,
1001
0000
0110
0000
,
1001
0110
1001
0110
,
1001
2002
0000
0000
,
3003
0001
0100
0001
,
0001
0100
0001
0100
,
0100
0010
1000
0010
,
0010
1000
0010
1000
,
1000
1000
0001
0100
,
0100
0100
0001
0100
,
0100
0001
1000
0100
,
0010
0100
1000
0010
,
0100
0110
0010
1000
,
1000
0010
1000
0010
,
0010
1000
0001
1000
,
1000
0001
1000
0001
,
0001
0001
0100
0010
,
0010
0010
0100
0001
,
0001
0001
0010
0100
,
1000
0000
0000
0000
,
0000
2002
0000
0000
,
0000
0000
0000
0000
,
0000
3003
0000
0000
;

//---------------dance-single - ----------------
#NOTES:
     dance-single:
     :
     Beginner:
     1:
     0.115,0.182,0.061,0.000,0.000: // measure 1
0001
0000
0000
0000
,  // measure 2
1000
0000
1000
0000
,  // measure 3
0100
0000
0000
0000
,  // measure 4
0010
0000
0010
0000
,  // measure 5
0100
0000
0000
0000
,  // measure 6
1000
0000
1000
0000
,  // measure 7
0001
0000
0000
0000
,  // measure 8
1001
0000
0000
0000
,  // measure 9
0110
0000
0000
0000
,  // measure 10
0100
0000
0100
0000
,  // measure 11
0001
0000
0000
0000
,  // measure 12
1000
0000
1000
0000
,  // measure 13
0100
0000
0000
0000
,  // measure 14
1000
0000
0010
0000
,  // measure 15
0100
0000
0000
0000
,  // measure 16
0001
0000
0000
0000
,  // measure 17
1000
1001
0000
0000
,  // measure 18
0001
0000
0000
0000
,  // measure 19
0100
0000
0000
0000
,  // measure 20
0001
0000
0000
0000
,  // measure 21
1000
0000
0000
0000
,  // measure 22
0100
0000
0000
0000
,  // measure 23
1000
0000
1000
0000
,  // measure 24
0001
0000
0000
0000
,  // measure 25
1001
0000
0000
0000
,  // measure 26
0001
0000
0000
0000
,  // measure 27
0100
0000
0000
0000
,  // measure 28
0010
0000
0000
0000
,  // measure 29
1000
0000
0000
0000
,  // measure 30
0010
0000
0000
0000
,  // measure 31
0100
0000
0001
0000
,  // measure 32
1000
0000
0000
0000
,  // measure 33
1001
0000
0000
0000
,  // measure 34
0000
0000
0000
0000
,  // measure 35
0000
0000
0000
0000
,  // measure 36
0000
0000
0000
0000
,  // measure 37
0000
0000
0000
0000
,  // measure 38
0000
0000
0000
0000
,  // measure 39
0000
0000
0000
0000
,  // measure 40
0000
0000
0000
0000
,  // measure 41
0001
0000
0000
0000
,  // measure 42
0000
0000
0000
0000
,  // measure 43
1000
0000
0000
0000
,  // measure 44
0100
0000
1000
0000
,  // measure 45
0010
0000
0000
0000
,  // measure 46
0100
0000
0000
0000
,  // measure 47
0001
0000
0000
0000
,  // measure 48
1000
0000
0100
0000
,  // measure 49
1000
0000
0000
0001
,  // measure 50
0001
0000
0000
1000
,  // measure 51
1000
0000
0010
0000
,  // measure 52
0100
0100
0100
0100
,  // measure 53
0000
0000
0000
0000
,  // measure 54
0000
1001
0000
0000
,  // measure 55
0000
0001
0000
0000
,  // measure 56
0000
0100
0000
0000
,  // measure 57
0000
0001
0000
0001
,  // measure 58
0000
1000
0000
0100
,  // measure 59
0000
0100
0000
0100
,  // measure 60
0000
1000
0000
0000
,  // measure 61
0000
0001
0000
0100
,  // measure 62
0000
0010
0000
0000
,  // measure 63
0000
0100
0000
0000
,  // measure 64
0000
0001
0000
0000
,  // measure 65
0000
1000
0000
1000
,  // measure 66
0000
1000
0000
0001
,  // measure 67
0000
0001
0000
0100
,  // measure 68
0000
0010
0000
0100
,  // measure 69
0000
0000
0000
0000
,  // measure 70
0000
1001
0000
0000
;
