#VERSION:0.81;
#TITLE:アズール;
#SUBTITLE:;
#ARTIST:メスクラ;
#TITLETRANSLIT:Azul;
#SUBTITLETRANSLIT:;
#ARTISTTRANSLIT:mezCIA;
#GENRE:ルネッサンスコア;
#ORIGIN:;
#CREDIT:;
#BANNER:aZUL.png;
#BACKGROUND:Jump4thesky.avi;
#PREVIEWVID:;
#JACKET:aZUL-JACKET.PNG;
#CDIMAGE:;
#DISCIMAGE:aZUL-BG.PNG;
#LYRICSPATH:;
#CDTITLE:;
#MUSIC:music.mp3;
#OFFSET:-12.320;
#SAMPLESTART:61.435;
#SAMPLELENGTH:12.000;
#SELECTABLE:YES;
#BPMS:0.000=195.000;
#STOPS:;
#DELAYS:;
#WARPS:;
#TIMESIGNATURES:0.000=4=4;
#TICKCOUNTS:0.000=4;
#COMBOS:0.000=1;
#SPEEDS:0.000=1.000=0.000=0;
#SCROLLS:0.000=1.000;
#FAKES:;
#LABELS:0.000=Song Start;
#BGCHANGES:0.000=Jump4thesky.AVI=1.000=0=0=0=StretchNoLoop====,
99999=-nosongbg-=1.000=0=0=0 // don't automatically add -songbackground-
;
#KEYSOUNDS:;
#ATTACKS:
;

//---------------dance-single - Blank----------------
#NOTEDATA:;
#CHARTNAME:Blank;
#STEPSTYPE:dance-single;
#DESCRIPTION:Blank;
#CHARTSTYLE:;
#DIFFICULTY:Hard;
#METER:9;
#RADARVALUES:0.632,0.616,0.263,0.051,0.061,406.000,26.000,5.000,0.000,0.000,0.000,0.000,0.000,0.632,0.616,0.263,0.051,0.061,406.000,26.000,5.000,0.000,0.000,0.000,0.000,0.000;
#CREDIT:Blank;
#NOTES:
// measure 0
0010
0000
1000
0100
0001
0000
0001
0100
,  // measure 1
1000
0010
0100
0001
,  // measure 2
0010
0000
0100
1000
0000
1000
0001
0100
,  // measure 3
0010
1000
0100
0010
,  // measure 4
0001
0000
0100
0010
0000
1000
0010
0000
,  // measure 5
0100
0000
0001
0000
0010
0000
0100
1000
,  // measure 6
0001
0000
1000
0100
0000
0010
0001
1000
,  // measure 7
0100
0000
0010
0000
0001
0000
0100
0010
,  // measure 8
1000
0001
1000
0001
0010
0100
0010
0100
,  // measure 9
1000
0010
0001
1000
0100
0001
0010
0100
,  // measure 10
2000
0001
0000
3001
,  // measure 11
0100
0010
0000
0010
,  // measure 12
1000
0100
1000
0100
0001
0100
0001
0100
,  // measure 13
0010
0001
0010
0001
1000
0010
1000
0010
,  // measure 14
0200
0000
0000
0001
0301
0000
1000
0000
,  // measure 15
0200
0000
0000
0010
0010
0000
0300
0000
,  // measure 16
0001
0100
0010
0100
0001
1000
0100
1000
,  // measure 17
0010
0001
1000
0100
0001
0010
0100
1000
,  // measure 18
0001
0100
0020
0000
0000
0000
1030
0000
,  // measure 19
0100
0000
0010
0000
0001
0100
0010
0100
,  // measure 20
0001
0010
0100
1000
0001
0010
0100
1000
,  // measure 21
0001
0100
1000
0100
0010
1000
0001
0010
,  // measure 22
0100
0000
1000
0000
0001
0100
0010
0100
,  // measure 23
0001
1000
0100
0010
0001
1000
0010
0100
,  // measure 24
0001
0000
0010
0000
0100
1000
0100
0001
,  // measure 25
1000
0000
0010
0000
0001
0100
0010
0100
,  // measure 26
0001
0000
1000
0000
0100
0010
0001
0100
,  // measure 27
0010
0000
1000
0000
0100
1000
0010
0100
,  // measure 28
0001
0000
0010
0000
0100
1000
0001
0000
,  // measure 29
0100
0000
0010
0000
1000
0001
0010
0000
,  // measure 30
0100
0000
1000
0000
0001
0100
0010
0000
,  // measure 31
2000
0000
0000
0000
,  // measure 32
3001
0000
0011
0000
0000
0010
0011
0000
,  // measure 33
0001
0100
0110
0010
0000
0010
1001
0000
,  // measure 34
0100
0000
0011
0000
0000
0001
0101
0000
,  // measure 35
1000
0100
1100
1000
0000
0010
1010
0000
,  // measure 36
1000
0001
0101
0000
0001
1000
1100
0000
,  // measure 37
1000
0001
0011
0000
0001
1000
1010
0000
,  // measure 38
0010
0000
1001
0000
0000
0100
1100
0000
,  // measure 39
1000
0010
0110
0100
0000
0001
1001
0000
,  // measure 40
1000
0100
1000
0100
0010
0001
0010
0001
,  // measure 41
0100
0010
1000
0001
0010
0100
1000
0001
,  // measure 42
0100
0000
1010
0000
0000
0010
0110
0000
,  // measure 43
0100
0001
0101
0100
0000
0001
0011
0000
,  // measure 44
0001
0010
0001
0010
0100
1000
0100
1000
,  // measure 45
0001
0100
1000
0100
0001
0010
1000
0010
,  // measure 46
0100
0000
1000
0001
0100
0000
0110
0000
,  // measure 47
0010
0000
1000
0001
0010
0000
0110
0000
,  // measure 48
0100
1000
0001
1000
0100
1000
0001
1000
,  // measure 49
0100
0010
0001
0010
0100
0010
0001
0010
,  // measure 50
0100
1000
0001
1000
0100
1000
0001
1000
,  // measure 51
0010
1000
0100
1000
0010
1000
0100
1000
,  // measure 52
0010
0100
0001
1000
0100
0010
0001
0010
,  // measure 53
0100
0010
0001
0100
0010
1000
0001
0100
,  // measure 54
1000
0100
0000
0100
0001
0000
0001
0010
0000
0010
1000
0000
,  // measure 55
1000
0010
0000
0010
0001
0000
0001
0100
0000
0100
1000
0000
,  // measure 56
1000
0010
0001
0010
1000
0100
0010
0100
,  // measure 57
1000
0001
0100
1000
0100
0001
0010
0100
,  // measure 58
1000
0001
0100
0010
0100
0001
0010
0100
,  // measure 59
1000
0000
0001
0000
0100
0000
0010
0000
1000
0100
1000
0000
0001
0100
0001
0000
,  // measure 60
0010
0100
1000
0001
0100
1000
0100
0001
,  // measure 61
0010
0100
1000
0010
0001
1000
0100
0001
,  // measure 62
0010
0110
0000
1100
0000
1001
0000
0101
,  // measure 63
0010
1000
0010
1000
0010
0000
0100
0000
0001
0000
0010
0000
0100
0000
1000
0000
,  // measure 64
0001
0000
0000
0000
;

//---------------dance-single - Blank----------------
#NOTEDATA:;
#CHARTNAME:Blank;
#STEPSTYPE:dance-single;
#DESCRIPTION:Blank;
#CHARTSTYLE:;
#DIFFICULTY:Medium;
#METER:7;
#RADARVALUES:0.438,0.518,0.010,0.081,0.000,294.000,1.000,8.000,0.000,0.000,0.000,0.000,0.000,0.438,0.518,0.010,0.081,0.000,294.000,1.000,8.000,0.000,0.000,0.000,0.000,0.000;
#CREDIT:Blank;
#NOTES:
0010
0000
0000
1000
0000
0000
0010
0000
,
0100
0001
0010
0100
,
1000
0000
0000
0001
0000
0000
1000
0000
,
0010
0100
0001
0010
,
0100
0000
0000
0010
0000
0000
0100
0000
,
1000
0010
0100
0001
,
0010
0000
0000
0001
0000
0000
1000
0000
,
0100
0010
0001
1000
,
0010
0100
0010
0100
,
0001
1000
0001
1000
,
0100
0000
0000
0000
,
0010
0000
0000
0000
,
0001
0000
0010
0000
0001
1000
0001
0000
,
1000
0000
0100
0000
1000
0010
1000
0000
,
0010
0000
0000
0100
0100
0000
0000
0000
,
0001
0000
0000
1000
1000
0000
0100
0000
,
0010
0001
0100
0010
,
1000
0100
0010
0001
,
1000
0010
1000
0000
0010
0000
0100
0000
,
0001
0010
0100
1000
,
0001
0000
0100
0000
0010
1000
0100
0000
,
0010
0000
0001
0000
0100
0010
1000
0000
,
0001
0000
0010
0000
0100
1000
0001
0000
,
0100
0000
0010
0000
1000
0001
0010
0000
,
0100
1000
0001
1000
,
0100
0000
0010
0000
0001
0100
0001
0000
,
1000
0010
0100
0010
,
1000
0000
0100
0000
0010
0100
0010
0000
,
0100
1000
0010
0100
,
0001
0000
1000
0000
0100
1000
0100
0000
,
0010
0000
0000
0001
0100
0000
1000
0000
,
0001
0010
1000
0001
,
0001
0000
0010
0000
0000
0010
0001
0000
,
1000
0010
1000
0000
0000
0010
0100
0000
,
0010
0000
1000
0000
0000
1000
0001
0000
,
0010
0100
0010
0100
0000
0100
1000
0000
,
0001
0000
0100
0000
0000
0010
1000
0000
,
0001
0000
0010
0000
0100
1000
0001
0000
,
0100
0000
0010
1000
0000
1000
0001
0000
,
0010
0100
0010
0100
0000
0100
0010
0000
,
0001
0100
1000
0100
,
0001
0000
0010
0000
0100
1000
0001
1000
,
0100
0000
0010
0000
0000
0010
0100
0000
,
1000
0000
0001
0000
0000
0001
1000
0000
,
0010
0100
0010
0000
0100
0001
0100
0000
,
0001
1000
0001
1000
0100
1000
0100
1000
,
0010
0100
0101
0001
,
0010
0000
0001
0010
0001
0000
1000
0000
,
0100
0000
1000
0000
0100
1000
0001
0000
,
0100
0000
0010
0000
1000
0001
0010
0000
,
0100
0000
1000
0000
0001
0100
0010
0000
,
1000
0100
1000
0100
1000
0000
0001
0000
,
0100
0010
0100
0010
0100
0000
0001
0000
,
0010
0001
0010
0001
0010
0000
0100
0000
,
2000
3200
0302
0023
,
2030
3200
0320
0032
,
0103
0000
0010
0000
1000
0100
1000
0000
,
0001
0000
0100
0000
0010
1000
0001
0000
,
0010
0000
0100
0000
1000
0001
0100
0000
,
0010
1000
0010
1000
0000
1000
0001
0000
,
0010
0000
0100
0000
1000
0001
0100
0000
,
0010
1000
0100
1000
0000
1000
0001
0000
,
0100
0010
0000
1000
0000
0100
0000
0010
,
0001
0100
0001
0100
0010
1000
0010
1000
,
0001
0000
0000
0000
;

//---------------dance-single - Blank----------------
#NOTEDATA:;
#CHARTNAME:Blank;
#STEPSTYPE:dance-single;
#DESCRIPTION:Blank;
#CHARTSTYLE:;
#DIFFICULTY:Easy;
#METER:4;
#RADARVALUES:0.275,0.259,0.071,0.010,0.000,182.000,7.000,1.000,0.000,0.000,0.000,0.000,0.000,0.275,0.259,0.071,0.010,0.000,182.000,7.000,1.000,0.000,0.000,0.000,0.000,0.000;
#CREDIT:Blank;
#NOTES:
1000
0000
0010
0000
,
0100
0000
0001
0000
,
0010
0000
0100
0000
,
1000
0000
0010
0000
,
1000
0000
0001
0000
,
0010
0000
0100
0000
,
1000
0000
0010
0000
,
0100
0000
0001
0000
,
0010
0100
0010
0100
,
1000
0001
1000
0001
,
1001
0000
0000
0000
,
0110
0000
0000
0000
,
0010
1000
0100
0001
,
0010
1000
0100
0010
,
0001
0000
1000
0000
,
0010
0000
0100
0000
,
0001
0000
0010
0000
,
0100
0000
1000
0000
,
0010
0010
0000
0000
,
0100
0000
0001
0000
,
0010
0000
0100
0000
,
1000
0001
0100
0010
,
1000
0000
0100
0000
,
0010
0000
0001
0000
,
1000
0000
0010
0000
,
0100
0000
0001
0000
,
1000
0000
0100
0000
,
0010
0000
0001
0000
,
0100
0000
0010
0000
,
0100
0000
0010
0000
,
1000
0000
0001
0000
,
2000
0000
0000
0000
,
3001
0010
0000
0010
,
0100
1000
0000
1000
,
0001
0100
0000
0100
,
0010
1000
0000
1000
,
0001
0010
0000
0010
,
0100
1000
0000
1000
,
0001
0100
0000
0100
,
1000
0001
0000
0001
,
0010
1000
0010
1000
,
0001
0010
0001
0010
,
0110
0000
0000
0000
,
1001
0000
0000
0000
,
0100
0010
0100
0010
,
1000
0001
1000
0001
,
0011
0000
0100
0000
,
1100
0000
1000
0000
,
0001
0001
0100
0100
,
0010
0010
1000
1000
,
0001
0001
0010
0010
,
0100
0100
1000
1000
,
0010
0010
0001
0001
,
0100
0100
1000
1000
,
0010
0010
0100
0100
,
0001
1000
0100
0010
,
0001
0100
0010
0100
,
0001
0010
0100
0010
,
0001
1000
0010
0100
,
0001
0010
0100
1000
,
0001
0100
1000
0100
,
0001
0010
1000
0010
,
0001
0100
0010
1000
,
0100
0010
0001
1000
,
1001
0000
0000
0000
;

//---------------dance-single - Blank----------------
#NOTEDATA:;
#CHARTNAME:Blank;
#STEPSTYPE:dance-single;
#DESCRIPTION:Blank;
#CHARTSTYLE:;
#DIFFICULTY:Beginner;
#METER:1;
#RADARVALUES:0.078,0.065,0.000,0.010,0.000,53.000,0.000,1.000,0.000,0.000,0.000,0.000,0.000,0.078,0.065,0.000,0.010,0.000,53.000,0.000,1.000,0.000,0.000,0.000,0.000,0.000;
#CREDIT:Blank;
#NOTES:
1000
0000
0000
0000
,
0000
0000
0000
0000
,
0010
0000
0000
0000
,
0000
0000
0000
0000
,
0100
0000
0000
0000
,
0000
0000
0000
0000
,
0001
0000
0000
0000
,
0000
0000
0000
0000
,
0010
0000
0000
0000
,
0100
0000
0000
0000
,
0010
0000
0000
0000
,
0000
0000
0000
0000
,
0001
0000
0000
0000
,
1000
0000
0000
0000
,
0001
0000
0000
0000
,
0000
0000
0000
0000
,
0100
0000
0000
0000
,
0000
0000
0000
0000
,
0010
0000
0000
0000
,
0000
0000
0000
0000
,
1000
0000
0000
0000
,
0001
0000
0000
0000
,
1000
0000
0000
0000
,
0001
0000
0000
0000
,
1000
0000
0000
0000
,
0000
0000
0000
0000
,
0010
0000
0000
0000
,
0000
0000
0000
0000
,
0100
0000
0000
0000
,
0000
0000
0000
0000
,
0002
0000
0000
0000
,
0000
0000
0003
0000
,
0001
0000
0000
0000
,
0001
0000
0000
0000
,
1000
0000
0000
0000
,
1000
0000
0000
0000
,
0010
0000
0000
0000
,
0010
0000
0000
0000
,
0100
0000
0000
0000
,
0100
0000
0000
0000
,
0001
0000
0000
0000
,
0010
0000
0000
0000
,
0100
0000
0000
0000
,
1000
0000
0000
0000
,
0010
0000
0000
0000
,
0100
0000
0000
0000
,
0001
0000
0000
0000
,
1000
0000
0000
0000
,
0100
0000
0000
0000
,
0010
0000
0000
0000
,
0001
0000
0000
0000
,
1000
0000
0000
0000
,
0010
0000
0000
0000
,
0100
0000
0000
0000
,
0001
0000
0000
0000
,
1000
0000
0000
0000
,
0100
0000
0000
0000
,
0010
0000
0000
0000
,
0001
0000
0000
0000
,
1000
0000
0000
0000
,
0010
0000
0000
0000
,
0100
0000
0000
0000
,
0001
0000
0000
0000
,
1000
0000
0000
0000
,
0100
0000
0000
0000
;
