#TITLE:UNLIMITED FIRE;
#SUBTITLE:;
#ARTIST:TAG;
#TITLETRANSLIT:;
#SUBTITLETRANSLIT:;
#ARTISTTRANSLIT:;
#CREDIT:;
#BANNER:[Beat the Heat] - UNLIMITED FIRE.png;
#BACKGROUND:[Beat the Heat] - UNLIMITED FIRE-background.png;
#JACKET:[Beat the Heat] - UNLIMITED FIRE-jacket.png;
#LYRICSPATH:;
#CDTITLE:;
#MUSIC:04.TAG - UNLIMITED FIRE.mp3;
#OFFSET:-0.600;
#SAMPLESTART:14.080;
#SAMPLELENGTH:12.000;
#SELECTABLE:YES;
#BPMS:0.000=160.000;
#STOPS:164.000=1.125
;
#BGCHANGES:;

//---------------dance-single - ----------------
#NOTES:
     dance-single:
     :
     Hard:
     7:
     0.476,0.544,0.103,0.155,0.145: // measure 1
0000
0000
0000
0000
,  // measure 2
0000
0000
0000
0000
,  // measure 3
0000
0000
0000
0000
,  // measure 4
0000
0000
0000
0000
,  // measure 5
0001
0000
0100
0000
0001
0000
0000
0100
0000
0000
0010
0000
1000
0000
0000
0000
,  // measure 6
0100
0000
1000
0000
0100
0000
0000
0010
0000
0000
0001
0000
1000
0000
0000
0000
,  // measure 7
0010
0000
0100
0000
0010
0000
0000
1000
0000
0000
0001
0000
1000
0000
0000
0000
,  // measure 8
1001
0000
1001
0000
0000
0000
0000
0000
0101
0000
0000
1100
0000
0000
1010
0000
,  // measure 9
0220
0000
0000
0330
,  // measure 10
0100
0001
0100
0010
0000
1000
0000
0100
,  // measure 11
0000
0100
1000
0000
0001
0100
0001
1000
,  // measure 12
0010
0100
0010
1000
0000
0001
0000
0010
,  // measure 13
0000
0001
1000
0000
0001
0100
0010
1000
,  // measure 14
1000
0001
1000
0010
0000
1000
0000
0100
,  // measure 15
0000
0010
0100
0000
1000
0001
0100
0001
,  // measure 16
1000
0001
0010
0001
0000
0100
0000
0001
,  // measure 17
0000
0010
0000
0100
0000
2000
0000
0000
,  // measure 18
3001
0100
0010
0100
0000
0001
0000
1000
,  // measure 19
0000
0001
0010
0000
0010
0100
1000
0001
,  // measure 20
1000
0100
1000
0010
0000
1000
0000
0001
,  // measure 21
0000
0100
0001
0000
1000
0100
0010
0001
,  // measure 22
1000
0001
0010
0100
0000
0010
0000
0100
,  // measure 23
1000
0001
0010
0100
0000
0010
0000
0100
,  // measure 24
1000
0001
0010
0100
0000
0010
0000
0100
,  // measure 25
0000
1000
0000
0001
0000
0020
0000
0000
,  // measure 26
0031
0000
0000
1000
0000
0000
0001
0000
0000
1000
0000
0000
0100
0000
0010
0000
,  // measure 27
0001
0000
0000
0010
0000
0000
0001
0000
0000
0010
0000
0000
0100
0000
1000
0000
,  // measure 28
0010
0000
0000
0100
0000
0000
0010
0000
0000
0100
0000
0000
0010
0000
0100
0000
,  // measure 29
0001
0010
0001
1000
0000
0002
0000
1003
,  // measure 30
0010
0000
0000
0100
0000
0000
0010
0000
0000
0100
0000
0000
0001
0000
1000
0000
,  // measure 31
0010
0000
0000
1000
0000
0000
0010
0000
0000
1000
0000
0000
0001
0000
0100
0000
,  // measure 32
0010
0000
0000
1000
0000
0000
0010
0000
0000
1000
0000
0000
0010
0000
0100
0000
,  // measure 33
0020
0000
2030
0000
,  // measure 34
3002
0100
0000
0103
,  // measure 35
0200
0010
0000
0310
,  // measure 36
0020
1000
0000
1030
,  // measure 37
2000
0100
0000
3100
,  // measure 38
1000
0000
0001
1000
0000
0001
0000
1000
0000
0001
0000
1000
0001
0000
1000
0000
,  // measure 39
0010
0000
0100
0010
0000
0100
0000
0010
0000
0100
0000
0010
0100
0000
0010
0000
,  // measure 40
1000
0010
0001
0010
1000
0100
0001
0100
,  // measure 41
1000
0000
0000
1000
0000
0000
0001
0000
0000
0001
0000
0000
0100
0000
0010
0000
,  // measure 42
1001
0000
0100
1000
0001
0100
0000
0010
,  // measure 43
0000
0010
0000
0100
0001
0000
0001
0010
,  // measure 44
0100
0010
0001
1000
0010
0100
0000
0001
,  // measure 45
0000
0010
0000
0100
1000
0000
0001
0100
,  // measure 46
0001
0100
0010
1000
0010
1000
0000
1000
,  // measure 47
0000
0001
0000
0100
0001
0000
1000
0001
,  // measure 48
1000
0001
0100
0010
1000
0100
0000
0100
,  // measure 49
0000
0010
0000
0100
0000
1000
0000
0002
,  // measure 50
0000
0000
1003
0100
0010
0100
0000
1000
,  // measure 51
0000
0100
0000
0010
0001
0000
0010
0100
,  // measure 52
0010
0100
1000
0100
0010
0001
0000
0100
,  // measure 53
0000
0100
0000
0001
0100
0000
0001
0100
,  // measure 54
0001
0010
0100
0010
0001
1000
0000
0001
,  // measure 55
0000
1000
0100
0010
0001
1000
0000
0001
,  // measure 56
0000
1000
0100
0010
0001
1000
0000
0001
,  // measure 57
0000
1000
0000
0100
0000
0010
0000
0200
,  // measure 58
0000
0300
1001
0000
0000
0110
0000
0000
,  // measure 59
0100
2002
0000
0000
3003
0000
0000
0000
;

//---------------dance-single - ----------------
#NOTES:
     dance-single:
     :
     Medium:
     5:
     0.375,0.423,0.155,0.103,0.010: // measure 1
0000
0000
0000
0000
,  // measure 2
0000
0000
0000
0000
,  // measure 3
0000
0000
0000
0000
,  // measure 4
0000
0000
0000
0000
,  // measure 5
0001
0100
0001
0000
0100
0000
0010
0000
,  // measure 6
1000
0010
1000
0000
0010
0000
0100
0000
,  // measure 7
0010
0100
0010
0000
0100
0000
0001
0000
,  // measure 8
1000
0001
1000
0000
0001
0000
0100
0000
,  // measure 9
0020
0000
0000
0030
,  // measure 10
0100
0000
0001
0100
0000
0010
0000
1000
,  // measure 11
0000
0010
0100
0000
0010
0000
1000
0000
,  // measure 12
0001
0000
0010
0100
0000
0010
0000
0001
,  // measure 13
0000
1000
0001
0000
0100
0001
0100
0000
,  // measure 14
0010
0000
1000
0010
0000
0100
0000
0010
,  // measure 15
0000
1000
0001
0000
0010
0000
0100
0000
,  // measure 16
0010
0000
0001
1000
0000
1000
0000
0001
,  // measure 17
0000
0001
0000
0010
0000
0002
0000
0000
,  // measure 18
1003
0000
0100
0010
0000
0100
0000
1000
,  // measure 19
0000
0010
0100
0000
0010
0100
0010
0100
,  // measure 20
0010
0000
1000
0010
0000
0100
0000
0001
,  // measure 21
0000
1000
0100
0000
0010
0000
0100
0000
,  // measure 22
1000
0100
0010
0001
0000
1000
0000
0000
,  // measure 23
1000
0100
0010
0001
0000
1000
0000
0000
,  // measure 24
1000
0100
0010
0001
0000
1000
0000
0001
,  // measure 25
0000
1000
0000
0001
0000
0020
0000
0000
,  // measure 26
0031
0010
0100
0010
,  // measure 27
0001
1000
0100
1000
,  // measure 28
0010
0100
0001
1000
,  // measure 29
0001
0100
0010
1000
0000
0010
0000
0100
,  // measure 30
0001
1000
0100
1000
,  // measure 31
0001
0010
0001
1000
,  // measure 32
0010
0100
0010
1000
,  // measure 33
0002
0000
2003
0000
,  // measure 34
0200
0000
0000
0000
,  // measure 35
0000
0000
0000
3300
,  // measure 36
0100
1100
0000
0100
,  // measure 37
0010
0011
0000
0001
,  // measure 38
1001
0000
0101
0000
,  // measure 39
1010
0000
1100
0000
,  // measure 40
1001
0110
1001
0110
,  // measure 41
1001
0000
0000
0001
0000
0000
1000
0000
0000
0001
0000
0000
1000
0000
0010
0000
,  // measure 42
0110
0000
1000
0000
0010
1000
0000
0010
,  // measure 43
0000
0100
0000
0001
0100
0000
0100
0000
,  // measure 44
0010
0000
0010
0000
1000
0001
0000
0100
,  // measure 45
0000
0001
0000
0100
0010
0000
0100
0010
,  // measure 46
0100
0000
0001
0000
1000
0100
0000
0010
,  // measure 47
0000
0100
0000
1000
0010
0000
0100
0000
,  // measure 48
0001
0000
0100
0000
0001
1000
0000
0010
,  // measure 49
0000
0010
0000
0100
0000
0001
0000
0200
,  // measure 50
0000
0000
0310
0000
1000
0001
0000
0100
,  // measure 51
0000
0001
0000
1000
0001
0000
0001
1000
,  // measure 52
0100
0010
0100
0000
0010
0001
0000
1000
,  // measure 53
0000
0100
0000
0100
0010
0000
0100
0000
,  // measure 54
1000
0000
0001
0100
0010
1000
0000
0001
,  // measure 55
0000
0000
0001
0100
0010
1000
0000
0001
,  // measure 56
0000
0000
0001
0100
0010
1000
0000
0001
,  // measure 57
0000
1000
0000
0100
0000
0010
0000
0002
,  // measure 58
0000
0003
0011
0000
0000
1100
0000
0000
,  // measure 59
0010
2002
0000
0000
3003
0000
0000
0000
;

//---------------dance-single - ----------------
#NOTES:
     dance-single:
     :
     Easy:
     3:
     0.261,0.423,0.134,0.114,0.000: // measure 1
0000
0000
0000
0000
,  // measure 2
0000
0000
0000
0000
,  // measure 3
0000
0000
0000
0000
,  // measure 4
0000
0000
0000
0000
,  // measure 5
0001
1000
0000
1000
,  // measure 6
0100
0010
0000
0100
,  // measure 7
1000
0001
0000
0100
,  // measure 8
0010
1000
0000
0010
,  // measure 9
0200
0000
0000
0300
,  // measure 10
0010
1000
0000
0010
,  // measure 11
0100
0001
0000
1000
,  // measure 12
0100
0010
0000
0100
,  // measure 13
1000
0001
0000
1000
,  // measure 14
0001
0100
0001
0000
,  // measure 15
0100
0010
0010
0000
,  // measure 16
0100
0010
1000
0100
,  // measure 17
0010
0001
1000
0001
,  // measure 18
0100
0001
0000
0100
,  // measure 19
0010
0100
0000
0010
,  // measure 20
1000
0100
0000
1000
,  // measure 21
0010
0100
0000
0010
,  // measure 22
1000
1000
1000
0000
,  // measure 23
0010
0010
0010
0000
,  // measure 24
0100
0100
0100
0000
,  // measure 25
0001
0000
1000
0000
,  // measure 26
0020
0000
0000
0030
,  // measure 27
0200
0000
0000
0300
,  // measure 28
0020
0000
0000
0030
,  // measure 29
1000
1000
0001
0001
,  // measure 30
2000
0000
0000
3000
,  // measure 31
0002
0000
0000
0003
,  // measure 32
2000
0000
0000
3000
,  // measure 33
1002
0000
1000
0000
,  // measure 34
2000
0000
0000
0000
,  // measure 35
0000
0000
0000
3003
,  // measure 36
0001
0000
0000
0000
,  // measure 37
0100
0000
0000
0000
,  // measure 38
1010
0000
1010
0000
,  // measure 39
0101
0000
0101
0000
,  // measure 40
1001
0110
1001
0110
,  // measure 41
1001
0000
0000
0000
,  // measure 42
0000
0001
1000
0100
,  // measure 43
1000
0001
0100
0001
,  // measure 44
0001
0100
0001
0100
,  // measure 45
0010
1000
1000
0010
,  // measure 46
0100
0001
1000
0100
,  // measure 47
1000
0010
0100
0001
,  // measure 48
0001
1000
0100
0010
,  // measure 49
0100
1000
1000
1000
,  // measure 50
1000
0001
0100
0001
,  // measure 51
1000
0100
0100
1000
,  // measure 52
0010
0100
0001
1000
,  // measure 53
0100
0010
0100
1000
,  // measure 54
1000
0100
0010
0001
,  // measure 55
1000
1000
0100
0010
,  // measure 56
0001
1000
0100
0010
,  // measure 57
0001
1000
0001
0100
,  // measure 58
0010
0000
1001
0000
0000
0110
0000
0000
,  // measure 59
2002
0000
3003
0000
;

//---------------dance-single - ----------------
#NOTES:
     dance-single:
     :
     Beginner:
     1:
     0.121,0.211,0.072,0.000,0.000: // measure 1
0000
0000
0000
0000
,  // measure 2
0000
0000
0000
0000
,  // measure 3
0000
0000
0000
0000
,  // measure 4
0000
0000
0000
0000
,  // measure 5
0001
0000
0000
0000
,  // measure 6
1000
0000
0000
0000
,  // measure 7
0100
0000
0000
0000
,  // measure 8
0110
0000
1001
0000
,  // measure 9
0110
0000
0000
0000
,  // measure 10
0001
0000
0000
0000
,  // measure 11
1000
0000
0001
0000
,  // measure 12
0100
0000
0000
0000
,  // measure 13
0001
0000
1000
0000
,  // measure 14
1000
0000
0000
0000
,  // measure 15
0100
0000
1000
0000
,  // measure 16
1000
0000
0000
0000
,  // measure 17
0010
0000
0100
0000
,  // measure 18
0001
0000
0000
0000
,  // measure 19
1000
0000
1000
0000
,  // measure 20
0001
0000
0000
0000
,  // measure 21
0100
0000
0010
0000
,  // measure 22
0100
0000
0000
0000
,  // measure 23
0100
0000
0000
0000
,  // measure 24
0100
0000
0000
0000
,  // measure 25
0010
0000
1000
0000
,  // measure 26
1001
0000
0000
0000
,  // measure 27
0001
0000
0000
0000
,  // measure 28
0001
0000
0000
0000
,  // measure 29
1000
0000
0100
0000
,  // measure 30
1000
0000
0000
0000
,  // measure 31
0010
0000
0000
0000
,  // measure 32
0100
0000
0000
0000
,  // measure 33
0001
0000
1000
0000
,  // measure 34
0100
0000
0000
0000
,  // measure 35
0000
0000
0000
0000
,  // measure 36
0000
0000
0000
0000
,  // measure 37
0000
0000
0000
0000
,  // measure 38
1000
0000
0001
0000
,  // measure 39
1000
0000
0001
0000
,  // measure 40
0100
0000
0010
0000
,  // measure 41
0100
0000
0010
0000
,  // measure 42
1001
0001
0000
0000
,  // measure 43
0000
1000
0000
0100
,  // measure 44
0000
1000
0000
0000
,  // measure 45
0000
0010
0000
0010
,  // measure 46
0000
0100
0000
0000
,  // measure 47
0000
0001
0000
0001
,  // measure 48
0000
1000
0000
0000
,  // measure 49
0000
0100
0000
0100
,  // measure 50
0000
1001
0000
0000
,  // measure 51
0000
0100
0000
0010
,  // measure 52
0000
0010
0000
0000
,  // measure 53
0000
0100
0000
1000
,  // measure 54
0000
0001
0000
0000
,  // measure 55
0000
0001
0000
0000
,  // measure 56
0000
0001
0000
0000
,  // measure 57
0000
0001
0000
1000
,  // measure 58
0000
0010
0000
0100
,  // measure 59
0000
1001
0000
0000
;
