#VERSION:0.81;
#TITLE:Tower of the Sun;
#SUBTITLE:;
#ARTIST:ナヤ~ン feat. 野獣王国;
#TITLETRANSLIT:;
#SUBTITLETRANSLIT:;
#ARTISTTRANSLIT:;
#GENRE:;
#ORIGIN:;
#CREDIT:;
#BANNER:;
#BACKGROUND:;
#PREVIEWVID:;
#JACKET:;
#CDIMAGE:;
#DISCIMAGE:;
#LYRICSPATH:;
#CDTITLE:;
#MUSIC:[Beat the Heat] - Tower of the Sun.ogg;
#OFFSET:-1.316;
#SAMPLESTART:85.203;
#SAMPLELENGTH:10.323;
#SELECTABLE:YES;
#BPMS:0.000=186.000;
#STOPS:;
#DELAYS:;
#WARPS:;
#TIMESIGNATURES:0.000=4=4;
#TICKCOUNTS:0.000=4;
#COMBOS:0.000=1;
#SPEEDS:0.000=1.000=0.000=0;
#SCROLLS:0.000=1.000;
#FAKES:;
#LABELS:0.000=Song Start;
#BGCHANGES:;
#KEYSOUNDS:;
#ATTACKS:
;

//---------------dance-single - ----------------
#NOTEDATA:;
#CHARTNAME:;
#STEPSTYPE:dance-single;
#DESCRIPTION:;
#CHARTSTYLE:;
#DIFFICULTY:Hard;
#METER:9;
#RADARVALUES:0.662,0.632,0.442,0.392,0.029,456.000,53.000,47.000,0.000,0.000,0.000,0.000,0.000,0.662,0.632,0.442,0.392,0.029,456.000,53.000,47.000,0.000,0.000,0.000,0.000,0.000;
#CREDIT:;
#NOTES:
// measure 0
0000
0000
0000
0000
,  // measure 1
0000
0000
0000
0000
,  // measure 2
0000
0000
0000
0000
,  // measure 3
0000
0000
0000
0000
,  // measure 4
1000
0000
1001
0000
0001
0010
0000
0011
,  // measure 5
0000
0001
0011
0000
0010
0110
0000
0100
,  // measure 6
1100
0000
1001
0000
1000
0010
0100
0110
,  // measure 7
0000
0000
0010
0000
1010
0000
0000
0000
1001
0000
0000
1000
0001
0000
1000
0000
,  // measure 8
0001
0010
0001
0100
0010
1000
0100
0010
,  // measure 9
0000
0100
1000
0000
0010
0100
0000
0010
,  // measure 10
0000
1000
0001
0000
1000
1000
0000
0100
,  // measure 11
0000
0010
0001
2000
0000
0010
0010
0010
,  // measure 12
3010
0100
0010
0100
0001
0010
0100
0010
,  // measure 13
0000
0001
0100
0000
0010
1000
0000
0001
,  // measure 14
0000
0010
0100
0000
1000
0010
0000
0100
,  // measure 15
0000
0001
0010
0100
1000
0001
1000
0001
,  // measure 16
1000
0010
1000
0100
1000
0001
1000
0020
,  // measure 17
0000
0100
0100
0000
0100
0130
0000
0200
,  // measure 18
0000
0001
0001
0000
0001
0301
0000
0002
,  // measure 19
0000
0013
0100
2000
0000
0001
3001
0000
,  // measure 20
0100
0010
0100
0001
0010
0100
1000
0020
,  // measure 21
0000
0100
0100
0000
0100
0100
0000
0230
,  // measure 22
0000
0001
0001
0000
0001
0301
0000
0002
,  // measure 23
0000
0000
1003
0000
0100
0000
0010
0000
0001
1000
0000
0000
0001
0000
0100
0010
,  // measure 24
0100
0000
0001
0000
0010
0100
0000
1000
,  // measure 25
0000
0001
2000
0000
0010
0010
0010
0010
,  // measure 26
3010
0000
0010
1000
0100
0010
0000
0001
,  // measure 27
0000
1000
0002
0000
0100
0100
0100
0100
,  // measure 28
0103
0000
0001
0100
0010
0100
0000
0020
,  // measure 29
0000
2030
0000
3002
0000
0023
0000
0031
,  // measure 30
0000
0011
0000
1000
0000
1010
0000
1001
,  // measure 31
1001
0000
0000
0000
0110
0000
0000
0000
1001
0000
0001
1000
0001
0000
1000
0000
,  // measure 32
0001
0000
0100
0010
0100
0001
0000
0010
,  // measure 33
0000
0100
2000
0000
0001
0001
0001
0001
,  // measure 34
3001
0000
0001
0100
0010
1000
0000
0100
,  // measure 35
0000
0010
0002
0000
1000
1000
1000
1000
,  // measure 36
1003
0000
0010
0100
0010
0100
0000
0101
,  // measure 37
0000
0001
0000
0011
0000
0010
0000
0110
,  // measure 38
0000
1100
0000
1010
0000
0011
0000
2002
,  // measure 39
0000
0000
0000
3003
,  // measure 40
1000
0000
0010
0100
0000
0001
0000
2001
,  // measure 41
0000
0000
0001
3001
0000
0000
1000
1001
,  // measure 42
0000
0001
1001
0000
1000
1001
0000
0001
,  // measure 43
0101
0000
0100
0110
0000
0010
0110
0000
,  // measure 44
0100
0000
0010
1000
0000
0001
0000
1002
,  // measure 45
0000
0000
1000
1003
0000
0000
0001
1001
,  // measure 46
0000
1000
1001
0000
0001
1001
0000
1000
,  // measure 47
1100
0000
0100
0110
0000
0010
0110
0000
,  // measure 48
1001
0000
0001
0100
0010
1000
0000
1010
,  // measure 49
0000
1000
0000
0100
0000
0010
0000
0110
,  // measure 50
0000
0010
0001
0000
1000
0001
1000
0010
,  // measure 51
0000
0000
0100
0010
0100
0010
0000
1001
,  // measure 52
0000
0000
1000
0010
0100
0001
0000
0011
,  // measure 53
0000
0001
0000
0100
0000
0010
0000
0110
,  // measure 54
0000
0010
1000
0000
0010
1000
0100
0020
,  // measure 55
0000
0000
0001
0000
0001
0000
0031
1000
,  // measure 56
0002
0000
2000
0000
0000
0003
0000
0001
,  // measure 57
0000
0000
0000
0002
0000
0000
0000
0000
0000
0000
0000
0000
3003
0000
0000
0100
0000
0000
0000
0000
0010
0000
0000
0000
,  // measure 58
0100
0000
0000
0000
0010
0000
0000
0000
1000
0000
0000
0000
0100
0000
0000
0000
0000
0000
0010
0000
0000
0001
0000
0000
,  // measure 59
0100
0010
1000
0001
2000
0000
0000
3002
,  // measure 60
0000
0000
0013
0001
0100
0010
1000
0020
,  // measure 61
0000
0000
0130
0010
1000
0100
0010
0002
,  // measure 62
0000
0000
0103
0001
0010
0100
1000
0002
,  // measure 63
0000
0000
1000
0000
0000
1000
0000
1000
,  // measure 64
1003
0001
1000
0001
,  // measure 65
1000
0010
0100
0001
0010
0100
1000
0100
,  // measure 66
0000
1000
0100
0000
1000
0100
0000
1000
,  // measure 67
0000
0010
0100
0000
0010
1000
0000
0001
,  // measure 68
0000
0010
0001
0100
0000
0010
0100
0010
,  // measure 69
1000
0001
0100
1000
0100
0010
0100
0001
,  // measure 70
0000
0100
0001
0000
0100
0001
0000
1000
,  // measure 71
0000
0100
1000
0000
0010
0100
0000
0010
,  // measure 72
0000
1000
0100
0000
0010
0001
0100
0010
,  // measure 73
1000
0010
0100
0010
1000
0100
0010
0011
,  // measure 74
0000
0001
1001
0000
1000
1010
0000
0110
,  // measure 75
0000
0010
0100
0000
0001
0100
0000
0002
,  // measure 76
0000
1000
1000
2000
0000
0000
3003
0000
,  // measure 77
0001
0010
0100
0010
0100
1000
0001
0100
,  // measure 78
0000
0010
1000
0000
0001
1000
0000
0002
,  // measure 79
0000
1000
1000
0000
1000
1000
0000
1000
,  // measure 80
2003
0000
0100
3200
0000
0010
0320
0000
,  // measure 81
0001
0031
0000
0010
0001
0100
0010
2000
,  // measure 82
0000
3010
0100
0002
0000
0013
0100
2000
,  // measure 83
0000
0001
0001
0002
0000
0000
3003
0000
,  // measure 84
0002
0000
0100
0203
0000
0010
0320
0000
,  // measure 85
1000
2030
0000
3001
0010
0100
1000
0020
,  // measure 86
0000
0130
0001
0020
0000
0130
1000
0010
,  // measure 87
0110
0000
0000
0101
0000
0000
1001
0000
,  // measure 88
0000
1100
0000
0000
0110
0000
1001
2002
,  // measure 89
0000
3003
0000
0000
0000
0000
0000
0000
;

//---------------dance-single - ----------------
#NOTEDATA:;
#CHARTNAME:;
#STEPSTYPE:dance-single;
#DESCRIPTION:;
#CHARTSTYLE:;
#DIFFICULTY:Medium;
#METER:7;
#RADARVALUES:0.481,0.557,0.058,0.200,0.013,373.000,7.000,24.000,0.000,0.000,0.000,0.000,0.000,0.481,0.557,0.058,0.200,0.013,373.000,7.000,24.000,0.000,0.000,0.000,0.000,0.000;
#CREDIT:;
#NOTES:
// measure 0
0000
0000
0000
0000
,  // measure 1
0000
0000
0000
0000
,  // measure 2
0000
0000
0000
0000
,  // measure 3
0000
0000
0000
0000
,  // measure 4
0001
0000
0010
0000
0100
0000
1000
0002
,  // measure 5
0000
1000
1000
1000
1000
2000
0000
3003
,  // measure 6
0001
0100
0001
0010
0100
1000
0010
0200
,  // measure 7
0000
0010
0010
0010
0010
0020
0000
0330
,  // measure 8
0100
0000
0001
0000
0010
0001
0010
0001
,  // measure 9
0000
0000
0010
0000
0000
0100
0000
1000
,  // measure 10
0000
0100
1000
0000
0010
0000
0000
1000
,  // measure 11
0000
0010
1000
0002
0000
1000
2003
0000
,  // measure 12
3001
0000
0100
0000
0010
0100
0010
0100
,  // measure 13
0000
0001
0100
0000
0001
0010
0000
0100
,  // measure 14
0000
1000
0100
0000
1000
0000
0000
0002
,  // measure 15
0000
0000
1000
0000
1000
1000
1000
1000
,  // measure 16
1003
0000
0010
0000
0100
0000
0001
0010
,  // measure 17
0000
0001
0010
0000
0001
0010
0000
0100
,  // measure 18
0000
0000
1000
0000
0010
1000
0000
0010
,  // measure 19
0000
1000
0001
2000
0000
0001
3001
0000
,  // measure 20
1000
0000
0100
0000
0010
0000
0001
0010
,  // measure 21
0000
0100
0010
0000
0100
1000
0000
0100
,  // measure 22
0000
1000
0010
0000
0100
0010
0000
1000
,  // measure 23
0000
0010
1000
0001
,  // measure 24
1000
0000
0100
0000
0010
0000
0000
0001
,  // measure 25
0000
0010
0002
0000
0010
0000
0010
0000
,  // measure 26
0013
0000
0001
0000
0100
0000
0000
0010
,  // measure 27
0000
0100
0020
0000
0100
0000
0100
0000
,  // measure 28
0130
0000
0000
0010
0000
0100
0000
0010
,  // measure 29
0000
1000
0000
0100
0000
0010
0000
0100
,  // measure 30
0000
0100
0000
0010
0000
0010
0000
0002
,  // measure 31
0000
1000
1000
1000
,  // measure 32
1003
0000
0010
0000
0100
0000
0000
0001
,  // measure 33
0000
0001
0100
0010
,  // measure 34
1000
0000
0100
0000
1000
0000
0000
0100
,  // measure 35
0000
0010
0001
1000
,  // measure 36
0001
0000
0000
0010
0000
0001
0000
0100
,  // measure 37
0000
0010
0000
0100
0000
0001
0000
1000
,  // measure 38
0000
1000
0000
0001
0000
0001
0000
2002
,  // measure 39
0000
0000
0000
3003
,  // measure 40
1000
0000
0000
0010
0000
0010
0000
0100
,  // measure 41
0000
0000
0010
0100
0000
0000
0010
0100
,  // measure 42
0000
0001
0100
0000
0001
0010
0000
0100
,  // measure 43
0010
0000
0100
1000
0000
0010
1000
0000
,  // measure 44
0001
0000
0000
1000
0000
1000
0000
0100
,  // measure 45
0000
0000
1000
0100
0000
0000
0010
0100
,  // measure 46
0000
0010
0001
0000
0100
0001
0000
0100
,  // measure 47
0010
0000
1000
0010
0000
1000
0001
0000
,  // measure 48
1001
0000
1000
0000
0010
0000
0000
0100
,  // measure 49
0000
0010
0000
0100
0000
0010
0000
1000
,  // measure 50
0000
0010
1000
0000
0000
0010
1000
0002
,  // measure 51
0000
0000
1000
0000
1000
1000
0000
1003
,  // measure 52
0000
0000
1000
0000
0100
1000
0000
0100
,  // measure 53
0000
0010
0000
0100
0000
1000
0000
0001
,  // measure 54
0000
1000
0001
0000
0000
0100
0001
0200
,  // measure 55
0000
0000
0001
0000
0000
0000
0001
0001
,  // measure 56
0301
0000
0002
0000
0000
0000
0000
1000
,  // measure 57
0000
0000
0000
2000
0000
0000
0000
0000
0000
0000
0000
0000
3003
0000
0000
1000
0000
0000
0000
0000
0100
0000
0000
0000
,  // measure 58
0010
0000
0001
0000
0100
0000
0010
0000
0000
1000
0000
0000
,  // measure 59
0001
1000
0001
1000
0001
0000
1001
0000
,  // measure 60
1000
0100
1000
0100
,  // measure 61
0010
0100
0010
0100
,  // measure 62
0010
0001
0010
0001
,  // measure 63
1000
0001
1000
0001
,  // measure 64
1001
1001
1001
1001
,  // measure 65
1000
0000
0100
0000
0010
0000
0100
0010
,  // measure 66
0000
0100
0010
0000
0100
0010
0000
0001
,  // measure 67
0000
0010
0001
0000
0010
0001
0000
0010
,  // measure 68
0000
0001
0100
0002
0000
1000
0000
1003
,  // measure 69
0000
0000
0100
0000
1000
0001
1000
0001
,  // measure 70
0000
0000
1000
0000
0000
0001
0000
1000
,  // measure 71
0000
0000
0010
0000
0100
0000
0000
0010
,  // measure 72
0000
0100
0001
0010
0100
0010
0000
0100
,  // measure 73
0000
1000
0100
1000
0010
1000
0010
0100
,  // measure 74
0000
0000
0010
0000
0000
0100
0000
0010
,  // measure 75
0000
0100
0001
0000
0100
0001
0000
1000
,  // measure 76
0000
0001
1000
0002
0000
1000
0000
1003
,  // measure 77
0000
0000
0001
0000
1000
0000
0100
1000
,  // measure 78
0000
0100
0010
0000
0001
0010
0000
0001
,  // measure 79
0000
0100
0010
0000
0100
0001
0000
1000
,  // measure 80
0001
0000
0001
0010
0000
0010
0100
0000
,  // measure 81
0100
1000
0000
1000
0010
0000
0100
0010
,  // measure 82
0000
0100
0001
0010
0000
0100
1000
0002
,  // measure 83
0000
0000
0000
2000
0000
0000
3003
0000
,  // measure 84
0001
0000
0001
0100
0000
0100
0010
0000
,  // measure 85
0010
1000
0000
1000
0010
0000
1000
0010
,  // measure 86
0000
0100
0001
0010
0000
0100
1000
0020
,  // measure 87
0000
0000
0000
0100
0000
0000
0001
0000
,  // measure 88
0000
1000
0000
0000
0130
0000
2000
0002
,  // measure 89
0000
3003
0000
0000
0000
0000
0000
0000
;

//---------------dance-single - ----------------
#NOTEDATA:;
#CHARTNAME:;
#STEPSTYPE:dance-single;
#DESCRIPTION:;
#CHARTSTYLE:;
#DIFFICULTY:Easy;
#METER:5;
#RADARVALUES:0.269,0.259,0.017,0.042,0.000,219.000,2.000,5.000,0.000,0.000,0.000,0.000,0.000,0.269,0.259,0.017,0.042,0.000,219.000,2.000,5.000,0.000,0.000,0.000,0.000,0.000;
#CREDIT:;
#NOTES:
// measure 0
0000
0000
0000
0000
,  // measure 1
0000
0000
0000
0000
,  // measure 2
0000
0000
0000
0000
,  // measure 3
0000
0000
0000
0000
,  // measure 4
1000
0000
0000
0000
0010
0000
0000
0100
,  // measure 5
0000
0000
0000
0000
,  // measure 6
0000
0010
0000
0000
1000
0000
0000
0001
,  // measure 7
0000
0000
0000
1000
0000
0000
0000
0000
,  // measure 8
0001
0000
0010
0000
0100
0000
0000
1000
,  // measure 9
0000
0000
0010
0000
0000
1000
0000
0010
,  // measure 10
0000
0000
0100
0000
0010
0000
0000
0100
,  // measure 11
0000
0000
0000
0001
0000
0000
0000
0000
,  // measure 12
1000
0000
0010
0000
0100
0000
0000
0001
,  // measure 13
0000
0000
0010
0000
0000
0001
0000
0010
,  // measure 14
0000
0000
0001
0000
0100
0000
0000
0010
,  // measure 15
0000
0000
0100
0000
,  // measure 16
0010
0000
1000
0000
0100
0000
0000
0010
,  // measure 17
0000
0000
0100
0000
0000
0010
0000
0001
,  // measure 18
0000
0000
0010
0000
0001
0000
0000
0100
,  // measure 19
0000
0000
0000
0001
0000
0000
0000
0000
,  // measure 20
1000
0000
0010
0000
0100
0000
0000
0001
,  // measure 21
0000
0000
0010
0000
0000
0001
0000
0100
,  // measure 22
0000
0000
0010
0000
1000
0000
0000
0100
,  // measure 23
0000
1000
0100
1000
,  // measure 24
0010
0000
0010
0000
0010
0000
0000
0100
,  // measure 25
0000
0100
0001
0001
,  // measure 26
1000
0000
0100
0000
0010
0000
0000
0010
,  // measure 27
0000
0010
0001
0001
,  // measure 28
0100
0000
0001
0000
,  // measure 29
1000
0000
0010
0000
,  // measure 30
0100
0000
0010
0000
,  // measure 31
0100
0000
0001
0001
,  // measure 32
1000
0000
1000
0000
1000
0000
0000
0100
,  // measure 33
0000
0010
0001
0001
,  // measure 34
0100
0000
0010
0000
1000
0000
0000
0010
,  // measure 35
0000
0010
1000
0100
,  // measure 36
1000
0000
0001
0000
,  // measure 37
0010
0000
0100
0000
,  // measure 38
1000
1000
0001
0001
,  // measure 39
2000
0000
0000
3000
,  // measure 40
0001
0000
0000
0100
0000
0001
0000
0100
,  // measure 41
0000
0000
0000
0010
0000
0000
0000
1000
,  // measure 42
0000
0000
1000
0000
0000
0001
0000
0000
,  // measure 43
0001
0000
0000
1000
0000
0000
0001
0000
,  // measure 44
0010
0000
0000
0100
0000
0000
0000
0010
,  // measure 45
0000
0000
0000
0100
0000
0000
0000
1000
,  // measure 46
0000
0000
0010
0000
0000
0100
0000
0000
,  // measure 47
0001
0000
0000
1000
0000
0000
0001
0000
,  // measure 48
1000
0000
1000
0000
,  // measure 49
0001
0000
0001
0000
,  // measure 50
0010
0000
0010
0000
,  // measure 51
0100
0000
0010
0010
,  // measure 52
0010
0000
0001
0000
,  // measure 53
0100
0000
0010
0010
,  // measure 54
0010
0000
1000
0000
,  // measure 55
0002
0000
0000
1000
,  // measure 56
1003
0000
2000
0000
0000
0000
0000
0001
,  // measure 57
0000
0002
0000
0000
0000
3003
0000
0000
,  // measure 58
1000
0010
0100
0001
,  // measure 59
0010
0000
0100
0000
,  // measure 60
1000
0000
1000
0000
,  // measure 61
0001
0000
0001
0000
,  // measure 62
1000
0000
0001
0000
,  // measure 63
1001
0000
0000
0000
,  // measure 64
1000
0000
0001
0000
,  // measure 65
1000
0000
0010
0000
0100
0000
0000
0001
,  // measure 66
0000
0000
0010
0000
0000
0001
0000
0100
,  // measure 67
0000
0000
0010
0000
1000
0000
0000
0100
,  // measure 68
0000
1000
0000
0010
0000
0000
0000
0000
,  // measure 69
0000
0000
0100
0000
0010
0000
0000
1000
,  // measure 70
0000
0000
0010
0000
0000
1000
0000
0001
,  // measure 71
0000
0000
0010
0000
0001
0000
0000
1000
,  // measure 72
0000
0000
0000
0000
,  // measure 73
0000
0000
0001
0000
0100
0000
0000
0001
,  // measure 74
0000
0000
0010
0000
0000
0100
0000
1000
,  // measure 75
0000
0000
0010
0000
0100
0000
0000
0010
,  // measure 76
0000
1000
0000
0010
0000
0000
0000
0000
,  // measure 77
0000
0000
0100
0000
0010
0000
0000
0100
,  // measure 78
0000
0000
0001
0000
0000
0010
0000
0001
,  // measure 79
0000
1000
0100
0000
,  // measure 80
1000
0000
0000
1000
0000
0000
0010
0000
,  // measure 81
0000
0010
0000
0000
0100
0000
0000
0001
,  // measure 82
0000
0000
0000
0010
0000
0000
0000
0001
,  // measure 83
0000
0000
1000
0000
,  // measure 84
0001
0000
0000
0100
0000
0000
0010
0000
,  // measure 85
0000
1000
0000
0000
0100
0000
0000
0010
,  // measure 86
0000
0000
0000
0010
0000
0000
0000
0020
,  // measure 87
0000
0000
0000
0001
0000
0000
0001
0000
,  // measure 88
0000
0001
0000
0000
0031
0000
0000
1001
;
