#TITLE:Thrash;
#SUBTITLE:;
#ARTIST:Chris Goulstone;
#TITLETRANSLIT:;
#SUBTITLETRANSLIT:;
#ARTISTTRANSLIT:;
#CREDIT:Dossar;
#BANNER:thrashbanner.png;
#BACKGROUND:thrashbackground.png;
#LYRICSPATH:;
#CDTITLE:cd.png;
#MUSIC:Thrash.ogg;
#OFFSET:-0.340;
#SAMPLESTART:1.814;
#SAMPLELENGTH:8.820;
#SELECTABLE:YES;
#BPMS:0.000=325.140;
#STOPS:;
#BGCHANGES:;

//---------------dance-single - ----------------
#NOTES:
     dance-single:
     :
     Challenge:
     12:
     1.000,1.000,0.391,0.469,0.203:
0000
0000
0000
0000
,
0000
0000
0000
0000
,
1000
0000
0001
0000
0100
0010
1000
0000
,
0100
0000
0010
0001
1000
0010
0100
0000
,
0001
0000
1000
0100
0010
0001
0100
0010
,
2000
0000
0000
3000
0002
0000
0000
0003
0020
0000
0000
0030
,
1100
0000
1000
0000
0010
0100
0001
0000
,
1000
0000
0100
0010
0001
1000
0010
0000
,
0100
0000
0001
0000
0010
0100
1000
0000
,
0010
0000
0100
0000
0001
0010
0100
0000
,
1000
0000
0001
0000
0100
0010
1000
0000
,
0001
0000
0010
0100
1000
0001
0100
0000
,
0010
0000
1000
0001
0100
0010
1000
0100
,
0020
0000
0000
0030
0002
0000
0000
0003
2000
0000
0000
3000
,
0001
0100
0001
1000
0100
1000
0001
0100
,
0010
1000
0001
0010
0001
1000
0001
1000
,
0010
1000
0001
0100
0001
1000
0100
0010
,
0100
1000
0100
0010
0001
0010
0100
0010
,
0001
1000
0100
0010
0001
1000
0010
0100
,
0001
1000
0001
1000
0100
1000
0001
0100
,
0002
0000
0000
0003
0200
0000
0000
0300
0020
0000
0000
0030
,
2000
0000
0000
3000
0002
0000
0000
0003
0020
0000
0000
0030
,
0100
1000
0100
0010
0100
1000
0001
0010
,
0100
1000
0001
1000
0001
0100
0010
1000
,
0001
0100
0001
1000
0100
1000
0001
0100
,
0001
1000
0010
1000
0001
0100
0010
1000
,
0001
1000
0001
0010
0100
1000
0001
1000
,
0100
0010
0001
1000
0001
0100
0010
1000
,
0002
0000
0103
0010
0000
0000
1001
0000
,
1010
0101
0220
0330
,
1001
0000
0001
0100
0010
1000
0100
0000
,
0010
0000
0001
0100
0010
1000
0100
0000
,
0010
0000
0001
0100
0010
1000
0100
0000
,
0010
2002
0000
3003
,
0101
0000
0100
0001
1000
0100
0010
0000
,
0001
0000
0100
0001
1000
0100
0010
0001
,
2000
0000
0000
3000
0002
0000
0000
0003
0200
0000
0000
0300
,
0020
0000
0000
0030
2000
0000
0000
3000
0200
0000
0000
0300
,
0011
0000
0001
0000
0100
0010
1000
0000
,
0001
0000
1000
0100
0010
0001
0100
0010
,
1000
0000
0001
0100
0010
1000
0100
0010
,
0001
0220
0000
0330
,
1001
0000
0000
0000
0101
0000
0000
0000
1001
0000
0000
0000
,
1100
0000
0000
0000
0110
0000
0000
0000
1100
0000
0000
0000
,
0011
0000
0000
0000
0110
0000
0000
0000
1100
0000
0000
0000
,
1001
0000
0000
0000
0101
0000
0000
0000
0110
0000
0000
0000
,
2002
3003
1000
0000
,
1000
0100
0010
0001
1000
0010
0100
0001
,
1000
0000
1000
0000
,
1000
0100
0010
0001
1000
0010
0100
0001
,
1000
0000
0001
0000
,
1000
0000
0010
0000
1000
0000
0010
0000
0000
0100
0000
0001
0000
0100
0000
0001
0000
0000
1000
0000
0000
0000
0000
0000
,
1001
0000
0001
0100
0010
1000
0100
0000
,
0010
0000
0001
0100
0010
1000
0100
0000
,
0010
0000
0001
0100
0010
1000
0100
0000
,
0010
0000
0001
0100
0010
1000
0100
0000
,
1000
0000
0010
0100
0001
0010
0100
0000
,
1000
0000
0010
0100
0001
0010
0100
0000
,
1000
0000
0010
0100
0001
0010
0100
1000
,
0001
0000
0100
0010
1000
0100
0010
0001
,
1000
0000
0001
0000
0100
0010
1000
0000
,
0001
0000
1000
0100
0010
0001
0100
0010
,
1000
0000
0100
0010
0001
0100
0010
1000
,
0001
0000
0010
0100
1000
0010
0100
0000
,
0001
0000
1000
0010
0100
0001
0010
0000
,
0100
0000
1000
0010
0100
0001
0010
0000
,
0100
0000
1000
0010
0100
0001
0010
0000
,
0100
0000
1000
0010
0100
0001
0010
0100
,
1000
0001
1000
0001
0100
0010
1000
0001
,
0100
0001
1000
0100
1000
0001
0100
0010
,
1000
0001
0010
0001
1000
0001
1000
0100
,
0010
0001
0010
0100
1000
0100
0010
0001
,
1000
0010
0100
0001
0010
0100
1000
0001
,
0100
0010
1000
0100
0010
0001
1000
0010
,
0100
0001
0010
0100
1000
0010
0100
0001
,
2000
0000
0000
3000
0200
0000
0000
0300
0020
0000
0000
0030
,
1001
0000
0000
0000
;

//---------------dance-single - ----------------
#NOTES:
     dance-single:
     :
     Hard:
     10:
     0.994,1.000,1.000,0.156,0.172: // measure 1
0000
0000
0000
0000
,  // measure 2
0000
0000
0000
0000
,  // measure 3
1000
0000
0001
0000
1000
0100
1000
0000
,  // measure 4
0001
0000
1000
0000
0001
0100
0001
0000
,  // measure 5
1000
0000
0100
0000
0010
0001
0010
0000
,  // measure 6
1001
0000
0000
0000
0011
0000
0000
0000
1100
0000
0000
0000
,  // measure 7
1001
0000
0001
0000
1000
0100
1000
0000
,  // measure 8
0001
0000
0010
0000
0100
1000
0100
0000
,  // measure 9
0010
0000
0001
0000
1000
0010
1000
0000
,  // measure 10
0001
0000
0010
0000
0001
1000
0001
0000
,  // measure 11
1000
0000
0100
0000
0010
0100
0010
0000
,  // measure 12
0100
0000
1000
0000
0001
0100
0001
0000
,  // measure 13
1000
0000
0001
0000
0010
0100
0010
0000
,  // measure 14
1001
0000
0000
0000
0011
0000
0000
0000
1100
0000
0000
0000
,  // measure 15
1001
1000
1100
1000
,  // measure 16
1001
0001
0101
0001
,  // measure 17
1001
1000
1100
0100
,  // measure 18
0110
0010
0011
0001
,  // measure 19
1001
1000
1100
1000
,  // measure 20
1001
0001
0101
0001
,  // measure 21
1001
0000
0000
0000
1100
0000
0000
0000
0110
0000
0000
0000
,  // measure 22
0011
0000
0000
0000
0110
0000
0000
0000
1100
0000
0000
0000
,  // measure 23
1001
1000
1010
1000
,  // measure 24
1001
0001
0011
0001
,  // measure 25
1001
1000
1010
0010
,  // measure 26
0110
0100
0101
0001
,  // measure 27
1001
1000
1010
1000
,  // measure 28
1001
0001
0011
0001
,  // measure 29
1002
0000
1003
0100
0000
0000
1100
0000
,  // measure 30
0110
0011
2002
3003
,  // measure 31
1010
0000
1000
0000
0001
0010
0001
0000
,  // measure 32
1000
0000
0100
0000
1000
0001
1000
0000
,  // measure 33
0100
0000
0010
0000
0001
1000
0001
0000
,  // measure 34
0100
0220
0000
0330
,  // measure 35
0101
0000
0001
0000
1000
0100
1000
0000
,  // measure 36
0001
0000
0010
0000
0100
1000
0100
0000
,  // measure 37
0011
0000
0000
0000
0110
0000
0000
0000
1100
0000
0000
0000
,  // measure 38
1001
0000
0000
0000
0101
0000
0000
0000
1010
0000
0000
0000
,  // measure 39
0110
0000
0100
0000
0001
1000
0001
0000
,  // measure 40
1000
0000
0100
0000
0010
0001
0010
0000
,  // measure 41
0100
0000
1000
0000
0001
0100
0001
0000
,  // measure 42
0010
0220
0000
0330
,  // measure 43
1001
0000
0000
0000
0101
0000
0000
0000
1001
0000
0000
0000
,  // measure 44
1100
0000
0000
0000
0110
0000
0000
0000
1100
0000
0000
0000
,  // measure 45
0011
0000
0000
0000
0110
0000
0000
0000
1100
0000
0000
0000
,  // measure 46
1001
0000
0000
0000
0101
0000
0000
0000
0110
0000
0000
0000
,  // measure 47
2002
3003
1000
0000
,  // measure 48
1000
0010
1000
0010
0100
0001
0100
0001
,  // measure 49
1000
0000
1000
0000
,  // measure 50
1000
0010
1000
0010
0100
0001
0100
0001
,  // measure 51
1000
0000
0001
0000
,  // measure 52
1010
0000
0000
0110
0000
0000
0101
0000
,  // measure 53
1001
0000
1000
0010
0100
0010
1000
0000
,  // measure 54
0001
0000
1000
0100
0010
0100
1000
0000
,  // measure 55
0001
0000
1000
0010
0100
0010
1000
0000
,  // measure 56
0001
0000
1000
0100
0010
0100
1000
0000
,  // measure 57
0001
0000
0010
0100
1000
0100
0010
0000
,  // measure 58
0001
0000
1000
0010
0100
0010
1000
0000
,  // measure 59
0001
0000
0010
0100
1000
0100
0010
0000
,  // measure 60
0001
0000
1000
0010
0100
0010
1000
0000
,  // measure 61
1001
0000
0001
0000
1000
0100
1000
0000
,  // measure 62
0001
0000
1000
0010
1000
0001
0100
0001
,  // measure 63
1000
0000
0001
0100
0001
1000
0100
1000
,  // measure 64
0001
0000
1000
0100
0010
0100
1000
0000
,  // measure 65
0010
0000
0100
0001
1000
0001
0100
0000
,  // measure 66
0001
0000
1000
0100
0010
0100
1000
0000
,  // measure 67
0001
0000
0010
0100
1000
0100
0010
0000
,  // measure 68
0100
0000
1000
0001
0100
0001
2000
0000
,  // measure 69
3001
0010
0001
0010
0100
1000
0100
1000
,  // measure 70
0001
0010
0001
0010
0100
1000
0100
1000
,  // measure 71
0001
0100
0001
0100
0010
1000
0010
1000
,  // measure 72
0001
0100
0001
0100
0010
1000
0010
1000
,  // measure 73
0001
0100
0010
1000
0001
0100
0010
1000
,  // measure 74
0001
0100
0010
1000
0001
0100
0010
1000
,  // measure 75
0001
0010
0100
1000
0001
0010
0100
0000
,  // measure 76
0110
0000
0000
0000
0011
0000
0000
0000
1100
0000
0000
0000
,  // measure 77
1001
0000
0000
0000
;

//---------------dance-single - ----------------
#NOTES:
     dance-single:
     :
     Medium:
     8:
     0.766,1.000,1.000,0.156,0.172:
0000
0000
0000
0000
,
0000
0000
0000
0000
,
1000
0001
1000
0100
,
1000
0001
0100
0010
,
1000
0001
1000
0100
,
0110
0000
0000
0000
0011
0000
0000
0000
1100
0000
0000
0000
,
1001
0001
1000
0100
,
0010
0100
1000
0001
,
0010
0100
0010
0001
,
1000
0010
0100
0001
,
1000
0100
0010
0100
,
1000
0001
0100
0010
,
1000
0001
1000
0010
,
0110
0000
0000
0000
0101
0000
0000
0000
1010
0000
0000
0000
,
1001
0000
1001
0000
,
1010
0000
1010
0000
,
0110
0000
1001
0000
,
0011
0000
1100
0000
,
1001
0000
1001
0000
,
0101
0000
0101
0000
,
1001
0000
0000
0000
1010
0000
0000
0000
0110
0000
0000
0000
,
0101
0000
0000
0000
0110
0000
0000
0000
1010
0000
0000
0000
,
1001
0000
1001
0000
,
0011
0000
0011
0000
,
0110
0000
1001
0000
,
1010
0000
0101
0000
,
1001
0000
1001
0000
,
1100
0000
1100
0000
,
1002
0000
1003
0100
0000
0000
1000
0000
,
0020
0130
0002
0003
,
1001
1000
0001
0100
,
0010
1000
0001
1000
,
0100
0010
0001
1000
,
0010
0220
0000
0330
,
1001
1000
0001
0100
,
0010
1000
0001
0010
,
0011
0000
0000
0000
0110
0000
0000
0000
1100
0000
0000
0000
,
1001
0000
0000
0000
0101
0000
0000
0000
1010
0000
0000
0000
,
1001
1000
0001
1000
,
0100
1000
0001
0100
,
0010
1000
0001
0010
,
0100
0220
0000
0330
,
1100
0000
0000
0000
0110
0000
0000
0000
0011
0000
0000
0000
,
1100
0000
0000
0000
0110
0000
0000
0000
1100
0000
0000
0000
,
0011
0000
0000
0000
0110
0000
0000
0000
0011
0000
0000
0000
,
1100
0000
0000
0000
0110
0000
0000
0000
0011
0000
0000
0000
,
2002
3003
0000
0000
,
1000
0001
1000
0001
1000
0001
1000
0001
,
1000
0000
0000
0000
,
0001
1000
0001
1000
0001
1000
0001
1000
,
0001
0000
1000
0000
,
0001
0000
0000
0001
0000
0000
0001
0000
,
1001
1000
0010
0100
,
0001
1000
0010
1000
,
0001
0010
0001
1000
,
0100
0010
0100
1000
,
0001
1000
0010
0100
,
0001
1000
0100
1000
,
0001
0010
0100
0010
,
0001
0010
0100
1000
,
1001
0001
0100
0010
,
1000
0001
0100
0001
,
1000
0100
0010
0001
,
1000
0010
0100
0001
,
1000
0001
0010
0100
,
1000
0001
1000
0010
,
0100
0001
1000
0100
,
1000
0001
0100
0002
,
1003
1000
0100
0100
,
0010
0010
0001
0001
,
1000
1000
0010
0010
,
0100
0000
0100
0000
0001
0000
1000
0001
,
1000
0001
1000
0001
1000
0001
1000
0001
,
1000
0001
1000
0001
1000
0001
1000
0001
,
1000
0010
0100
0001
,
0101
0000
0000
0000
1010
0000
0000
0000
0110
0000
0000
0000
,
1001
0000
0000
0000
;

//---------------dance-single - ----------------
#NOTES:
     dance-single:
     :
     Easy:
     6:
     0.547,0.594,0.735,0.469,0.000:
0000
0000
0000
0000
,
0000
0000
0000
0000
,
1000
0100
1000
0000
,
0001
0100
0001
0000
,
1000
0010
1000
0000
,
2002
0000
0000
0000
0000
0000
0000
0000
3003
0000
0000
0000
,
0001
0010
0001
0000
,
1000
0100
1000
0000
,
0001
0100
0001
0000
,
1000
0010
1000
0000
,
0010
0100
0010
0000
,
1000
0001
1000
0000
,
0001
0100
0001
0000
,
2002
0000
0000
0000
0000
0000
0000
0000
3003
0000
0000
0000
,
1010
0000
1010
0000
,
1001
0000
1001
0000
,
0101
0000
0101
0000
,
1001
0000
1001
0000
,
1010
0000
1010
0000
,
0110
0000
0110
0000
,
2002
0000
0000
0000
0000
0000
0000
0000
3003
0000
0000
0000
,
0220
0000
0000
0000
0000
0000
0000
0000
0330
0000
0000
0000
,
1001
0000
1001
0000
,
0011
0000
0011
0000
,
1001
0000
1001
0000
,
0101
0000
0101
0000
,
0110
0000
0110
0000
,
1001
0000
1001
0000
,
2002
0000
0000
3003
,
0220
0000
0000
0330
,
1001
0000
0001
0000
,
1000
0010
1000
0000
,
0010
0100
0010
0100
,
0010
0110
0000
0000
,
1001
0000
0001
0000
,
1000
0100
1000
0000
,
2200
0000
0000
0000
0000
0000
0000
0000
3300
0000
0000
0000
,
0022
0000
0000
0000
0000
0000
0000
0000
0033
0000
0000
0000
,
0110
0000
0100
0000
,
1000
0100
1000
0000
,
0001
1000
0001
1000
,
0001
1001
0000
0000
,
2020
0000
0000
0000
0000
0000
0000
0000
3030
0000
0000
0000
,
0202
0000
0000
0000
0000
0000
0000
0000
0303
0000
0000
0000
,
0220
0000
0000
0000
0000
0000
0000
0000
0330
0000
0000
0000
,
2002
0000
0000
0000
0000
0000
0000
0000
3003
0000
0000
0000
,
0220
0330
0000
0000
,
1000
0001
1000
0001
,
1000
0000
0000
0000
,
0001
1000
0001
1000
,
0002
0000
0000
0000
,
0000
0000
0000
0003
,
1001
0000
1000
0000
,
0001
0100
0001
0000
,
1000
0100
1000
0000
,
0001
0100
0001
0000
,
1000
0000
1000
0000
,
0001
0010
0001
0000
,
1000
0100
1000
0000
,
0001
0100
0001
0000
,
1001
0000
1000
0000
,
0010
0100
0010
0000
,
1000
0001
1000
0000
,
0001
0010
0001
0000
,
1000
0000
1000
0000
,
0001
0100
0001
0000
,
1000
0010
1000
0000
,
0001
0100
0001
0000
,
1001
0000
1000
0000
,
0010
0000
0010
0000
,
0100
0000
0100
0000
,
0001
0000
0001
1000
,
0001
1000
0001
1000
,
0001
1000
0001
1000
,
0002
0000
0000
0003
,
0220
0000
0000
0000
0000
0000
0000
0000
0330
0000
0000
0000
,
1001
0000
0000
0000
;

//---------------dance-single - ----------------
#NOTES:
     dance-single:
     :
     Beginner:
     3:
     0.302,0.416,0.313,0.000,0.000:
0000
0000
0000
0000
,
0000
0000
0000
0000
,
1000
0000
0000
0000
,
0001
0000
0000
0000
,
0100
0000
0000
0000
,
0110
0000
0000
0000
,
0010
0000
0000
0000
,
1000
0000
0000
0000
,
0001
0000
0000
0000
,
0100
0000
0000
0000
,
0010
0000
0000
0000
,
1000
0000
0000
0000
,
0001
0000
0000
0000
,
1001
0000
0000
0000
,
1000
0000
1000
0000
,
0001
0000
0001
0000
,
1000
0000
1000
0000
,
0001
0000
0001
0000
,
0100
0000
0100
0000
,
0010
0000
0010
0000
,
0110
0000
0000
0000
,
0110
0000
0000
0000
,
0100
0000
0100
0000
,
0010
0000
0010
0000
,
0100
0000
0100
0000
,
0010
0000
0010
0000
,
1000
0000
1000
0000
,
0001
0000
0001
0000
,
1001
0000
0000
0000
,
1001
0000
0000
0000
,
1001
0000
1000
0000
,
0001
0000
0001
0000
,
1000
0000
1000
0000
,
0001
0000
0000
0000
,
1001
0000
0001
0000
,
1000
0000
1000
0000
,
1001
0000
0000
0000
,
0110
0000
0000
0000
,
1001
0000
1000
0000
,
0001
0000
0001
0000
,
1000
0000
1000
0000
,
0001
0000
0000
0000
,
1001
0000
0000
0000
,
1001
0000
0000
0000
,
0110
0000
0000
0000
,
0110
0000
0000
0000
,
1001
0000
0000
0000
,
0001
0000
0001
0000
,
0000
0000
0000
0000
,
0001
0000
0001
0000
,
0001
0000
0000
0000
,
0000
0000
0000
0000
,
1001
0000
1000
0000
,
0010
0000
0010
0000
,
0100
0000
0100
0000
,
0001
0000
0001
0000
,
1000
0000
1000
0000
,
0010
0000
0010
0000
,
0100
0000
0100
0000
,
0001
0000
0001
0000
,
1000
0000
1000
0000
,
0001
0000
0001
0000
,
0100
0000
0100
0000
,
0010
0000
0010
0000
,
1000
0000
1000
0000
,
0001
0000
0001
0000
,
0100
0000
0100
0000
,
0010
0000
0010
0000
,
0110
0000
0000
0000
,
0100
0000
0000
0000
,
0100
0000
0000
0000
,
0100
0000
0100
0000
,
0001
0000
0001
0000
,
1000
0000
1000
0000
,
0001
0000
0001
0000
,
1001
0000
0000
0000
,
1001
0000
0000
0000
;
