#VERSION:0.81;
#TITLE:灼熱Beach Side Bunny;
#SUBTITLE:;
#ARTIST:DJ Mass MAD Izm*;
#TITLETRANSLIT:Shakunetsu Beach Side Bunny;
#SUBTITLETRANSLIT:;
#ARTISTTRANSLIT:;
#GENRE:;
#ORIGIN:;
#CREDIT:;
#BANNER:[Beat the Heat] - Shakunetsu Beach Side Bunny-bn.png;
#BACKGROUND:[Beat the Heat] - Shakunetsu Beach Side Bunny-bg.png;
#PREVIEWVID:;
#JACKET:[Beat the Heat] - Shakunetsu Beach Side Bunny-jacket.png;
#CDIMAGE:;
#DISCIMAGE:;
#LYRICSPATH:;
#CDTITLE:cdtitle.png;
#MUSIC:[Beat the Heat] - Shakunetsu Beach Side Bunny.ogg;
#OFFSET:-0.392;
#SAMPLESTART:31.762;
#SAMPLELENGTH:13.000;
#SELECTABLE:YES;
#BPMS:0.000=153.000;
#STOPS:;
#DELAYS:;
#WARPS:;
#TIMESIGNATURES:0.000=4=4;
#TICKCOUNTS:0.000=4;
#COMBOS:0.000=1;
#SPEEDS:0.000=1.000=0.000=0;
#SCROLLS:0.000=1.000;
#FAKES:;
#LABELS:0.000=Song Start;
#BGCHANGES:;
#KEYSOUNDS:;
#ATTACKS:
;

//---------------dance-single - ----------------
#NOTEDATA:;
#CHARTNAME:;
#STEPSTYPE:dance-single;
#DESCRIPTION:;
#CHARTSTYLE:;
#DIFFICULTY:Hard;
#METER:9;
#RADARVALUES:0.651,0.623,0.469,0.000,0.276,497.000,57.000,0.000,0.000,0.000,0.000,0.000,0.000,0.651,0.623,0.469,0.000,0.276,497.000,57.000,0.000,0.000,0.000,0.000,0.000,0.000;
#CREDIT:;
#NOTES:
0000
0000
0000
0000
,
0000
0000
0000
0000
,
0000
0000
0000
0000
,
0000
0000
0000
0000
,
1000
0000
0001
0000
0100
0000
0000
0000
0010
0000
1000
0001
0000
0000
1000
0000
,
0100
0000
0000
0000
0010
0000
0001
0000
0100
0000
0010
1000
0000
0000
0001
0000
,
1000
0000
0100
0000
0010
0000
0001
0000
0100
0000
0001
1000
0000
0000
0100
0000
,
0010
0000
0001
0010
1000
0010
0100
1000
,
0010
0000
0100
0000
0001
0000
1000
0000
0100
0000
0010
0100
0000
0000
0010
0000
,
0001
0000
0000
0000
1000
0000
0010
0000
1000
0000
0100
0010
0000
0000
0100
0000
,
1000
0010
0100
0001
0000
0000
1000
0100
0010
0001
0000
0000
,
1000
0010
0100
0001
0010
0100
1000
0010
0100
0001
0000
0000
,
1000
0000
0000
0000
1100
0000
0000
0000
0101
0000
0000
0001
0000
0000
0010
0000
,
0001
0000
0000
0000
0011
0000
0000
0000
1010
0000
0000
1000
0000
0000
0100
0000
,
1000
0000
0000
0000
1010
0000
0000
0000
0110
0000
0000
0100
0000
0000
0001
0000
,
1000
0000
0000
0000
1100
0000
0000
0000
0110
0000
0000
0010
0000
0000
0001
0000
,
1000
0000
0010
0000
0100
0000
0001
0000
0010
0000
0000
0011
0000
0000
0001
0000
,
1000
0000
1000
0000
1000
0000
0000
0000
0101
0000
0000
1001
0000
0000
1000
0000
,
0100
0000
0001
0000
0100
0000
1000
0000
0010
0000
0000
0110
0000
0000
0100
0000
,
0001
0010
0001
0100
0010
1000
0100
0000
,
0010
0000
0001
0000
1000
0000
0000
0000
1010
0000
0000
0101
0000
0000
0001
0000
,
0010
0000
0100
0000
1000
0000
0000
0000
1010
0000
0000
0101
0000
0000
0001
0000
,
1000
0000
0100
0000
0010
0000
0000
0000
0011
0000
0000
0101
0000
0000
0010
0000
,
1000
0100
0001
0100
1000
0010
0100
0001
,
0010
0000
0100
0000
1000
0000
0000
0000
1100
0000
0000
0011
0000
0000
0001
0000
,
1000
0000
0010
0000
0100
0000
0000
0000
0101
0000
0000
0011
0000
0000
0001
0000
,
1000
0000
0000
0000
0010
0000
0100
0000
0101
0000
0000
1001
0000
0000
1000
0000
,
0001
0010
1000
0010
0001
0100
0010
0000
,
1000
0100
1000
0001
1000
0010
0110
0000
,
0100
0001
0001
1000
0001
0010
0110
0000
,
0010
0001
0010
0100
1000
0010
1010
1000
,
0001
0100
0001
0010
0100
1000
1001
0000
,
0001
0100
0001
1000
0001
0010
0110
0000
,
0100
1000
1000
0001
1000
0100
0110
0000
,
0010
0001
0100
0010
1000
0100
1100
0000
,
1000
0000
0010
0000
0100
0000
0001
0000
0010
0100
0010
0100
0010
0100
0010
0100
,
0010
0000
0000
0000
0010
0000
0000
0000
0011
0000
0000
1001
0000
0000
1000
0000
,
0010
0000
0000
0000
0010
0000
0000
0000
1010
0000
0000
0101
0000
0000
0001
0000
,
0100
0000
0000
0000
0100
0000
0000
0000
0101
0000
0000
1001
0000
0000
1000
0000
,
0100
0000
0100
0010
0100
1000
0010
0100
,
0001
0000
0001
0000
0001
0000
0001
0000
0100
0000
0000
0101
0000
0000
0001
0000
,
1000
0000
0000
0000
1001
0000
0000
0000
1100
0000
0000
0011
0000
0000
0101
0000
,
0001
0000
0000
0000
1000
0000
0100
0000
0010
0000
0000
0011
0000
0000
0001
0000
,
1000
0010
0001
0010
0100
0001
1000
0000
,
0001
0010
0100
0010
0001
1000
0000
0001
,
0100
1000
0100
0001
0010
0100
0000
1000
,
0001
0100
1000
0100
0001
1000
0000
0001
,
0010
0100
1000
0010
0001
0010
1000
0100
,
1000
0010
0100
0001
0010
0100
1000
0010
,
0100
0001
1000
0100
0010
0001
0100
0001
,
1000
0010
0100
0001
0010
0100
1000
0010
,
0100
0001
1000
0100
0010
0100
1000
0000
,
0001
0000
0100
0000
0010
0000
0100
0000
0001
0000
0000
0101
0000
0000
0100
0000
,
0001
0000
1000
0000
0100
0000
0010
0000
0100
0000
0000
1100
0000
0000
1000
0000
,
0010
0000
0100
0000
0001
0000
1000
0000
0100
0000
0000
0110
0000
0000
0010
0000
,
0001
0000
1000
0010
1000
0100
0010
0001
,
1000
0000
0010
0000
0100
0000
0010
0000
1000
0000
0000
1010
0000
0000
0010
0000
,
0100
0000
0001
0000
1000
0000
0100
0000
0010
0000
0000
0011
0000
0000
0001
0000
,
1000
0000
0010
0000
0100
0000
0001
0000
0010
0000
0000
0110
0000
0000
0100
0000
,
1000
0000
0001
0100
0001
0010
0100
0000
,
1000
0000
0000
0000
1000
0000
0000
0000
0001
0000
0000
0101
0000
0000
0001
0000
,
0010
0000
0000
0000
0010
0000
0000
0000
0100
0000
0000
1100
0000
0000
1000
0000
,
0001
0000
0000
0000
0001
0000
0000
0000
1000
0000
0000
1010
0000
0000
0010
0000
,
0100
0000
0000
0000
0100
0000
0000
0000
0010
0000
0000
1010
0000
0000
1000
0000
,
0001
0000
0010
0000
0100
0000
1000
0000
0010
0000
0100
0001
0000
1000
0000
0001
,
1000
0000
0100
0000
0010
0000
0001
0000
1000
0000
0010
0100
0000
0001
0000
1000
,
0001
0000
0010
0000
0100
0000
1000
0000
0010
0000
0100
0001
0000
1000
0000
0001
,
1000
0100
1000
0010
0100
0001
1000
0000
,
0001
0000
0100
0000
0001
0000
1000
0000
0100
0000
0000
1100
0000
0000
1000
0000
,
0010
0000
0000
0000
1000
0000
0100
0000
0010
0000
0000
0011
0000
0000
0001
0000
,
1000
0000
0000
0000
0001
0000
0010
0000
0100
0000
0000
1100
0000
0000
1000
0000
,
0010
0000
1000
0100
0001
0100
1000
0010
,
0100
0000
0001
0000
1000
0000
0001
0000
0010
0000
0100
1000
0000
0100
1000
0000
,
0001
0000
0100
0000
0010
0000
0100
0000
0001
0000
1000
0100
0000
1000
0100
0000
,
0010
0000
0001
0000
0100
0000
0010
0000
1000
0000
0001
0010
0000
0001
0010
0000
,
0100
0000
1000
0000
0010
0000
0100
0000
0001
0000
0000
1001
0000
0000
0000
0000
;

//---------------dance-single - ----------------
#NOTEDATA:;
#CHARTNAME:;
#STEPSTYPE:dance-single;
#DESCRIPTION:;
#CHARTSTYLE:;
#DIFFICULTY:Challenge;
#METER:10;
#RADARVALUES:0.832,0.809,1.000,0.000,0.296,464.000,244.000,0.000,0.000,0.000,0.000,0.000,0.000,0.832,0.809,1.000,0.000,0.296,464.000,244.000,0.000,0.000,0.000,0.000,0.000,0.000;
#CREDIT:;
#NOTES:
// measure 0
0000
0000
0000
0000
,  // measure 1
0000
0000
0000
0000
,  // measure 2
0000
0000
0000
0000
,  // measure 3
0000
0000
0000
0000
,  // measure 4
1000
0000
0001
0000
0100
0000
0000
0000
0101
0000
0000
1010
0000
0000
1001
0000
,  // measure 5
0001
0000
0000
0000
1000
0000
0000
0000
1100
0000
0000
0011
0000
0000
0101
0000
,  // measure 6
0001
0000
0000
0000
1000
0000
0000
0000
1100
0000
0000
0011
0000
0000
0101
0000
,  // measure 7
0100
0000
0010
1000
0010
0100
0001
0000
,  // measure 8
1100
0000
0000
0000
1100
0000
0000
0000
1001
0000
0000
0101
0000
0000
1010
0000
,  // measure 9
0011
0000
0000
0000
0011
0000
0000
0000
1001
0000
0000
1100
0000
0000
0101
0000
,  // measure 10
0001
0010
0100
1000
0000
0000
0001
0100
0010
1000
0000
0000
,  // measure 11
0001
0010
0001
0010
0100
0010
0100
1000
0100
1000
0000
0000
,  // measure 12
1001
0000
0000
0000
1001
0000
0000
0000
1010
0000
0000
0101
0000
0000
1001
0000
,  // measure 13
1100
0000
0000
0000
1100
0000
0000
0000
0011
0000
0000
0101
0000
0000
1010
0000
,  // measure 14
0110
0000
0000
0000
0110
0000
0000
0000
0101
0000
0000
1010
0000
0000
1100
0000
,  // measure 15
0011
0000
0000
0000
0011
0000
0010
0000
0100
0000
0000
1100
0000
0000
1001
0000
,  // measure 16
0001
0000
1000
0000
0100
0000
0010
0000
0011
0000
0000
1100
0000
0000
1010
0000
,  // measure 17
0010
0000
0010
0000
0110
0000
0000
0000
0101
0000
0000
1010
0000
0000
1001
0000
,  // measure 18
0001
0000
0010
0000
0100
0000
1000
0000
1010
0000
0000
0101
0000
0000
0011
0000
,  // measure 19
0010
0001
0010
0100
1000
0010
1010
0000
,  // measure 20
0100
0000
0001
0000
1001
0000
0000
0000
1100
0000
0000
1100
0000
0000
0011
0000
,  // measure 21
0001
0000
1000
0000
1010
0000
0000
0000
0110
0000
0000
0110
0000
0000
0101
0000
,  // measure 22
0001
0000
1000
0000
1100
0000
0000
0000
0011
0000
0000
0011
0000
0000
1001
0000
,  // measure 23
1000
0000
0010
0000
1000
0000
0100
0000
0110
0000
0000
0011
0000
0000
1001
0000
,  // measure 24
1000
0000
0010
0000
0110
0000
0000
0000
0101
0000
0000
0101
0000
0000
1010
0000
,  // measure 25
1000
0000
0100
0000
0110
0000
0000
0000
0011
0000
0000
0011
0000
0000
1100
0000
,  // measure 26
1000
0000
0001
0000
0101
0000
0000
0000
1010
0000
0000
1010
0000
0000
1001
0000
,  // measure 27
0001
0010
0001
0100
0010
1000
1010
0000
,  // measure 28
1000
0100
0110
0010
0001
1000
1010
0000
,  // measure 29
0110
0100
0001
1001
1000
0100
1100
0000
,  // measure 30
0011
0010
0001
0101
0100
0001
1001
1000
,  // measure 31
1100
1000
0010
0110
0100
0001
0101
0000
,  // measure 32
1001
1000
0100
0011
0001
0100
1010
0000
,  // measure 33
1100
0010
0001
0101
0010
0100
1001
0000
,  // measure 34
0011
0010
0100
1001
0001
0100
1010
0000
,  // measure 35
1001
0000
1001
0000
1001
0000
1001
0000
0001
0100
0001
0100
0010
1000
0010
1000
,  // measure 36
1001
0000
0000
0000
0011
0000
0000
0000
1100
0000
0000
1100
0000
0000
1001
0000
,  // measure 37
0101
0000
0000
0000
0110
0000
0000
0000
1010
0000
0000
1010
0000
0000
1100
0000
,  // measure 38
0011
0000
0000
0000
1001
0000
0000
0000
0110
0000
0000
0110
0000
0000
1010
0000
,  // measure 39
1001
0000
0000
0000
0101
0000
0001
0000
1001
0000
0000
1100
0000
0000
0011
0000
,  // measure 40
0101
0000
0101
0000
0101
0000
0101
0000
1001
0000
0000
1010
0000
0000
0110
0000
,  // measure 41
0101
0000
0000
0000
1100
0000
0000
0000
1010
0000
0000
0101
0000
0000
0011
0000
,  // measure 42
0110
0000
0000
0000
1100
0000
0000
0000
1001
0000
0000
1001
0000
0000
1010
0000
,  // measure 43
0101
0001
1001
1000
0100
0010
0011
0000
,  // measure 44
1010
0000
1000
0000
0101
0000
0001
0000
0011
0000
0000
0101
0000
0000
1010
0000
,  // measure 45
0110
0000
0100
0000
0101
0000
0001
0000
1001
0000
0000
1100
0000
0000
0011
0000
,  // measure 46
0101
0000
0001
0000
0011
0000
0010
0000
1100
0000
0000
1001
0000
0000
0101
0000
,  // measure 47
1010
0000
1000
0000
1001
0000
0001
0000
0011
0000
0000
1001
0000
0000
1010
0000
,  // measure 48
0110
0100
0001
1001
1000
0011
0001
0100
,  // measure 49
0110
0010
0100
0101
0001
1010
1000
0100
,  // measure 50
0011
0001
1000
1010
0001
0101
1000
0001
,  // measure 51
0011
0010
0100
1010
1000
0010
0100
0010
,  // measure 52
1000
0000
0100
0000
0010
0000
0000
0000
0011
0000
0000
0101
0000
0000
0110
0000
,  // measure 53
0010
0000
0100
0000
0001
0000
0000
0000
1001
0000
0000
1100
0000
0000
0011
0000
,  // measure 54
0001
0000
1000
0000
0010
0000
0000
0000
0110
0000
0000
0101
0000
0000
1001
0000
,  // measure 55
1000
0000
0000
0000
0001
0000
0100
0000
1010
0000
0000
1100
0000
0000
0011
0000
,  // measure 56
0001
0000
0100
0000
0010
0000
0000
0000
1010
0000
0000
1001
0000
0000
0101
0000
,  // measure 57
0001
0000
1000
0000
0100
0000
0000
0000
0110
0000
0000
0011
0000
0000
1100
0000
,  // measure 58
1000
0000
0010
0000
0100
0000
0000
0000
0101
0000
0000
1001
0000
0000
1010
0000
,  // measure 59
0010
0000
0000
0000
1000
0000
0100
0000
0011
0000
0000
1001
1000
0000
0000
0000
,  // measure 60
1010
0000
0000
0000
0101
0000
0000
0000
1001
0000
0000
1001
0000
0000
1100
0000
,  // measure 61
0011
0000
0000
0000
0101
0000
0000
0000
0110
0000
0000
0110
0000
0000
1010
0000
,  // measure 62
1100
0000
0000
0000
0011
0000
0000
0000
1001
0000
0000
1001
0000
0000
0101
0000
,  // measure 63
1100
0000
0000
0000
0110
0000
0000
0000
0011
0000
0000
0011
0000
0000
0101
0000
,  // measure 64
0001
0000
0010
0000
0100
0000
1000
0000
0010
0000
0100
0001
0000
1001
0000
1000
,  // measure 65
0100
0000
0010
0000
0001
0000
0100
0000
0010
0000
1000
0100
0000
1100
0000
1000
,  // measure 66
0001
0000
0100
0000
0010
0000
1000
0000
0100
0000
0010
0001
0000
1001
0000
1000
,  // measure 67
0010
0110
0101
1010
,  // measure 68
1000
0000
0100
0000
1000
0000
0000
0000
1010
0000
0000
0110
0000
0000
0101
0000
,  // measure 69
0001
0000
0010
0000
0001
0000
0000
0000
1010
0000
0000
1100
0000
0000
0011
0000
,  // measure 70
0001
0000
1000
0000
0001
0000
0000
0000
0011
0000
0000
0110
0000
0000
1100
0000
,  // measure 71
1000
0001
1000
0010
0100
0001
0010
0100
,  // measure 72
0010
0000
0001
0000
1001
0000
0000
0000
1010
0000
0000
1010
0000
0000
0101
0000
,  // measure 73
0001
0000
1000
0000
1100
0000
0000
0000
0011
0000
0000
0011
0000
0000
1001
0000
,  // measure 74
1000
0000
0010
0000
0110
0000
0000
0000
0101
0000
0000
0101
0000
0000
1001
0000
,  // measure 75
1000
0000
0100
0000
1000
0000
0010
0000
0110
0000
0000
0101
0000
0000
0000
0000
;

//---------------dance-single - ----------------
#NOTEDATA:;
#CHARTNAME:;
#STEPSTYPE:dance-single;
#DESCRIPTION:;
#CHARTSTYLE:;
#DIFFICULTY:Medium;
#METER:7;
#RADARVALUES:0.502,0.467,0.329,0.000,0.025,387.000,40.000,0.000,0.000,0.000,0.000,0.000,0.000,0.502,0.467,0.329,0.000,0.025,387.000,40.000,0.000,0.000,0.000,0.000,0.000,0.000;
#CREDIT:;
#NOTES:
0000
0000
0000
0000
,
0000
0000
0000
0000
,
0000
0000
0000
0000
,
0000
0000
0000
0000
,
0001
0100
0010
0000
1000
0000
0001
0000
,
1000
0000
0100
1000
0010
0000
0010
0000
,
0100
0001
1000
0000
0100
0000
0100
0000
,
0010
0000
0001
0010
0100
0000
1000
0000
,
0001
0100
0001
0000
1000
0000
1100
0000
,
1000
0000
0001
0100
0010
0000
1010
0000
,
1000
0000
0000
1000
0100
0000
0000
0000
0010
0000
0000
0010
0001
0000
0000
0000
,
1000
0000
0000
1000
0010
0000
0000
0010
0100
0000
0000
0100
0001
0000
0000
0000
,
1000
1000
1100
0101
,
0001
0001
0101
1100
,
1000
1000
1010
0011
,
0001
0000
0001
0100
0010
0000
1010
0000
,
1000
0100
0010
0000
0100
0000
1000
0001
,
0100
0010
0100
0000
0010
0000
1000
0100
,
0010
0000
0001
0000
0100
0000
0010
1000
,
0100
0000
0010
0100
1000
0000
1000
0000
,
0001
0100
0010
1000
0001
0000
0001
0000
,
1000
0100
1000
0000
0010
0000
0100
0000
,
0001
0010
0100
1000
0001
0000
0001
0000
,
1000
0010
1000
0010
0100
0000
0001
0000
,
1000
0100
0010
0001
1000
0000
1000
0000
,
0001
0100
0001
0000
0010
0000
0100
0000
,
1000
0010
0100
0001
1000
0000
1000
0000
,
0001
0100
0010
0100
0001
0000
1001
0000
,
1000
0100
0010
0000
0001
0000
1001
0000
,
1000
0010
0100
0001
0010
0000
1100
0000
,
1000
0010
1000
0100
0010
0000
0011
0000
,
0001
0100
0001
0010
0100
0000
1100
0000
,
1000
0010
0100
0000
0001
0000
1001
0000
,
1000
0100
1000
0001
0100
0000
1010
0000
,
1000
0001
1000
0010
0100
0000
0101
0000
,
0001
0010
0100
1000
0001
0010
0100
1000
,
0001
0001
1000
1010
,
0010
0010
0100
0101
,
0001
0001
0010
0110
,
0100
0000
1000
0100
0010
0000
0001
0000
,
1000
0010
1000
0010
1000
0000
1010
1000
,
0001
0101
1010
1001
,
1000
0000
0001
0010
0100
0000
0100
0000
,
1000
0010
0100
0001
0010
0000
1100
0000
,
1000
0010
0100
0000
0010
1000
0100
0000
,
0010
0001
0100
0000
0010
0100
0001
0000
,
0010
0100
1000
0000
0010
0100
0001
0000
,
1000
0100
0010
0000
0001
0100
0010
0000
,
1000
0100
1000
0100
0010
0001
1000
0000
,
0001
0100
0001
0100
0010
1000
0001
0000
,
0010
0001
0010
0100
1000
0010
0100
0000
,
0010
1000
0010
0100
0001
1000
0100
1000
,
0010
0000
1000
0000
1001
0000
0001
0100
,
0010
0000
1000
0000
1001
0000
0001
0010
,
0100
0000
1000
0000
1001
0000
0001
0100
,
0010
0000
1000
0100
0010
0000
0001
0000
,
1000
0000
0010
0000
0110
0000
0100
0001
,
1000
0000
0010
0000
0110
0000
0100
0010
,
1000
0000
0100
0000
0110
0000
0010
0001
,
1000
0000
0010
0100
0001
0000
1001
0000
,
1000
0000
1000
0000
0001
0000
1000
0010
,
0100
0000
0100
0000
0001
0000
1000
0100
,
0010
0000
0010
0000
0001
0000
1000
0001
,
0100
0000
0100
0000
0010
0000
1000
0100
,
0010
0000
0001
0000
0010
0000
0100
1000
,
0001
0000
0100
0000
0001
0000
1000
0100
,
0010
0000
0001
0000
0010
0000
0100
1000
,
0001
0000
0100
0000
0001
0010
0100
0000
,
1000
0000
0001
0000
0101
0000
0100
0001
,
1000
0000
0100
0000
0011
0000
0001
0100
,
0010
0000
1000
0000
1001
0000
0001
0010
,
0100
0000
1000
0001
1000
0000
0010
0000
,
0100
0000
0001
0000
1001
0000
1000
0100
,
0010
0000
0001
0000
1001
0000
1000
0010
,
0100
0000
0001
0000
1001
0000
1000
0100
,
1000
0000
0000
0000
0010
0000
0000
0000
0110
0000
0000
1001
0000
0000
0000
0000
;

//---------------dance-single - ----------------
#NOTEDATA:;
#CHARTNAME:;
#STEPSTYPE:dance-single;
#DESCRIPTION:;
#CHARTSTYLE:;
#DIFFICULTY:Easy;
#METER:4;
#RADARVALUES:0.325,0.280,0.197,0.000,0.000,253.000,24.000,0.000,0.000,0.000,0.000,0.000,0.000,0.325,0.280,0.197,0.000,0.000,253.000,24.000,0.000,0.000,0.000,0.000,0.000,0.000;
#CREDIT:;
#NOTES:
0000
0000
0000
0000
,
0000
0000
0000
0000
,
0000
0000
0000
0000
,
0000
0000
0000
0000
,
0001
0100
0001
0000
,
1000
0010
1000
0000
,
0001
0010
0001
0000
,
1000
0100
1000
0001
,
1000
1000
0010
0000
,
1000
1000
0100
0000
,
0011
0000
0101
0000
,
1010
0000
1100
0000
,
1000
1000
0001
1000
,
0001
0001
1000
0001
,
0100
0100
0010
0100
,
0010
0010
0100
0010
,
1000
0100
1000
0000
,
0001
0001
0100
0001
,
1000
0010
1000
0000
,
0001
0010
0001
1000
,
0010
0010
0100
0001
,
0010
0010
0100
1000
,
0010
0010
0100
0001
,
1000
0001
1001
0000
,
0100
0100
0010
1000
,
0100
0100
0010
0001
,
0100
0100
0010
1000
,
0001
1000
1001
0000
,
0001
0100
0101
0000
,
1000
0100
1100
0000
,
0001
0100
0101
0000
,
1000
0100
1100
0000
,
0001
0010
0011
0000
,
1000
0010
1010
0000
,
0001
0010
0011
0000
,
1001
0000
0110
0000
,
0010
1000
0010
1000
,
0001
1000
0001
1000
,
0001
0010
0001
0010
,
0100
1000
0100
1000
,
0001
0001
1001
0000
,
1000
0010
1010
0000
,
1000
0100
1000
0100
,
0010
0001
1000
1001
,
0001
0001
0100
0000
,
0001
0001
0010
0000
,
0100
0100
1000
0000
,
0010
0010
1000
0000
,
1000
0100
1000
0100
,
1000
0001
1000
0001
,
1000
0010
1000
0010
,
0100
0001
0100
0001
,
1000
1000
0001
1000
,
0001
0001
1000
0001
,
0100
0100
0010
0100
,
0010
0010
0100
0010
,
1000
1000
0100
0010
,
0001
0001
0100
0010
,
1000
1000
0100
0010
,
0001
1000
1001
0000
,
0001
0001
0100
0001
,
1000
1000
0100
1000
,
0001
0001
0100
0001
,
1000
1000
0100
1000
,
0001
0100
0101
0000
,
1000
0100
1100
0000
,
0001
0010
0011
0000
,
1001
0000
0000
0000
,
1000
0010
0100
0100
,
0001
0010
0100
0100
,
0010
0001
0100
0100
,
0010
1000
0100
0100
,
1000
0010
0100
0001
,
0010
0100
1000
0010
,
0100
0001
1000
0100
,
0010
0001
1000
1001
;
