#TITLE:Playing With Fire;
#SUBTITLE:;
#ARTIST:kors k;
#TITLETRANSLIT:;
#SUBTITLETRANSLIT:;
#ARTISTTRANSLIT:;
#GENRE:;
#CREDIT:;
#BANNER:[Beat the Heat] - Playing With Fire.png;
#BACKGROUND:[Beat the Heat] - Playing With Fire-bg.png;
#LYRICSPATH:;
#CDTITLE:;
#MUSIC:[Beat the Heat] - Playing With Fire.mp3;
#OFFSET:-7.593;
#SAMPLESTART:73.580;
#SAMPLELENGTH:15.000;
#SELECTABLE:YES;
#BPMS:0.000=160.000
;
#STOPS:
;
#BGCHANGES:;
#KEYSOUNDS:;
#ATTACKS:;

//---------------dance-single - ----------------
#NOTES:
     dance-single:
     :
     Hard:
     9:
     0.682,0.644,0.195,0.185,0.498,450.000,20.000,19.000,0.000,0.000,0.000,0.682,0.644,0.195,0.185,0.498,450.000,20.000,19.000,0.000,0.000,0.000: // measure 0
1000
0000
0000
0000
0100
0000
1000
0000
0100
0000
0000
1000
0010
0000
1000
0000
,  // measure 1
0010
0000
0000
0100
0001
0000
0100
0000
0001
0000
0000
0010
0001
0000
0010
0000
,  // measure 2
0001
0000
0010
0000
0100
0000
1000
0000
0001
0000
0100
0001
1000
0010
1000
0010
,  // measure 3
0200
0000
0000
0000
0000
0000
0000
0000
0000
0000
0310
0000
0100
0010
1000
0000
,  // measure 4
1001
0000
1000
0000
0010
0000
1000
0000
0001
0000
0010
0001
0000
0001
0010
0000
,  // measure 5
0001
0000
0100
0000
0001
0000
0010
0000
0100
0000
1000
0000
0000
0010
0000
0000
,  // measure 6
0100
0000
0010
0000
1000
0000
0001
0000
0010
0000
0100
0010
0000
0010
0100
0000
,  // measure 7
0110
0000
0000
0000
1001
0000
1000
0100
0020
0000
0000
0000
0130
0000
0010
0000
,  // measure 8
0110
0000
0100
0000
1000
0000
0100
0000
0010
0000
0100
1000
0000
1000
0001
0000
,  // measure 9
0100
0000
0010
0000
1000
0000
0100
0000
0010
0000
0001
0000
0000
0001
0000
0000
,  // measure 10
1000
0000
0100
0000
2010
0000
0000
0000
3001
0000
0010
0001
0000
0001
0100
0000
,  // measure 11
0110
0000
0000
0010
0000
0000
0100
0000
0001
0000
1001
0000
0000
0110
0000
0000
,  // measure 12
1000
0010
0100
0010
1000
0100
0010
0001
,  // measure 13
0100
0010
0100
0001
0010
0100
1000
0100
,  // measure 14
0010
0000
0001
0000
0000
0010
0000
0000
0100
0000
0000
0010
0000
0000
0001
0000
,  // measure 15
0100
0000
0010
0000
0000
1000
0000
0000
0100
0000
0000
0010
0000
0000
0010
0000
,  // measure 16
0001
0100
1000
0100
0010
0100
1000
0100
,  // measure 17
0001
0010
1000
0010
0100
0010
1000
0010
,  // measure 18
0001
0000
0010
0001
0010
0000
0001
0100
0001
0000
1000
0010
0000
0010
0100
0000
,  // measure 19
0210
0000
0000
0000
0000
0000
0000
0000
0000
0000
0301
0000
0010
0100
1000
0000
,  // measure 20
1001
0010
0000
0001
0010
0000
1000
0100
,  // measure 21
0000
0001
0100
0000
1000
0010
0000
0001
,  // measure 22
0100
0000
0001
0010
0000
0100
1000
0000
,  // measure 23
0010
0100
0000
0001
1000
0000
0100
0010
,  // measure 24
0001
0010
0100
0010
0001
0010
0100
1000
,  // measure 25
0100
0010
0100
1000
0100
0010
0001
0000
,  // measure 26
1000
0100
0010
0001
1000
0010
0100
0001
,  // measure 27
0010
0100
0010
0001
0000
1000
0100
0010
,  // measure 28
0012
0000
0000
0200
0000
0000
0303
0000
,  // measure 29
2000
0000
0000
0100
0000
0010
3000
0100
,  // measure 30
0020
0100
2000
0000
0000
0000
3030
0001
,  // measure 31
1000
0010
1000
0010
0100
0001
0010
0100
,  // measure 32
2000
0000
0000
0002
0000
0000
3003
0000
,  // measure 33
0020
0000
0000
0100
0000
1000
0030
0100
,  // measure 34
2000
0100
0000
0002
0000
0000
3003
0000
,  // measure 35
0020
0000
0000
0032
0000
0000
0103
0000
0001
0000
0010
0000
0100
0000
1000
0000
,  // measure 36
1010
0000
0000
0010
0000
0000
1000
0000
0000
1000
0000
0000
0010
0000
0100
0000
,  // measure 37
0001
0000
0000
0001
0000
0000
0010
0000
0000
0010
0001
0000
0010
0000
0100
0000
,  // measure 38
1000
0000
0000
1000
0000
0000
0100
0000
0000
0100
0000
0000
1000
0000
0100
0000
,  // measure 39
0010
0000
0000
0010
0000
0000
0001
0000
0000
0001
0000
0000
0100
0000
0010
0000
,  // measure 40
0110
0000
0000
0010
0000
0000
0100
0000
0010
0000
0000
0010
0000
0000
0100
0000
,  // measure 41
1001
0000
0000
1000
0000
0000
0001
0000
1000
0000
0000
1000
0000
0000
0001
0010
,  // measure 42
0001
0000
0001
0010
0000
0010
0100
0000
1000
0010
0000
0100
0001
0010
0100
1000
,  // measure 43
0020
0000
0000
0000
0000
0000
0000
0000
0000
0000
1030
0000
0100
0010
0001
0000
,  // measure 44
1001
0000
0001
0100
0000
0100
0010
0000
1000
0100
0010
0000
0001
0100
0010
0000
,  // measure 45
1000
0000
1000
0010
0000
0010
0100
0000
0001
0000
0010
0001
0000
0100
0001
0000
,  // measure 46
1000
0000
1000
0010
0000
0010
0100
0000
0100
0001
0000
0001
0010
0000
0100
0000
,  // measure 47
0000
1000
0100
0010
0000
1000
0010
0100
0010
0000
0100
0001
0000
0001
0010
0000
,  // measure 48
0001
0000
0001
0010
0000
0010
0100
0000
0010
0001
0100
0000
0010
0100
0001
0000
,  // measure 49
1000
0000
1000
0100
0000
0100
0010
0000
0001
0000
0100
0001
0000
0010
0001
0000
,  // measure 50
1000
0000
1000
0010
0000
0010
0100
0000
0100
0001
0000
0001
0010
0000
0210
0000
,  // measure 51
0000
0000
1000
0000
0000
0000
0010
0000
0000
0000
1300
0000
0100
0010
0001
0000
,  // measure 52
1000
0000
1000
0010
0000
0010
0100
0000
0001
0010
0100
0000
0001
0100
0010
0000
,  // measure 53
1000
0000
0100
0010
0000
0001
0010
0000
0001
0000
0100
0010
0000
0010
1000
0000
,  // measure 54
0100
0000
0100
1000
0000
1000
0010
0000
0010
1000
0000
1000
0001
0000
0100
0000
,  // measure 55
0101
0000
0000
0000
1100
0000
1000
0100
0020
0000
0000
0000
0031
0000
0100
0000
,  // measure 56
0110
0010
1000
0010
0001
0010
0100
0001
,  // measure 57
0100
0000
1000
0000
0100
0000
0001
0000
0010
0000
0100
0010
0000
0100
1000
0000
,  // measure 58
0010
0100
0001
0010
1000
0010
0100
1000
,  // measure 59
0001
0010
0001
0100
0010
1000
0100
0010
0001
0000
0001
0010
0000
0010
0100
0000
,  // measure 60
1001
0000
0000
0000
;

//---------------dance-single - ----------------
#NOTES:
     dance-single:
     :
     Beginner:
     2:
     0.166,0.176,0.068,0.088,0.000,103.000,7.000,9.000,0.000,0.000,0.000,0.166,0.176,0.068,0.088,0.000,103.000,7.000,9.000,0.000,0.000,0.000:
1000
0000
1000
0000
,
0100
0000
0100
0000
,
0010
0000
0010
0000
,
0002
0000
0000
0003
,
0001
0000
0010
0000
,
0001
0000
0100
0000
,
0001
0000
1000
0000
,
0001
0000
0100
0000
,
1000
0000
0100
0000
,
1000
0000
0010
0000
,
1000
0000
0001
0000
,
2000
0000
0000
3000
,
1000
0000
1000
0000
,
0010
0000
0010
0000
,
0100
0000
0100
0000
,
0001
0000
0001
0000
,
0010
0000
0010
0000
,
1000
0000
1000
0000
,
0010
0000
0010
0000
,
0200
0000
0000
0300
,
0220
0000
0000
0000
,
0000
0000
0000
0000
,
0330
0000
0000
0000
,
0000
0000
0000
0000
,
2002
0000
0000
0000
,
0000
0000
0000
0000
,
3003
0000
0000
0000
,
1000
1000
1000
0000
,
1001
0000
0000
0000
,
0001
0000
0000
0000
,
0010
0000
0000
0000
,
0100
0000
0000
0000
,
0010
0000
0000
0000
,
1000
0000
0000
0000
,
0001
0000
0000
0000
,
0100
0000
0000
0000
,
0110
0000
0000
0000
,
0010
0000
0000
0000
,
0100
0000
0000
0000
,
0010
0000
0000
0000
,
1001
0000
0000
0000
,
1001
0000
0000
0000
,
0001
0001
0001
0001
,
0002
0000
0000
0003
,
1000
1000
1000
0000
,
0010
0010
0010
0000
,
0100
0000
0100
0000
,
0001
0000
0001
0000
,
0010
0010
0010
0000
,
0100
0100
0100
0000
,
0001
0000
0001
0000
,
2000
0000
0000
3000
,
1000
1000
1000
0000
,
0001
0001
0001
0000
,
0100
0100
0100
0000
,
0010
0010
0010
0000
,
0001
0001
0001
0000
,
0100
0100
0100
0000
,
0010
0000
0100
0000
,
1000
0000
0001
0000
,
1001
0000
0000
0000
;

//---------------dance-single - ----------------
#NOTES:
     dance-single:
     :
     Easy:
     4:
     0.321,0.351,0.117,0.303,0.000,187.000,12.000,31.000,0.000,0.000,0.000,0.321,0.351,0.117,0.303,0.000,187.000,12.000,31.000,0.000,0.000,0.000:
1000
1000
0100
0100
,
0010
0010
0001
0001
,
0010
0010
0100
0100
,
2002
0000
0000
3003
,
1000
0100
1000
0100
,
0001
0010
0001
0010
,
0001
0100
0001
0100
,
1000
0010
1000
0010
,
0100
0001
0100
0001
,
0010
1000
0010
1000
,
0100
2000
3100
1000
,
0020
0000
0000
0130
,
0001
0010
0100
1000
,
0001
0100
0010
1000
,
0002
0013
0020
0130
,
0200
1300
2000
3001
,
1000
0100
0010
0001
,
1000
0010
0100
0001
,
1000
1000
0001
0001
,
0220
0000
0000
0330
,
0002
0000
0023
0000
,
0230
0000
2300
0000
,
3020
0000
0230
0000
,
0302
0000
2003
3000
,
2002
0000
0000
0000
,
0000
0000
0000
0000
,
0000
0000
0000
3003
,
1000
0100
0010
0001
,
2001
0000
0000
0010
0000
0000
0000
0000
,
3020
0000
0000
0100
0000
0000
0000
0000
,
0230
0000
0000
0001
0000
0000
0000
0000
,
0302
0000
0000
0010
0000
0000
0000
0000
,
0023
0000
0000
0100
0000
0000
0000
0000
,
0230
0000
0000
1000
0000
0000
0000
0000
,
2300
0000
0000
0001
0000
0000
0000
0000
,
3002
0000
0000
1000
0000
0000
0003
0000
,
1001
0001
1000
0001
,
0100
0010
0100
0010
,
0001
1000
0001
1000
,
0010
0100
0010
0100
,
0110
0000
0110
0000
,
1001
0000
1001
0000
,
0001
0010
0100
1000
,
0220
0000
0000
0330
,
1001
1000
0100
1000
,
0001
0001
0010
0001
,
0100
0000
0000
0010
0000
0000
0100
0000
,
0010
0100
0010
0100
,
0001
0001
0100
0001
,
1000
1000
0010
1000
,
0010
0000
0000
0100
0000
0000
0010
0200
,
0000
0000
0000
0310
,
1000
0100
0010
0100
,
0001
0010
0100
0010
,
1000
0100
0001
0100
,
0001
0010
1000
0010
,
0001
0100
0010
0100
,
0001
0010
0100
1000
,
1000
0010
0100
0010
,
1000
0100
0010
0001
,
1001
0000
0000
0000
;

//---------------dance-single - ----------------
#NOTES:
     dance-single:
     :
     Medium:
     7:
     0.494,0.498,0.127,0.351,0.224,305.000,13.000,36.000,0.000,0.000,0.000,0.494,0.498,0.127,0.351,0.224,305.000,13.000,36.000,0.000,0.000,0.000:
1000
0000
0001
1000
0001
0000
0100
0010
,
0100
0000
1000
0001
1000
0000
0010
0100
,
0010
0000
1000
0100
0010
0001
0100
0010
,
0200
0000
0000
0310
,
1000
0000
0100
0000
1000
0000
0000
0000
0010
0000
0000
1000
0000
0000
0010
0000
,
1000
0000
0100
0000
1000
0000
0000
0000
1000
0000
0100
0000
0000
0010
0000
0000
,
0001
0000
0010
0000
0001
0000
0000
0000
0001
0000
0000
0100
0000
0000
0001
0000
,
0011
1100
0020
0130
,
1000
0000
0010
0000
1000
0000
0000
0000
0100
0000
0000
1000
0000
0000
0100
0000
,
1000
0000
0010
0000
1000
0000
0000
0000
1000
0000
0010
0000
0000
0100
0000
0000
,
0001
0010
0002
0000
0103
0010
0200
0000
,
0310
0000
0000
0100
0000
0000
0010
0000
1000
0000
2002
0000
0000
0000
3003
0000
,
0001
0010
0100
1000
0100
0010
0001
0000
,
0001
0100
0010
1000
0010
0100
0001
0000
,
1000
0000
0100
0000
0000
1000
0000
0000
0010
0000
0000
1000
0000
0000
0010
0000
,
0100
0000
0001
0000
0000
0100
0000
0000
0001
0000
0000
0010
0000
0000
0001
0000
,
0010
0001
0100
0001
0010
0100
1000
0000
,
1000
0010
0100
1000
0100
0010
0001
0000
,
1000
0000
0010
0000
0000
0100
0000
0000
0010
0000
0000
0100
0000
0000
0010
0000
,
0210
0000
0000
0301
,
2000
0000
3100
0200
0000
0310
0020
0000
,
0031
0002
0000
0103
0200
0000
0310
0020
,
0000
1030
2000
0000
3001
0002
0000
1003
,
2000
0000
3010
0020
0000
0130
0001
0000
,
2002
0000
0000
0000
,
0000
0000
0000
0000
,
0000
0000
0000
3003
,
1000
0100
0010
0001
0000
0010
0100
1000
,
2100
0000
0000
0020
0000
0000
3030
0000
,
0002
0000
0000
0200
0000
0000
0303
0000
,
2000
0000
0000
0200
0000
0000
3300
0000
,
0002
0000
0000
0010
0000
0000
0103
0000
,
0002
0000
0000
0200
0000
0000
0303
0000
,
2000
0000
0000
0020
0000
0000
3030
0000
,
0002
0000
0000
0020
0000
0000
0033
0000
,
2000
0000
0000
0010
0000
0000
0100
0000
0000
0010
0000
0000
3001
0000
0000
0000
,
0001
0000
0000
0001
0000
0000
0010
0000
0000
0100
0000
0000
0010
0000
0100
0000
,
1000
0000
0000
1000
0000
0000
0100
0000
0000
0100
0000
0000
0010
0000
0001
0000
,
0010
0000
0000
0100
0000
0000
0010
0000
0000
0100
0000
0000
0010
0000
0001
0000
,
1000
0000
0000
0001
0000
0000
1000
0000
0000
0001
0000
0000
1000
0000
0000
0000
,
0110
0000
0000
0100
0000
0000
0010
0000
0100
0000
0000
0100
0000
0000
0000
0000
,
1001
0000
0000
0001
0000
0000
1000
0000
0001
0000
0000
0001
0000
0000
0000
0000
,
1000
0000
0000
0100
0000
0000
0010
0000
0001
0000
0010
0000
0100
0000
1000
0000
,
2001
0000
0000
3010
,
0001
0000
0000
0010
0000
0000
0001
0000
0000
0100
0000
0000
0001
0000
0010
0000
,
0100
0000
0000
1000
0000
0000
0100
0000
0010
0000
0000
0010
0000
0000
0001
0000
,
1000
0000
0000
0100
0000
0000
0010
0000
0000
0100
0000
0000
1000
0000
0100
0000
,
0000
0000
1000
0000
0100
0000
0010
0000
0001
0000
0000
0010
0000
0000
0001
0000
,
0100
0000
0000
0010
0000
0000
0100
0000
0000
0001
0000
0000
0100
0000
0010
0000
,
1000
0000
0000
0100
0000
0000
1000
0000
0010
0000
0000
0100
0000
0000
0100
0000
,
0001
0000
0000
0010
0000
0000
0100
0000
0000
1000
0000
0000
0001
0000
2001
0000
,
0000
0000
0000
3100
,
0010
0001
0010
0100
0010
1000
0010
0000
,
0100
1000
0100
0010
0100
0001
0100
0000
,
1000
0000
0000
0100
0000
0000
0010
0000
0000
0001
0000
0000
0010
0000
0100
0000
,
0110
1001
0200
0301
,
1000
0100
0010
0001
1000
0010
0100
0001
,
1000
0000
0100
0000
0010
0000
0001
0000
1000
0000
0000
0010
0000
0000
0100
0000
,
0001
0010
0100
1000
0001
0100
0010
1000
,
0001
0010
0001
0000
1000
0100
1000
0000
0010
0000
0000
0100
0000
0000
0010
0000
,
1001
0000
0000
0000
;
