#VERSION:0.81;
#TITLE:Play with Fire;
#SUBTITLE:;
#ARTIST:The Qemists feat. Jenna G;
#TITLETRANSLIT:;
#SUBTITLETRANSLIT:;
#ARTISTTRANSLIT:;
#GENRE:;
#ORIGIN:;
#CREDIT:;
#BANNER:Play with Fire - The Qemists feat. Jenna Gbn.png;
#BACKGROUND:Play with Fire - The Qemists feat. Jenna Gbg.png;
#PREVIEWVID:;
#JACKET:;
#CDIMAGE:;
#DISCIMAGE:;
#LYRICSPATH:Play With Fire - The Qemists feat. Jenna G.lrc;
#CDTITLE:encorerebirth.png;
#MUSIC:Play with Fire - The Qemists feat. Jenna G.ogg;
#OFFSET:-0.039;
#SAMPLESTART:89.688;
#SAMPLELENGTH:17.944;
#SELECTABLE:YES;
#BPMS:0.000=107.000;
#STOPS:;
#DELAYS:;
#WARPS:;
#TIMESIGNATURES:0.000=4=4;
#TICKCOUNTS:0.000=4;
#COMBOS:0.000=1;
#SPEEDS:0.000=1.000=0.000=0;
#SCROLLS:0.000=1.000;
#FAKES:;
#LABELS:0.000=Song Start;
#BGCHANGES:;
#KEYSOUNDS:;
#ATTACKS:
;

//---------------dance-single - Spork!----------------
#NOTEDATA:;
#CHARTNAME:;
#STEPSTYPE:dance-single;
#DESCRIPTION:Spork!;
#CHARTSTYLE:;
#DIFFICULTY:Beginner;
#METER:2;
#RADARVALUES:0.127,0.132,0.074,0.050,0.000,93.000,9.000,6.000,0.000,0.000,0.000,0.000,0.000,0.127,0.132,0.074,0.050,0.000,93.000,9.000,6.000,0.000,0.000,0.000,0.000,0.000;
#CREDIT:Spork!;
#NOTES:
// measure 0
0000
0000
0000
0000
,  // measure 1
0000
0000
0000
0000
,  // measure 2
0000
0000
0000
0000
,  // measure 3
0000
0000
0000
0000
,  // measure 4
0001
0000
0001
0000
,  // measure 5
0001
0000
0000
0000
,  // measure 6
1000
0000
1000
0000
,  // measure 7
1000
0000
0000
0000
,  // measure 8
0100
0000
0100
0000
,  // measure 9
0010
0000
0010
0000
,  // measure 10
2002
0000
3003
0000
,  // measure 11
0100
0000
0000
0000
,  // measure 12
2002
0000
3003
0000
,  // measure 13
0010
0000
0000
0000
,  // measure 14
0001
0000
0001
0000
,  // measure 15
0000
0100
0000
0010
,  // measure 16
0010
0000
0010
0000
,  // measure 17
0000
1000
0000
0001
,  // measure 18
0001
0000
0010
0000
,  // measure 19
0000
0100
0000
1000
,  // measure 20
1000
0000
0010
0000
,  // measure 21
0000
1000
0000
0100
,  // measure 22
0000
0000
0200
0000
,  // measure 23
0310
0000
0000
0000
,  // measure 24
0001
0000
0001
0000
,  // measure 25
0001
0000
0110
0000
,  // measure 26
1000
0000
1000
0000
,  // measure 27
0001
0000
0000
0000
,  // measure 28
1001
0000
1001
0000
,  // measure 29
0100
0000
0000
0000
,  // measure 30
0010
0000
0010
0000
,  // measure 31
0010
0000
1000
0000
,  // measure 32
0001
0000
0010
0010
,  // measure 33
0010
0000
0100
0100
,  // measure 34
0100
0000
0010
0010
,  // measure 35
0010
0000
0100
0100
,  // measure 36
0000
0000
1000
1000
,  // measure 37
1000
0000
0001
0001
,  // measure 38
0001
0000
1000
1000
,  // measure 39
1000
0000
1000
0000
,  // measure 40
0001
0000
0001
0000
,  // measure 41
0000
0010
0000
0010
,  // measure 42
0010
0000
0001
0000
,  // measure 43
0000
1000
0000
1000
,  // measure 44
1000
0000
0010
0000
,  // measure 45
0000
0100
0000
0100
,  // measure 46
0100
0000
0001
0000
,  // measure 47
0000
0001
0000
0001
,  // measure 48
1001
0000
1001
0000
,  // measure 49
0010
0000
0010
0000
,  // measure 50
1001
0000
1001
0000
,  // measure 51
0100
0000
0100
0000
,  // measure 52
0020
0000
0000
0000
,  // measure 53
0000
0000
0030
0000
;

//---------------dance-single - Spork!----------------
#NOTEDATA:;
#CHARTNAME:;
#STEPSTYPE:dance-single;
#DESCRIPTION:Spork!;
#CHARTSTYLE:;
#DIFFICULTY:Easy;
#METER:3;
#RADARVALUES:0.187,0.199,0.215,0.083,0.000,123.000,26.000,10.000,0.000,0.000,0.000,0.000,0.000,0.187,0.199,0.215,0.083,0.000,123.000,26.000,10.000,0.000,0.000,0.000,0.000,0.000;
#CREDIT:Spork!;
#NOTES:
0000
0000
0000
0000
,
0000
0000
0000
0000
,
0000
0000
0000
0000
,
0000
0000
0000
0000
,
1000
0000
1000
0000
,
1000
0000
0010
0000
,
0001
0000
0001
0000
,
0001
0000
0100
0000
,
1000
0000
1000
0000
,
0001
1000
0001
0001
,
0101
0000
0011
0000
,
0001
0010
0100
0000
,
1100
0000
1010
0000
,
1000
0001
1000
1000
,
0002
0000
2003
0000
,
3000
1001
0000
1001
,
1000
0200
0000
0310
,
0000
0110
0000
0110
,
0100
2000
0001
3001
,
0000
0110
0000
1001
,
0001
0100
0010
1000
,
0000
1001
0000
0110
,
0000
0000
0010
0010
,
0010
0000
0010
0000
,
0011
0000
1010
0000
,
0011
0000
0001
0000
,
0101
0000
1100
0000
,
2000
0000
0000
3000
,
0001
0000
0001
0000
,
0020
0000
0000
0030
,
0100
0000
0100
0000
,
0100
0000
0010
0000
,
2100
0000
0000
0000
0000
0000
0100
0100
,
0000
0000
0000
0000
0000
0000
0010
0010
,
0000
0000
0000
0000
0000
0000
0001
0001
,
0000
0000
0000
3001
,
0000
0001
0100
0001
,
1000
0001
1000
0010
,
0100
0010
1000
0100
,
1000
0001
1000
1000
,
0001
0010
0100
0100
,
0000
1001
0000
1001
,
0001
0200
0000
0310
,
0000
0110
0000
0110
,
0100
0002
1000
1003
,
0000
1001
0000
0110
,
0010
1000
0001
0010
,
0000
0110
0000
1001
,
1000
0000
1000
0000
,
0001
0010
0100
1000
,
0001
0000
0001
0000
,
1000
0010
0100
0001
,
0002
0000
0000
0000
,
0000
0000
0003
0000
;

//---------------dance-single - Spork!----------------
#NOTEDATA:;
#CHARTNAME:;
#STEPSTYPE:dance-single;
#DESCRIPTION:Spork!;
#CHARTSTYLE:;
#DIFFICULTY:Medium;
#METER:6;
#RADARVALUES:0.282,0.265,0.074,0.066,0.050,222.000,9.000,8.000,0.000,0.000,0.000,0.000,0.000,0.282,0.265,0.074,0.066,0.050,222.000,9.000,8.000,0.000,0.000,0.000,0.000,0.000;
#CREDIT:Spork!;
#NOTES:
0000
0000
0000
0000
,
0000
0000
0000
0000
,
0000
0000
0000
0000
,
0000
0000
0000
1001
,
1000
0000
1000
0100
0010
0000
0010
0001
,
0100
0000
0100
0001
1000
0000
1000
0000
,
0001
0000
0001
0010
0100
0000
0100
1000
,
0010
0000
0010
1000
0001
0000
0001
0000
,
2000
0000
3002
0000
,
0103
0100
0100
0100
0010
1000
0100
0000
,
1000
0000
0000
1000
0000
0000
0000
0000
0001
0000
0000
0001
0000
0000
0000
0000
,
1000
0010
1000
0001
,
0010
0000
0000
0010
0000
0000
0000
0000
0100
0000
0000
0100
0000
0000
0000
0000
,
0010
0010
0010
0010
0100
1000
0010
0000
,
1000
0101
1000
1000
,
0001
0010
0100
0000
1000
0010
0100
0000
,
0001
0010
1000
0100
,
0001
0100
0010
0000
1000
0100
0010
0000
,
0001
1010
0001
0001
,
1000
0010
0100
0000
0001
0010
0100
0000
,
1000
0010
0001
0100
,
1000
0001
0100
0000
0100
0001
1000
0000
,
2000
0000
0100
0100
,
0000
0010
3000
1001
,
0001
0100
1000
0000
0001
0100
1000
0000
,
0001
0100
1000
0000
0100
0000
0001
0000
,
1000
0100
0001
0000
1000
0100
0001
0000
,
0200
0000
0000
0300
,
0010
0000
0000
0010
0000
0000
0000
0000
0100
0000
0000
0100
0000
0000
0000
0000
,
0020
0000
0000
0030
,
0001
0100
0001
0010
,
0001
0001
2000
3000
,
1001
0000
0000
1001
0000
0000
0000
0000
0001
0000
0000
0000
0010
0000
0010
0000
,
0001
0000
0100
0000
0010
0000
0010
0010
,
1000
0000
0000
1000
0000
0000
0000
0000
0001
0000
0000
0000
1000
0000
1000
0000
,
0010
0100
0001
0020
,
0030
0000
0000
0000
0001
0000
0100
0100
,
0010
1000
0100
1001
,
0010
0001
0100
0010
,
0010
0010
0010
0010
0100
0001
0010
0000
,
0001
0110
0001
1000
,
0010
1000
0100
0000
0010
0001
0100
0000
,
0010
1000
0000
1000
0000
1000
0001
0000
,
1000
0100
0010
0000
0001
0100
0010
0000
,
1000
0110
1000
0001
,
0010
0001
0100
0000
0010
1000
0100
0000
,
0010
0000
0001
0000
0001
1000
0100
0000
,
1000
0010
0100
0000
0001
0010
0100
0000
,
1000
0000
0000
1000
0000
0000
0000
0000
0001
0000
0000
0001
0000
0000
0000
0000
,
0001
0010
1000
0100
,
0001
0000
0000
0001
0000
0000
0000
0000
1000
0000
0000
1000
0000
0000
0000
0000
,
1000
0100
0001
0010
,
2000
0000
0000
0000
,
0000
0000
3000
0000
;

//---------------dance-single - Spork!----------------
#NOTEDATA:;
#CHARTNAME:;
#STEPSTYPE:dance-single;
#DESCRIPTION:Spork!;
#CHARTSTYLE:;
#DIFFICULTY:Hard;
#METER:9;
#RADARVALUES:0.519,0.486,0.479,0.165,0.347,362.000,58.000,20.000,0.000,0.000,0.000,0.000,0.000,0.519,0.486,0.479,0.165,0.347,362.000,58.000,20.000,0.000,0.000,0.000,0.000,0.000;
#CREDIT:Spork!;
#NOTES:
0000
0000
0000
0000
,
0000
0000
0000
0000
,
0000
0000
0000
0000
,
0000
0000
0000
1100
,
1000
0000
0000
1000
0010
0000
1000
0000
0100
0000
0000
0100
0010
0000
0001
0000
,
0100
0010
0000
0010
0100
0000
0001
0000
1000
0001
1000
0000
0001
0000
0000
0000
,
0100
0010
0000
0010
1000
0000
0100
0000
0010
0000
0010
0000
0010
0000
0001
0000
,
1000
0000
0000
1000
0010
0000
0100
0000
0001
1000
0001
0000
1000
0000
0001
0000
,
0200
0010
1000
0301
,
0011
0110
1100
1001
1000
0010
1010
0000
,
1001
0000
0100
0001
0000
0000
0000
0000
1001
0000
0001
1000
0010
0000
0010
0000
,
0200
0000
0000
0010
0000
0010
0000
0001
0000
0000
0300
0000
0001
0000
0010
0000
,
0110
0000
0001
1000
0000
0000
0000
0000
0110
0000
1000
0001
0100
0000
0100
0000
,
1010
0110
0101
1001
0001
0010
0011
0000
,
1000
0100
1100
0010
0001
0100
0110
0000
,
0000
0000
0100
0001
0020
0000
0000
0000
0030
0000
0001
0100
0020
0000
0000
0000
,
1030
1010
0001
0011
1000
0100
0110
0000
,
0000
0000
0100
1000
0010
0000
0010
0100
0001
0100
0010
0000
1000
0000
0000
0000
,
0001
0010
0011
0100
1000
0010
0110
0000
,
0000
0000
0010
1000
0200
0000
0000
0000
0300
0000
1000
0010
0200
0000
0000
0000
,
0301
0101
1000
1100
0001
0010
0110
0000
,
0000
0000
0010
0001
0100
0000
0100
0010
1000
0010
0100
0000
0001
0000
0000
0000
,
0200
0000
0000
0000
1000
0010
0301
0100
,
0000
0101
0000
0000
0002
0000
2000
0000
0000
0000
3003
0000
1001
0000
0000
0000
,
1000
0000
1000
0100
0001
0000
0100
0000
0001
0000
0001
0100
1000
0000
0100
0000
,
0010
0000
0010
0001
1000
0000
0001
1000
0001
0010
0100
1000
0001
0000
0000
0000
,
0001
0000
0001
0100
1000
0000
0100
0000
1000
0000
1000
0100
0001
0000
0010
0000
,
0200
0000
0000
0010
0000
0010
0000
1000
0000
0000
0300
0000
0001
0000
0000
0000
,
1000
0010
0000
1001
0000
0000
0000
0000
0001
0010
0000
1001
0000
0000
0000
0000
,
0200
0000
0000
0010
0000
0010
0000
1000
0000
0000
0300
0000
1000
0000
0000
0000
,
0001
0100
0000
0100
0001
0000
0010
0000
0100
1000
0000
1000
0100
0000
0010
0000
,
0001
1000
0000
1000
0001
0000
1000
0001
2000
0000
0000
0000
3000
0000
0000
0000
,
1010
0000
0000
0011
0000
0000
0000
0000
0100
0000
0000
0001
1000
0000
1000
0000
,
0100
0000
1000
0000
0010
0000
0100
0000
0010
1000
0010
0000
0100
0000
0100
0000
,
0101
0000
0000
1100
0000
0000
0000
0000
0010
0000
0000
1000
0100
0000
0100
0000
,
0010
0100
0000
0100
1000
0000
0001
0000
1000
0001
1000
0000
0020
0000
0000
0000
,
0030
1000
0100
0010
0000
0000
0000
0000
0010
0000
0000
0001
0100
0000
0100
0000
,
0001
0000
0010
0000
0100
0000
1000
0000
0001
1000
0001
0000
0100
0000
0001
0000
,
0011
0000
0000
1100
0000
0000
0000
0000
0010
0000
0000
0100
0001
0000
0001
0000
,
0011
1001
1010
0110
0100
0001
0101
0000
,
0010
0001
0011
0100
1000
0010
1010
0000
,
0000
0000
1000
0001
0020
0000
0000
0000
0030
0000
0001
1000
0020
0000
0000
0000
,
1030
1100
0001
0101
0010
0100
1001
1000
,
0000
0000
0010
1000
0100
0000
0100
0010
0001
0010
0100
0000
1000
0000
0000
0000
,
0010
1000
1100
0010
0001
0100
0101
0001
,
0000
0000
0001
1000
0200
0000
0000
0000
0300
0000
1000
0001
0200
0000
0000
0000
,
0301
0011
1000
1010
0100
0010
1001
0001
,
0000
0000
0010
0001
0100
0000
0100
0010
1000
0010
0100
0000
0001
0000
0000
0000
,
1000
0100
0000
0110
0000
0000
1000
0000
0001
0100
0000
0110
0000
0000
0001
0000
,
0010
0001
0101
0010
1000
0100
0110
0010
,
0001
0010
0000
1001
0000
0000
0001
0000
1000
0010
0000
1001
0000
0000
1000
0000
,
0100
1000
1010
0100
0001
0010
0110
0010
,
0002
0000
0203
0000
,
2300
0000
3000
0000
;

//---------------dance-double - Spork!----------------
#NOTEDATA:;
#CHARTNAME:;
#STEPSTYPE:dance-double;
#DESCRIPTION:Spork!;
#CHARTSTYLE:;
#DIFFICULTY:Easy;
#METER:4;
#RADARVALUES:0.230,0.221,0.256,0.149,0.000,146.000,31.000,18.000,0.000,0.000,0.000,0.000,0.000,0.230,0.221,0.256,0.149,0.000,146.000,31.000,18.000,0.000,0.000,0.000,0.000,0.000;
#CREDIT:Spork!;
#NOTES:
00000000
00000000
00000000
00000000
,
00000000
00000000
00000000
00000000
,
00000000
00000000
00000000
00000000
,
00000000
00000000
00000000
00000000
,
20000000
00000000
32000000
00000000
,
03020000
00000000
00031000
00011000
,
00002000
00000000
00003200
00000000
,
00000302
00000000
00001003
00001001
,
00000020
00000000
00000230
00000000
,
00000301
00001000
00010000
10000000
,
10010000
00000000
01001000
00000000
,
00100000
00001000
00010000
00000000
,
00001001
00000000
00010100
00000000
,
10000000
00010000
00001000
00000001
,
00000100
00000100
00000010
00000100
,
00000000
00000101
00000000
00001100
,
00000100
00010000
00001000
01000000
,
00000000
00110000
00000000
10100000
,
01000000
01000000
00100000
01000000
,
00000000
11000000
00000000
01010000
,
01000000
00001000
00010000
00000100
,
00000000
00001010
00000000
00000011
,
00000002
00000000
00001000
00001003
,
00000000
00000001
00000100
00001001
,
00000000
00000001
00000001
00000000
00000000
00000010
00000010
00000000
,
00000000
00000100
00000100
00000000
00010000
00000000
00001000
00000000
,
00000000
01000000
01000000
00000000
00000000
00100000
00100000
00000000
,
10000000
00000000
00010000
00000000
,
01100000
00000000
01100000
00000000
,
00010000
00000000
00001000
00000000
,
00022000
00000000
00000000
00000000
,
00000000
00000000
00033000
00000000
,
00001000
00000001
00000100
00000101
,
00000100
00001000
00010000
00011000
,
00001000
00010000
01000000
11000000
,
01000000
10000000
00010000
02000000
,
03000000
00100000
00010000
00110000
,
00100000
00010000
00001000
00002000
,
00013000
00001000
00000010
00001010
,
00000001
00001000
00010000
10000000
,
01000000
01000000
00100000
00010000
,
00000000
00101000
00000000
00010010
,
00000100
00000100
00000010
00001000
,
00000000
00001010
00000010
00001001
,
00000010
00000010
00000100
00001000
,
00000000
00010100
00000000
01001000
,
00100000
00100000
01000000
00010000
,
00000000
01010000
01000000
01001000
,
00002000
00000000
00023000
00000000
,
00030100
00000100
00000010
00000001
,
00000200
00000000
00000320
00000000
,
00000130
00000100
00000010
00001000
,
00000002
00000000
00000000
00000000
,
00000000
00000000
00000003
00000000
;

//---------------dance-double - Spork!----------------
#NOTEDATA:;
#CHARTNAME:;
#STEPSTYPE:dance-double;
#DESCRIPTION:Spork!;
#CHARTSTYLE:;
#DIFFICULTY:Hard;
#METER:8;
#RADARVALUES:0.411,0.397,0.363,0.083,0.062,295.000,44.000,10.000,0.000,0.000,0.000,0.000,0.000,0.411,0.397,0.363,0.083,0.062,295.000,44.000,10.000,0.000,0.000,0.000,0.000,0.000;
#CREDIT:Spork!;
#NOTES:
00000000
00000000
00000000
00000000
,
00000000
00000000
00000000
00000000
,
00000000
00000000
00000000
00000000
,
00000000
00000000
00000000
00001001
,
00001000
00000000
00000001
00000100
00001000
00000000
00000100
00001000
,
01000000
00000000
00001000
00010000
00100000
10000000
00010000
00000000
,
00010000
00000000
10000000
01000000
00010000
00000000
01000000
00010000
,
00000100
00000000
00010000
00001000
00000010
00000001
00000010
00000100
,
00002000
00000000
00000001
00003000
00000002
00000000
00000100
00000003
,
00000100
00000100
00000100
00000100
00000001
00000010
00000100
00000000
,
00010100
00000000
00000000
00011000
00000000
00000000
00000000
00000000
01001000
00000000
00000000
00010000
00001000
00000000
00001000
00000000
,
00100000
01000000
00100000
00010000
10000000
00000000
00100000
01000000
,
01001000
00000000
00000000
00011000
00000000
00000000
00000000
00000000
00010100
00000000
00000000
00000000
00010000
00000000
00010000
00000000
,
00000010
00000010
00000010
00000010
00001000
00000100
00000010
00000000
,
00000001
00000010
00000100
00010000
00001000
00100000
01000000
10000000
,
00000000
01010000
01010000
00000000
00000000
11000000
11000000
00000000
,
10000000
01000000
00100000
00001000
00010000
00000100
00000010
00000001
,
00000000
00001100
00001100
00001000
00000001
00000101
00000101
00000000
,
00000001
00001000
00000010
00010000
00001000
01000000
00010000
10000000
,
00000000
10100000
10100000
00000000
00000000
00110000
00110000
00000000
,
10000000
00010000
00100000
00001000
00010000
00000100
00001000
00000001
,
00000000
00000011
00000011
00000001
00001000
00001010
00001010
00000000
,
00000200
00000000
00000000
00000000
00000310
00000010
00000010
00000010
,
00000000
00001000
00000000
00000000
00000001
00000000
00000000
00000000
00000010
00000000
00000000
00000000
00001001
00000000
00000000
00000000
,
00000001
00000010
00001000
00000000
00010000
00100000
10000000
00000000
,
00010000
00100000
10000000
00100000
00001000
00100000
00010000
00000000
,
10000000
00100000
00010000
00000000
00001000
00000010
00000001
00000000
,
00000200
00000000
00000000
00000300
,
00010010
00000000
00000000
00011000
00000000
00000000
00000000
00000000
00101000
00000000
00000000
00011000
00000000
00000000
00000000
00000000
,
01000000
00100000
01000000
00010000
10000000
00000000
01000000
00000000
,
10000000
01000000
00100000
00010000
00100000
00001000
00010000
00010000
,
00000100
00001000
00000100
00000010
00000001
00000000
00002000
00000000
,
00003001
00000000
00000000
00000100
00000000
00000000
00000000
00000000
00000010
00000000
00000000
00000000
00010000
00000000
00010000
00000000
,
00001000
00100000
00001000
01000000
00010000
00000000
00010000
00010000
,
10000000
00000000
00000000
00100000
00000000
00000000
00000000
00000000
01000000
00000000
00000000
00000000
00001000
00000000
00001000
00000000
,
00010000
00000100
00010000
00001000
00100000
01000000
20000000
00000000
,
30000000
00010000
01000000
00100000
00000000
00000000
00000000
00000000
10000000
00000000
00000000
00000000
01000000
00000000
01000000
00000000
,
00100000
00001000
00010000
00000100
00001000
00000010
00000200
00000000
,
00000301
00000000
00000000
00000010
00000000
00000000
00000000
00000000
00000100
00000000
00000000
00000000
00010000
00000000
00001000
00000000
,
01000000
01000000
01000000
01000000
00010000
00100000
01000000
00000000
,
01000000
00010000
00001000
00000100
00001000
00010000
01000000
10000000
,
00000000
10100000
00110000
00000000
00000000
01100000
10010000
00000000
,
10000000
00100000
00010000
00001000
00010000
00000100
00000010
00000001
,
00000000
00000101
00001100
00000100
00000010
00000110
00001001
00000000
,
00000100
00001000
00010000
01000000
00010000
00001000
00000100
00000001
,
00000000
00000011
00001010
00000000
00000000
00001001
00000110
00000000
,
00000001
00000010
00001000
00010000
00001000
01000000
00010000
00100000
,
00000000
11000000
01010000
01000000
00100000
01100000
10010000
00000000
,
10000000
00000000
00000000
10000000
00000000
00000000
00000000
00000000
00010000
00000000
00000000
00010000
00000000
00000000
00000000
00000000
,
10000000
01000000
00010000
00001000
00100000
00001000
00010000
00000010
,
00001000
00000000
00000000
00001000
00000000
00000000
00000000
00000000
00000001
00000000
00000000
00000001
00000000
00000000
00000000
00000000
,
00000001
00000010
00001000
00010000
00000100
00010000
00001000
01000000
,
00200000
00000000
20300000
00000000
,
32000000
00000000
03000000
00000000
;

//---------------dance-double - Spork!----------------
#NOTEDATA:;
#CHARTNAME:;
#STEPSTYPE:dance-double;
#DESCRIPTION:Spork!;
#CHARTSTYLE:;
#DIFFICULTY:Medium;
#METER:6;
#RADARVALUES:0.282,0.265,0.239,0.074,0.025,201.000,29.000,9.000,0.000,0.000,0.000,0.000,0.000,0.282,0.265,0.239,0.074,0.025,201.000,29.000,9.000,0.000,0.000,0.000,0.000,0.000;
#CREDIT:Spork!;
#NOTES:
00000000
00000000
00000000
00000000
,
00000000
00000000
00000000
00000000
,
00000000
00000000
00000000
00000000
,
00000000
00000000
00000000
01100000
,
00100000
00000000
00000000
10000000
01000000
00000000
00000000
01000000
,
00100000
00000000
00000000
00100000
00001000
00000000
00010010
00000000
,
00000100
00000000
00000000
00000001
00000010
00000000
00000000
00000010
,
00000100
00000000
00000000
00000100
00010000
00000000
01001000
00000000
,
00020000
00000000
00032000
00000000
,
01003000
01000000
01000000
01000000
00010000
10000000
00010000
00000000
,
10000000
10000000
01000000
01000000
,
10000000
01000000
00100000
00001000
00010000
00000000
00000000
00000000
,
00000001
00000001
00000100
00000100
,
00000010
00000010
00000010
00000010
00001000
00000001
00001000
00000000
,
00000100
00000100
00000010
00000001
,
00000100
00000011
00000100
00001010
,
00000010
00010000
00001000
00100000
,
01000000
00110000
01000000
10100000
,
01000000
01000000
00100000
10000000
,
01000000
10100000
01000000
00110000
,
00100000
00001000
00010000
00000010
,
00000100
00001010
00000100
00000011
,
00000020
00000000
00000000
00000000
00000130
00000100
00000100
00000100
,
00000000
00010000
00000000
01001000
,
00010000
01000000
10000000
00000000
00010000
01000000
10000000
00000000
,
00010000
01000000
10000000
00000000
00010000
00000000
00001000
00000000
,
00001000
00000100
00000001
00000000
00001000
00000100
00000001
00000000
,
00000200
00000000
00000000
00000300
,
00000001
00000000
00000000
00000001
00000000
00000000
00000000
00000000
00001000
00000000
00000000
00001000
00000000
00000000
00000000
00000000
,
00000001
00000100
00000010
00010000
,
00010100
00000000
00000110
00000000
,
00002002
00000000
00003003
00000000
,
00000001
00000000
00000100
00000000
00000001
00000000
00001000
00001000
,
00000010
00000000
00010000
00000000
00000100
00000000
00000010
00000010
,
00000100
00000000
00010000
00000000
00001000
00000000
01000000
01000000
,
00100000
01000000
00010000
20000000
,
30000000
00000000
00000000
00000000
00010000
00000000
00100000
00100000
,
00001000
00010000
00000100
00000020
,
00000031
00000000
00001000
00000000
00000010
00000000
00010000
00010000
,
00000100
00000100
00000100
00000100
00001000
00000001
00001000
00000000
,
00000010
00000010
00010000
00000100
,
00001000
00000101
00000001
00001100
,
00000001
00000100
00001000
01000000
,
00010000
11000000
10010000
01010000
,
00100000
00100000
00001000
01000000
,
00010000
11000000
10000000
01010000
,
10000000
01000000
00010000
00000100
,
00001000
00000101
00000110
00001100
,
00000001
00000000
00000000
00000001
00000000
00000000
00000000
00000000
00001000
00000000
00000000
00001000
00000000
00000000
00000000
00000000
,
00000010
00011000
00100000
00011000
,
10000000
00000000
00000000
10000000
00000000
00000000
00000000
00000000
00010000
00000000
00000000
00010000
00000000
00000000
00000000
00000000
,
01000000
00011000
00000100
00011000
,
00020000
00000000
00000000
00000000
,
00000000
00000000
00030000
00000000
;
