#TITLE:NIGHT FEVER;
#SUBTITLE:;
#ARTIST:Dave Rodgers & Mega NRG Man;
#TITLETRANSLIT:;
#SUBTITLETRANSLIT:;
#ARTISTTRANSLIT:;
#CREDIT:BNM;
#BANNER:NIGHT FEVER.png;
#BACKGROUND:NIGHT FEVER-bg.png;
#LYRICSPATH:;
#CDTITLE:;
#MUSIC:NIGHT FEVER.mp3;
#OFFSET:-0.086;
#SAMPLESTART:50.240;
#SAMPLELENGTH:16.420;
#SELECTABLE:YES;
#BPMS:0.000=153.020;
#STOPS:;
#BGCHANGES:;

//---------------dance-single - ----------------
#NOTES:
     dance-single:
     :
     Hard:
     8:
     0.607,0.688,0.310,0.310,0.187: // measure 1
0000
0000
0000
0000
,  // measure 2
0000
0000
0000
0000
,  // measure 3
0000
0000
0000
0000
,  // measure 4
0000
0000
0000
0000
,  // measure 5
2000
0010
3100
1001
,  // measure 6
0002
0000
0000
0000
0103
0000
0000
0000
0001
1000
0001
1000
0001
0000
0000
0000
,  // measure 7
2000
0100
0010
3001
,  // measure 8
1001
0000
0000
0001
0100
0000
0010
0000
0100
0000
0000
0100
0000
0000
0100
0000
,  // measure 9
0001
0000
0000
0000
1100
0000
0000
0000
1000
0000
0001
0000
0100
0001
0100
0001
,  // measure 10
0100
0000
0000
0000
0001
0000
1000
0000
0100
1000
0100
1000
0100
0000
0000
0000
,  // measure 11
0010
0000
0001
0010
0001
0000
0010
0000
0100
0000
1000
0000
0001
1000
0000
1000
,  // measure 12
0001
0000
1000
1000
0010
0010
0100
0001
,  // measure 13
1000
0000
0000
0000
0011
0000
0000
0000
0001
0000
1000
0000
0010
1000
0010
1000
,  // measure 14
0010
0000
0000
0000
1000
0000
0001
0000
0010
0001
0010
0001
0010
0000
0000
0000
,  // measure 15
0100
0000
1000
0100
1000
0000
0100
0000
0010
0000
0001
0000
1000
0001
0000
0001
,  // measure 16
1000
0000
0010
0100
0010
0100
0010
0000
1000
0000
0001
0200
0000
0000
0310
0000
,  // measure 17
1010
0000
1000
0100
0001
0200
0000
0010
,  // measure 18
0310
0000
0001
0100
0010
0010
1000
1000
,  // measure 19
0001
0010
0000
1000
0020
0000
0031
0000
,  // measure 20
1000
0010
0100
0001
1000
0002
0000
0100
,  // measure 21
0103
0000
0001
0010
1000
0020
0000
0100
,  // measure 22
0130
0000
1000
0010
0100
0100
0001
0001
,  // measure 23
1000
0100
0000
0001
0200
0000
1300
0000
,  // measure 24
0001
0200
0000
0320
0000
1030
0000
0000
,  // measure 25
0001
0010
0100
0000
1100
0000
1000
0020
,  // measure 26
0000
0130
0001
1000
1100
0000
0101
0000
,  // measure 27
1000
0100
0001
0100
1000
0100
0000
0002
,  // measure 28
0000
0100
0103
2000
0000
0001
3001
0000
,  // measure 29
1000
0010
0100
0001
0000
0100
0001
0010
,  // measure 30
0000
0001
0010
0200
0000
1000
1300
0000
,  // measure 31
0001
0100
0010
2000
0000
0001
3001
0000
,  // measure 32
1000
0100
0010
0011
0000
2020
0000
3030
,  // measure 33
1001
0000
0101
0000
0001
0010
0100
0000
,  // measure 34
2100
0000
0010
0010
0000
0001
0001
3001
,  // measure 35
1000
0010
0100
0001
0000
1000
0100
0002
,  // measure 36
0000
0100
0103
0000
0001
0100
1000
0010
,  // measure 37
0100
0000
0101
0000
0001
1000
0010
0000
,  // measure 38
0102
0000
0010
0010
0000
1000
1000
1003
,  // measure 39
0001
0010
0100
1000
0000
0010
0001
0020
,  // measure 40
0000
2030
0000
3002
0000
0100
0103
0000
,  // measure 41
1001
0000
1010
0000
1000
0100
0010
0000
,  // measure 42
0012
0000
0100
0100
0000
1000
1000
1003
,  // measure 43
0001
0100
0010
1000
0000
0001
0010
2000
,  // measure 44
0000
0010
3010
0000
0012
0000
1003
0000
,  // measure 45
0101
0000
1010
0000
1000
0001
0100
0000
,  // measure 46
2010
0000
0100
0100
0000
0001
0001
3001
,  // measure 47
1001
0001
0101
0000
1001
1000
1100
0000
,  // measure 48
1000
0010
0100
0002
0000
0000
0003
0000
,  // measure 49
1000
0000
0000
0000
0011
0000
0000
0000
0001
0000
1000
0000
0010
1000
0010
1000
,  // measure 50
0010
0000
0000
0000
1000
0000
0001
0000
0010
0001
0010
0001
0010
0000
0000
0000
,  // measure 51
0100
0000
1000
0100
1000
0000
0100
0000
0010
0000
0001
0000
1000
0001
0000
0001
,  // measure 52
1000
0000
0001
0001
0100
0100
0010
1000
,  // measure 53
0001
0000
0000
0000
1100
0000
0000
0000
1000
0000
0001
0000
0100
0001
0100
0001
,  // measure 54
0100
0000
0000
0000
0001
0000
1000
0000
0100
1000
0100
1000
0100
0000
0000
0000
,  // measure 55
0010
0000
0001
0010
0001
0000
0010
0000
0100
0000
1000
0000
0001
1000
0000
1000
,  // measure 56
0001
0000
1000
1000
0010
0010
0100
0001
,  // measure 57
1001
0000
0000
0000
;

//---------------dance-single - ----------------
#NOTES:
     dance-single:
     :
     Easy:
     4:
     0.305,0.269,0.021,0.000,0.000: // measure 1
0000
0000
0000
0000
,  // measure 2
0000
0000
0000
0000
,  // measure 3
0000
0000
0000
0000
,  // measure 4
0000
0000
0000
0000
,  // measure 5
1000
0100
0010
0001
,  // measure 6
1000
0010
0100
0100
,  // measure 7
0001
0010
0100
1000
,  // measure 8
0001
0100
0010
0010
,  // measure 9
0100
0001
0010
0000
,  // measure 10
0100
1000
0001
0001
,  // measure 11
0000
1000
0010
0100
,  // measure 12
0001
1000
1000
1000
,  // measure 13
0010
1000
0100
0000
,  // measure 14
0010
0001
1000
1000
,  // measure 15
0000
0001
0100
0010
,  // measure 16
1000
0001
0100
0010
,  // measure 17
1000
0100
1000
0100
,  // measure 18
0010
0100
0010
0100
,  // measure 19
0010
0001
0010
0001
,  // measure 20
0100
0001
0100
0100
,  // measure 21
0010
0100
0010
0100
,  // measure 22
0010
1000
0010
1000
,  // measure 23
0001
1000
0001
1000
,  // measure 24
0001
0010
0100
0000
,  // measure 25
1000
0010
0001
0010
,  // measure 26
1000
0010
0100
0100
,  // measure 27
0001
0010
1000
0010
,  // measure 28
0001
0010
0100
0100
,  // measure 29
1000
0100
0001
0100
,  // measure 30
1000
0100
0010
0010
,  // measure 31
0001
0100
1000
0100
,  // measure 32
0010
0000
0000
1000
0000
0001
0000
0000
,  // measure 33
1000
0100
0010
0100
,  // measure 34
1000
0100
0010
0100
,  // measure 35
1000
0010
0100
0010
,  // measure 36
1000
0010
0100
0010
,  // measure 37
1000
0100
0001
0100
,  // measure 38
1000
0100
0001
0100
,  // measure 39
1000
0010
0001
0010
,  // measure 40
1000
0010
0001
0010
,  // measure 41
1000
0010
0100
0001
,  // measure 42
1000
0010
0100
0001
,  // measure 43
1000
0100
0010
0001
,  // measure 44
1000
0100
0010
0001
,  // measure 45
1000
0010
0001
0010
,  // measure 46
1000
0100
0001
0100
,  // measure 47
1000
1000
0001
0001
,  // measure 48
0100
0010
1001
0000
,  // measure 49
0100
0001
0010
0000
,  // measure 50
0100
1000
0001
0001
,  // measure 51
0000
1000
0010
0100
,  // measure 52
0001
1000
1000
1000
,  // measure 53
0010
1000
0100
0000
,  // measure 54
0010
0001
1000
1000
,  // measure 55
0000
0001
0100
0010
,  // measure 56
1000
0001
0001
0001
,  // measure 57
1001
0000
0000
0000
;

//---------------dance-single - ----------------
#NOTES:
     dance-single:
     :
     Medium:
     6:
     0.496,0.478,0.299,0.310,0.000: // measure 1
0000
0000
0000
0000
,  // measure 2
0000
0000
0000
0000
,  // measure 3
0000
0000
0000
0000
,  // measure 4
0000
0000
0000
0000
,  // measure 5
1000
0100
0010
0001
,  // measure 6
0010
0000
0100
0000
1000
1000
1000
0000
,  // measure 7
0001
0100
0010
1000
,  // measure 8
1001
0100
0101
1100
,  // measure 9
1001
0000
0010
0000
0001
1000
0001
0000
,  // measure 10
0100
0000
0001
1000
0001
0001
0001
0000
,  // measure 11
1000
0100
0010
0000
0001
0100
0010
0000
,  // measure 12
1000
0000
0001
0001
0100
0100
0010
0010
,  // measure 13
1000
0000
0001
0000
1000
0100
1000
0000
,  // measure 14
0001
0000
1000
0001
1000
1000
1000
0000
,  // measure 15
0001
0010
0100
0000
1000
0010
0100
0000
,  // measure 16
0001
0100
0010
1000
0001
0010
0100
1000
,  // measure 17
0001
0000
1000
0000
0100
0010
0000
0010
,  // measure 18
0200
0000
1300
0000
0010
0100
0010
0000
,  // measure 19
1000
0001
0000
0001
0200
0000
0301
0000
,  // measure 20
1000
0001
1000
0000
0100
1000
0000
0001
,  // measure 21
0100
0000
0001
0000
0010
0100
0000
0100
,  // measure 22
0020
0000
0031
0000
0100
0010
0100
0000
,  // measure 23
0001
1000
0000
1000
0020
0000
1030
0000
,  // measure 24
0001
1000
0000
1100
0000
0101
0000
0000
,  // measure 25
1000
0010
1000
0000
0101
0000
0001
0010
,  // measure 26
0000
0010
0001
0000
1100
0000
0101
0000
,  // measure 27
1000
0010
0100
0000
0001
0100
0000
0020
,  // measure 28
0000
1030
0000
0002
0000
0013
0000
0000
,  // measure 29
0001
0010
0100
2000
0000
3100
0000
0002
,  // measure 30
0000
0103
0000
2000
0000
0001
3001
0000
,  // measure 31
1000
0010
0100
0001
0000
1000
1000
0000
,  // measure 32
0001
0010
0100
2000
0000
3001
0000
0000
,  // measure 33
1000
0101
2100
3001
,  // measure 34
0011
2010
3001
0100
,  // measure 35
0001
0010
0001
0010
0000
0100
0010
0100
,  // measure 36
0000
1000
0100
0000
0020
0000
0032
0000
,  // measure 37
1003
0011
2010
3001
,  // measure 38
0101
2100
0001
3100
,  // measure 39
1000
0100
0010
0001
0000
0010
0100
2000
,  // measure 40
0000
3020
0000
0230
0000
0302
0000
0003
,  // measure 41
1000
0101
2100
3001
,  // measure 42
0011
2010
3001
0100
,  // measure 43
0001
0010
0001
0010
0000
0100
0010
0100
,  // measure 44
0000
1000
0100
0000
0020
0000
0032
0000
,  // measure 45
1003
0011
2010
3001
,  // measure 46
0101
2100
0001
3100
,  // measure 47
2010
3001
0012
1003
,  // measure 48
0001
0100
0010
2000
0000
0000
3000
0000
,  // measure 49
1001
0000
0100
0000
1000
0001
1000
0000
,  // measure 50
0010
0000
1000
0001
1000
1000
1000
0000
,  // measure 51
0001
0010
0100
0000
1000
0010
0100
0000
,  // measure 52
0001
0000
1000
1000
0010
0010
0100
0100
,  // measure 53
0001
0000
1000
0000
0001
0010
0001
0000
,  // measure 54
1000
0000
0001
1000
0001
0001
0001
0000
,  // measure 55
1000
0100
0010
0000
0001
0100
0010
0000
,  // measure 56
1000
0010
0100
0001
1000
0100
0010
0001
,  // measure 57
1000
0000
0000
0000
;
