#TITLE:Max Burning!!;
#SUBTITLE:;
#ARTIST:BlackY;
#TITLETRANSLIT:;
#SUBTITLETRANSLIT:;
#ARTISTTRANSLIT:;
#GENRE:;
#CREDIT:;
#BANNER:banner.png;
#BACKGROUND:background.png;
#LYRICSPATH:;
#CDTITLE:;
#MUSIC:Max Burning!!.mp3;
#OFFSET:-12.987;
#SAMPLESTART:23.092;
#SAMPLELENGTH:12.000;
#SELECTABLE:YES;
#DISPLAYBPM:190.000;
#BPMS:0.000=190.000,188.000=380.000,196.000=190.000;
#STOPS:259.000=0.158
;
#BGCHANGES:;
#KEYSOUNDS:;

//---------------dance-single - ----------------
#NOTES:
     dance-single:
     :
     Hard:
     9:
     0.680,0.280,0.233,0.025,0.187:
0010
1000
0100
1000
,
0001
0100
0010
1000
,
0001
0010
0100
1000
,
0001
0100
0010
1000
,
0001
0010
0001
0010
0100
1000
0100
1000
,
0001
0100
0001
0100
0010
1000
0010
1000
,
0010
1000
0100
0010
0001
1000
0010
0100
,
0001
0000
0000
0101
0000
0000
1000
0000
0000
1100
0000
0000
0001
0000
0010
0000
,
0100
1000
0010
1000
0001
1000
0010
0000
,
0100
0001
0010
0100
1000
0000
0001
0000
,
1000
0100
0010
0001
0100
0010
1000
0000
,
0010
0100
0001
1000
0100
0000
0010
0000
,
0001
0100
1000
0100
0001
0000
0010
0000
,
0100
1000
0010
0100
0001
0000
1000
0000
,
0100
0010
0100
1000
0010
0100
0001
0000
,
1000
0100
0010
0001
1000
0001
1000
0001
,
0100
0010
1000
0001
0010
0100
1000
0000
,
1000
0001
0100
0010
0100
0000
0001
0000
,
0010
0100
1000
0001
0100
0010
0100
0000
,
0001
0010
0100
1000
0001
0000
0100
0000
,
0001
1000
0100
0010
0100
1000
0010
0000
,
0100
0001
1000
0100
0010
0000
0001
0000
,
0100
0010
1000
0001
0010
0100
1000
0001
,
0100
0000
0010
0000
1000
0000
0000
0000
1010
0000
0000
1001
0000
0000
0101
0000
,
0001
0000
0000
0010
0000
0000
0001
0000
0000
0000
0000
0000
1000
0000
0000
0100
,
0000
0000
1000
0000
0000
0001
0000
0000
0100
0000
0000
0010
0000
0000
1000
0000
,
0000
0000
1001
0000
1001
0000
0000
0000
0000
0000
0100
0000
0000
1000
0000
0000
,
0001
0000
0000
0100
0000
0000
0010
0000
0000
0000
0000
0000
1000
0000
0001
0100
,
0000
0000
0010
0000
0000
1000
0000
0000
0100
0000
0001
0000
0000
0100
0000
0000
,
1000
0000
0000
0010
0000
0000
0100
0000
0001
0000
0000
0010
0000
0000
0100
0000
,
0000
1000
0000
0000
0010
0000
0000
0000
0110
0000
0110
0000
0000
1001
0000
0000
,
0100
0000
0000
0010
0000
0000
0001
0000
0000
0000
0100
0000
0010
1000
0010
1000
,
0001
0000
0010
0000
0001
0000
0010
0000
0000
0100
0000
0000
1000
0000
0000
0010
0000
0000
0100
0000
0000
0001
0000
0000
,
1000
0100
0010
0100
1000
0001
0100
0000
,
0010
0000
1000
0010
1000
0001
0010
0100
,
1000
0000
0001
0100
0000
0100
0010
1000
,
0001
1000
0100
0000
0010
0100
1000
0001
,
0100
0010
1000
0000
0001
0010
0001
0100
,
0010
0010
1000
0000
0001
0010
0100
1000
,
0001
0100
0010
0000
0010
0100
0001
0000
,
0010
0100
1000
0001
,
0100
0010
1000
0100
,
0010
0001
0010
0001
1000
0001
1000
0001
,
1000
0100
1000
0100
1000
0010
1000
0010
,
1000
0010
0100
0001
0010
0100
1000
0001
,
0100
0010
1000
0100
0010
0001
1000
0010
,
0100
1000
0100
0001
0010
1000
0010
0001
,
2000
0000
0000
0000
,
0000
0000
0000
0000
,
3010
0000
0100
0000
0001
0000
0010
0000
0100
0000
0000
1000
0000
0000
0001
0000
,
0000
0001
1000
0100
0010
0001
0100
0010
,
1000
0000
0001
0000
0010
0000
0100
0000
1000
0000
0000
0001
0000
0000
1000
0000
,
0000
0100
0010
0001
0100
0010
0100
0001
,
1000
0000
0100
0000
0010
0000
0001
0000
1000
0000
0000
0010
0000
0000
1000
0000
,
0000
0001
0010
0100
1000
0001
0100
0010
,
1000
0100
1000
0100
1000
0001
1000
0001
,
0100
0001
0100
0001
0100
0010
0100
0010
,
1000
0000
0100
0000
0010
0000
0100
0000
1000
0000
0000
0001
0000
0000
1000
0000
,
0000
0001
0010
0100
1000
0001
0100
0010
,
1000
0000
0001
0000
0010
0000
0100
0000
1000
0000
0000
0100
0000
0000
1000
0000
,
0000
0001
0100
0010
0100
0001
0010
1000
,
0010
0000
0001
0000
0100
0000
0010
0000
0100
0000
0000
0001
0000
0000
1000
0000
,
0100
0010
0100
1000
0001
0100
1000
0100
,
0001
0010
0100
1000
0001
1000
0010
0100
,
0001
0010
0100
1000
0010
0100
0001
0100
,
0010
0000
1000
0000
0100
0000
1000
0000
0000
0001
0000
0000
0100
0000
0000
0000
,
0010
1000
0100
0010
0100
1000
0001
0100
,
0010
0000
1000
0000
0001
0000
0010
0000
0000
0100
0000
0000
1000
0000
0000
0000
,
0100
0010
0001
1000
0010
0100
0001
0010
,
0100
0000
1000
0000
0001
0000
0100
0000
0000
0010
0000
0000
0100
0000
0000
0000
,
0001
1000
0100
0010
0001
1000
0010
0100
,
0001
0010
1000
0010
0001
0100
1000
0100
,
0001
0000
0010
0000
0100
0000
1000
0000
0001
0000
0100
0010
0100
0010
0100
0000
,
0000
0001
0010
0000
0001
0000
1000
0000
0010
0000
0100
0000
0001
0000
0000
0000
,
0001
0010
0100
1000
0001
0100
0010
0000
,
1000
0000
0000
1100
0000
0000
0110
0000
0000
0011
0000
0000
0101
0000
0000
0110
,
0000
0000
1010
0000
0000
1001
0000
0000
0011
0000
0000
1100
0000
0000
0001
0000
,
0100
0001
0100
1000
0100
1000
0100
0010
,
1000
0010
1000
0001
0010
0001
0010
0100
,
0000
0100
1000
0000
0000
1010
0000
0000
0110
0000
0000
0101
0000
0000
1001
0000
,
0000
1100
0000
0000
0110
0000
0000
0000
0011
0000
0000
0101
0000
0000
0010
0000
,
1000
0000
0100
1000
0100
1000
0001
0000
0100
0000
0010
0000
1000
0000
0001
0000
,
2002
0000
0000
0000
,
0000
0000
0000
0000
,
3003
0000
0000
0000
;

//---------------dance-single - ----------------
#NOTES:
     dance-single:
     :
     Challenge:
     10:
     0.875,0.454,0.815,0.050,0.578:
0010
1000
0100
0000
0010
0001
0100
0000
,
0010
1000
0100
0001
0100
1000
0010
0000
,
0100
0001
0010
0000
0100
1000
0010
0000
,
0100
0001
0010
1000
0010
0100
1000
0000
,
0001
0100
0001
0100
0010
1000
0010
1000
,
0001
0010
0001
0010
0100
1000
0100
1000
,
0001
0010
0001
0010
0100
1000
0100
1000
0010
0100
0010
0100
0001
0010
0100
1000
,
1001
0000
0000
1100
0000
0000
0011
0000
0000
0110
0000
0000
1001
0000
0110
0000
,
0010
0000
1000
0000
0100
0000
1000
0000
0001
0100
0000
0010
0000
0100
0001
0000
,
1000
0000
0100
0000
0010
0000
0001
0000
1000
0000
0000
0010
0000
1000
0000
0001
,
0010
0000
0100
0000
1000
0000
0010
0000
0100
0001
0000
1000
0000
0010
0100
0000
,
0010
0000
1000
0000
0100
0000
1000
0000
0001
0100
0000
1000
0000
1000
0100
0000
,
0001
0000
0010
0000
0100
0000
1000
0000
0010
0100
0000
0010
0000
1000
0001
0000
,
0010
0000
0100
0000
1000
0000
0010
0000
0100
0000
0000
0001
0000
0010
0000
0001
,
1000
0000
0010
0000
0100
0000
0001
0000
1000
0100
0000
0001
0000
0100
0010
0000
,
0001
0000
0100
0000
0010
0000
0100
0000
0001
1000
0000
0010
0000
0100
0001
0000
,
0010
0000
0100
0000
1000
0000
0100
0000
0010
0001
0000
0100
0000
0001
0010
0000
,
0100
0000
1000
0000
0010
0000
0100
0000
0001
0000
0000
1000
0000
0100
0000
1000
,
0010
0000
0100
0000
0001
0000
1000
0000
0100
0010
0000
0100
0000
1000
0010
0000
,
0100
0000
0001
0000
0010
0000
0100
0000
1000
0000
0000
0010
0000
0100
0000
0001
,
0010
0000
0001
0000
0100
0000
1000
0000
0100
0010
0000
1000
0000
0100
0010
0000
,
0001
0000
0100
0000
0010
0000
0100
0000
0001
0000
0000
0010
0000
0001
0000
1000
,
0010
0000
0100
0000
0001
0000
0010
0000
0100
1000
0000
0001
0000
0100
0010
0000
,
1000
0100
1000
0100
1000
0000
0000
0000
1010
0000
0000
0101
0000
0000
1001
0000
,
1001
0000
0000
1010
0000
0000
1001
0000
0000
0000
0000
0000
1001
0000
0000
0011
,
0000
0000
1100
0000
0000
0110
0000
0000
0101
0000
0000
1100
0000
0000
1001
0000
,
0000
0000
0101
0000
0101
0000
0000
0000
0000
0000
1010
0000
0000
1001
0000
0000
,
0011
0000
0000
0110
0000
0000
1010
0000
0000
0000
0000
0000
1001
0000
0001
0100
,
0000
0000
1100
0000
0000
1010
0000
0000
0110
0000
1010
0000
0000
0110
0000
0000
,
1001
0000
0000
0110
0000
0000
1001
0000
1001
0000
0000
1100
0000
0000
0101
0000
,
0000
0110
0000
0000
0011
0000
0000
0000
0101
0000
0101
0000
0000
0110
0000
0000
,
1010
0000
0000
1001
0000
0000
0101
0000
0000
0000
1001
0000
0001
0100
1000
0100
,
0001
0000
0000
0000
0010
0000
0000
0000
0001
0000
0000
0000
0010
0000
0000
0000
0000
0000
0100
0000
0000
0000
0000
0000
1000
0000
0000
0100
0000
0000
1000
0000
0000
0000
0000
0000
0001
0000
0000
0100
0000
0000
0001
0000
0000
0000
0000
0000
,
0020
0000
0130
1000
0001
0100
0010
0010
,
1000
0000
0000
0000
0000
0000
0000
0000
0000
0000
0000
0000
1001
0000
0000
0000
0000
0000
0110
0000
0000
0000
0000
0000
0010
0000
0000
0000
0000
0000
0000
0000
0000
0010
0000
0000
1000
0000
0000
0000
0100
0000
0000
0000
1000
0000
0000
0000
,
0010
0000
0000
0010
0000
0000
0100
0000
0000
0000
0001
0000
0000
0000
0000
0100
0000
0000
1000
0000
0000
0100
0000
0000
,
0001
0000
0010
0100
0010
0000
0110
0000
0100
1000
0100
0000
1000
0000
0001
0000
,
0200
0000
0310
0000
1000
0000
0100
0000
0001
0000
0000
0100
0000
0000
1000
0000
,
0000
0000
1010
0000
0000
0110
0000
0000
0101
0000
0000
1001
0000
0000
0000
1100
,
0000
0000
1010
0000
1001
0000
1000
0001
0000
0010
0100
0000
1000
0000
0000
0000
,
0001
0100
1000
0000
1000
0100
0001
0000
,
0001
1000
0100
0000
0100
0010
0001
0000
,
0001
0100
0010
0100
0001
0010
0100
0010
,
0001
0000
0100
0000
1000
0000
0100
0000
0010
0000
1000
0000
0100
1000
0001
1000
,
0100
0000
0010
0000
0001
0000
0100
0000
1000
0000
0100
0000
0001
0010
0100
0010
,
0001
0000
0100
0000
0010
0000
1000
0000
0001
0000
0010
0000
0100
1000
0010
1000
,
0100
1000
0100
1000
0001
0100
0001
0100
0010
1000
0010
1000
0001
0010
0001
0010
,
0200
0000
0000
0000
,
0000
0000
0300
0000
,
1000
0000
0100
0000
0001
0000
0100
0000
1100
0000
0000
1001
0000
0000
0101
0000
,
0000
0100
0010
1000
0100
1000
0001
0100
,
0010
0000
1000
0000
0100
0000
0001
0000
1001
0000
0000
1010
0000
0000
0011
0000
,
0000
0001
0100
1000
0100
0001
0010
0100
,
1000
0000
0010
0000
0100
0000
0001
0000
0011
0000
0000
0110
0000
0000
1100
0000
,
0000
1000
0001
0100
0010
0100
0001
0010
,
0100
1000
0010
1000
0100
0001
0100
1000
,
0010
0100
0001
0010
0100
1000
0001
0100
,
0010
0000
1000
0000
0100
0000
1000
0000
1010
0000
0000
0110
0000
0000
0011
0000
,
0000
0001
0010
1000
0100
0001
0100
1000
,
0010
0000
0100
0000
0001
0000
0010
0000
0110
0000
0000
1100
0000
0000
1001
0000
,
0000
0001
0100
1000
0100
0001
0010
0100
,
1000
0000
0010
0000
0100
0000
0001
0000
0011
0000
0000
1100
0000
0000
1001
0000
,
1000
0100
0001
0001
1000
0010
0001
0001
,
1000
0010
0100
0001
1000
0100
0010
0001
,
1000
0010
0001
0010
1000
0100
0020
0031
,
0100
0000
0010
0000
0100
0000
0101
0000
0000
0011
0000
0000
1100
0000
0000
0000
,
0100
1000
0010
0001
0010
1000
0100
0010
,
0001
0000
0100
0000
1000
0000
1100
0000
0000
0110
0000
0000
0101
0000
0000
0000
,
0001
0010
0100
1000
0100
0001
0100
0010
,
0001
0000
0100
0000
0010
0000
1010
0000
0000
0110
0000
0000
0101
0000
0001
0000
,
0010
0100
1000
0010
0100
1000
0100
0001
,
0010
0100
1000
0001
0100
0010
0100
0001
,
0010
0000
0100
0000
1000
0000
0010
0000
0100
0000
0001
0010
0001
0010
1000
0000
,
0000
0010
0001
0000
0100
0000
0010
0000
0100
0000
0001
0000
1000
0000
0010
0000
,
0100
0001
0100
0010
1000
0100
0010
0001
,
0100
0010
0000
1010
0000
0000
1001
0000
0000
1100
0000
0000
0110
0000
0000
0101
,
0000
0000
1001
0000
0000
1010
0000
0000
0011
0000
0000
0001
0100
0010
1000
0000
,
0100
1000
0010
0100
0001
0100
0010
1000
,
0001
0000
0010
0000
0100
0000
1000
0010
1000
0010
0100
0001
0100
0001
0010
0000
,
0000
0010
0100
0000
0000
1100
0000
0000
1010
0000
0000
0110
0000
0000
0101
0000
,
0000
1001
0000
0000
1000
0000
0100
0000
1000
0000
0010
0100
0000
0001
0010
0000
,
0100
0000
1000
0010
0100
0001
0010
0100
1000
0100
0010
0001
0100
0010
1000
0000
,
2002
0000
0000
0000
,
0000
0000
0000
0000
,
3003
0000
0000
0000
;

//---------------dance-single - Blank----------------
#NOTES:
     dance-single:
     Blank:
     Medium:
     7:
     0.448,0.280,0.083,0.025,0.012: // measure 1
0010
0010
1000
1000
,  // measure 2
0001
0001
0100
0100
,  // measure 3
0010
0010
1000
1000
,  // measure 4
0100
0100
0010
0010
,  // measure 5
0001
0010
0001
0000
0100
0000
0010
0000
,  // measure 6
1000
0100
1000
0000
0010
0000
0100
0000
,  // measure 7
0001
1000
0001
1000
0001
1000
0001
1000
,  // measure 8
0001
0000
0000
0100
0000
0000
0010
0000
0000
1000
0000
0000
0001
0000
1000
0000
,  // measure 9
0001
0000
0100
0000
0010
1000
0100
0000
,  // measure 10
0010
0000
0100
0000
1000
0000
0001
1000
,  // measure 11
0001
0000
0100
0000
0010
1000
0001
0000
,  // measure 12
0010
0000
0100
0000
1000
0000
0010
0100
,  // measure 13
0010
0000
1000
0000
0100
0010
0100
0000
,  // measure 14
1000
0000
0001
0000
0100
0000
0010
1000
,  // measure 15
0001
0000
0010
0000
0100
1000
0001
0000
,  // measure 16
0100
0000
0010
0000
1000
0001
1000
0001
,  // measure 17
0100
0000
0010
0000
1000
0001
1000
0000
,  // measure 18
0100
0000
0010
0000
0001
0000
1000
0010
,  // measure 19
1000
0000
0001
0000
0010
0100
0010
0000
,  // measure 20
0001
0000
1000
0000
0010
0000
0100
0001
,  // measure 21
0100
0000
0001
0000
0010
0001
0010
0000
,  // measure 22
0100
0000
1000
0000
0001
0000
0100
0010
,  // measure 23
0100
0000
0001
0000
0010
0001
1000
0000
,  // measure 24
0100
0000
0000
0000
1000
0000
0000
0000
0010
0000
0000
0100
0000
0000
0010
0000
,  // measure 25
1000
0000
0000
1100
0000
0000
0010
0000
,  // measure 26
0000
0011
0000
0000
0001
0000
0000
1001
,  // measure 27
0000
1000
1000
0000
0000
1010
0000
0000
,  // measure 28
0100
0000
0000
0101
0000
0000
0001
0001
,  // measure 29
0000
0011
0000
0000
0010
0000
0000
0000
,  // measure 30
0110
0000
0000
0100
0100
0000
0000
1100
,  // measure 31
0000
0000
1000
0000
0001
0001
0000
0000
,  // measure 32
0100
0000
0000
0110
0000
0010
0010
0000
,  // measure 33
0010
1000
0100
1000
,  // measure 34
0001
0100
0010
0100
,  // measure 35
0001
0000
1000
1000
0100
0000
1000
0000
,  // measure 36
0010
0100
0001
0010
,  // measure 37
0100
0000
1000
1000
0001
0000
0100
0000
,  // measure 38
0010
0100
0001
0010
,  // measure 39
0100
1000
0001
0100
,  // measure 40
0010
0000
1000
0000
0001
1000
0001
0000
,  // measure 41
0010
0000
0100
0000
,  // measure 42
1000
0000
0001
0000
,  // measure 43
0100
0010
0100
0010
,  // measure 44
1000
0001
1000
0001
,  // measure 45
0010
0100
1000
0001
,  // measure 46
0100
0010
1000
0001
,  // measure 47
0010
0100
0010
0100
1000
0001
1000
0001
,  // measure 48
2000
0000
0000
0000
,  // measure 49
0000
0000
0000
0000
,  // measure 50
3001
0000
0100
0000
0010
1000
0010
0000
,  // measure 51
1000
0100
0010
0001
,  // measure 52
1000
0000
0010
0000
0100
0001
0100
0000
,  // measure 53
0001
1000
0100
0001
,  // measure 54
0100
0000
0010
0000
0001
1000
0001
0000
,  // measure 55
1000
0010
0100
0001
,  // measure 56
0010
0100
1000
0001
,  // measure 57
0100
0000
0010
0000
1000
0001
1000
0001
,  // measure 58
1000
0000
0010
0000
0100
0001
0100
0000
,  // measure 59
0010
1000
0100
0001
,  // measure 60
0100
0000
1000
0000
0010
0100
0010
0000
,  // measure 61
1000
0001
0010
0100
,  // measure 62
1000
0000
0001
0000
0100
0001
0100
0000
,  // measure 63
0010
1000
0100
0010
,  // measure 64
0100
1000
0001
0100
,  // measure 65
0010
0000
1000
0000
0001
1000
0001
0100
,  // measure 66
0000
0010
0000
1000
0010
0100
0000
0010
,  // measure 67
0000
1000
0000
0001
0010
0000
0010
0001
,  // measure 68
0000
0100
0000
0010
1000
0001
0000
0010
,  // measure 69
0000
0100
0000
1000
0000
0001
0000
0100
,  // measure 70
0000
0010
0000
1000
0100
1000
0000
0001
,  // measure 71
0000
0100
0000
0010
1000
0000
1000
0001
,  // measure 72
0000
0010
0000
0100
1000
0001
0000
0100
,  // measure 73
0000
0010
0000
1000
0001
1000
0001
1000
,  // measure 74
0000
0100
0000
0010
0001
0010
0001
0000
,  // measure 75
0001
0100
0000
0010
0000
1000
0010
0000
,  // measure 76
1000
0000
0000
0100
0000
0000
0010
0000
,  // measure 77
0000
0001
0000
0000
0100
0000
0000
0010
,  // measure 78
0000
1000
0000
0100
1000
0001
0000
0100
,  // measure 79
0000
0010
0000
1000
0001
0010
0000
0100
,  // measure 80
0000
1000
0000
0000
0001
0000
0000
0100
,  // measure 81
0000
0000
0010
0000
0000
1000
0000
0001
,  // measure 82
0000
0010
0001
0100
0010
1000
0001
0000
,  // measure 83
2002
0000
0000
0000
,  // measure 84
0000
0000
0000
0000
,  // measure 85
3003
0000
0000
0000
;

//---------------dance-single - Blank----------------
#NOTES:
     dance-single:
     Blank:
     Easy:
     5:
     0.315,0.140,0.017,0.050,0.000: // measure 1
0010
0000
1000
0000
,  // measure 2
0100
0000
0001
0000
,  // measure 3
0100
0000
1000
0000
,  // measure 4
0010
0000
0100
0000
,  // measure 5
0001
0010
0001
0010
,  // measure 6
0100
1000
0100
1000
,  // measure 7
0001
0100
0010
1000
,  // measure 8
0002
0000
0000
0003
,  // measure 9
0010
0001
0100
0100
,  // measure 10
0010
1000
0001
0000
,  // measure 11
0001
0010
0001
0001
,  // measure 12
1000
0010
0100
0000
,  // measure 13
0010
1000
0001
0001
,  // measure 14
1000
0010
0100
0000
,  // measure 15
0001
0010
0100
0100
,  // measure 16
0010
0001
1000
0010
,  // measure 17
0100
0001
1000
1000
,  // measure 18
0010
0100
0001
0000
,  // measure 19
0010
0001
1000
1000
,  // measure 20
0010
0100
1000
0000
,  // measure 21
0100
0001
0010
0010
,  // measure 22
0100
1000
0001
0000
,  // measure 23
0001
0100
0010
1000
,  // measure 24
0002
0003
1001
0000
,  // measure 25
1000
0000
0000
0010
,  // measure 26
0000
0000
0100
0000
,  // measure 27
0000
0001
0000
0000
,  // measure 28
0010
0000
0000
0100
,  // measure 29
0000
0000
1000
0000
,  // measure 30
0000
0000
0010
0000
,  // measure 31
0000
0000
0100
0000
,  // measure 32
0001
0000
0000
0001
0000
0000
0001
0000
,  // measure 33
0010
0001
0010
0010
,  // measure 34
0100
1000
0100
0000
,  // measure 35
1000
0010
0010
0100
,  // measure 36
0001
1000
0100
0010
,  // measure 37
0100
1000
1000
0001
,  // measure 38
0100
0010
0100
0001
,  // measure 39
0010
1000
0010
0100
,  // measure 40
1000
0001
0200
0000
,  // measure 41
0310
0000
0010
0000
,  // measure 42
1000
0000
1000
0000
,  // measure 43
0001
0000
0010
0000
,  // measure 44
0100
0000
1000
0000
,  // measure 45
0001
0001
0100
0100
,  // measure 46
0010
0010
1000
1000
,  // measure 47
0100
0001
0010
1000
,  // measure 48
0002
0000
0000
0000
,  // measure 49
0000
0000
0000
0000
,  // measure 50
0013
0000
0001
0000
0010
0000
0000
0001
,  // measure 51
0000
0010
0100
1000
,  // measure 52
0010
0000
0100
0000
0001
0000
0000
0100
,  // measure 53
0000
0010
1000
0001
,  // measure 54
1000
0000
0100
0000
1000
0000
0000
0100
,  // measure 55
0000
1000
0001
0100
,  // measure 56
0010
1000
0010
1000
,  // measure 57
0001
0010
0001
0000
,  // measure 58
0100
0000
0010
0000
0100
0000
0000
0010
,  // measure 59
0000
0100
0010
0100
,  // measure 60
0001
0000
1000
0000
0001
0000
0000
1000
,  // measure 61
0000
0001
1000
0001
,  // measure 62
0010
0000
0001
0000
0010
0000
0000
0001
,  // measure 63
0000
1000
0100
1000
,  // measure 64
0001
0100
0010
1000
,  // measure 65
0001
0000
0010
0000
0100
0000
1000
0010
,  // measure 66
0000
0100
0000
0001
0000
0000
0100
0000
,  // measure 67
0000
0010
0000
1000
0000
0100
0000
1000
,  // measure 68
0000
0001
0000
0100
0000
0000
0010
0000
,  // measure 69
0000
0100
0000
0001
0000
0010
0000
0100
,  // measure 70
0000
1000
0000
0001
0000
0000
1000
0000
,  // measure 71
0000
0100
0000
0010
0000
0001
0000
0100
,  // measure 72
0000
0010
0000
1000
0000
0001
0000
0010
,  // measure 73
0000
0100
0000
1000
0000
0001
0000
0100
,  // measure 74
0000
0010
0000
0100
0000
0000
0010
0000
,  // measure 75
0000
1000
0000
0001
0000
0000
1000
0000
,  // measure 76
0000
0001
0000
0000
0000
0010
0000
0000
,  // measure 77
0000
0100
0000
0000
1000
0000
0000
0001
,  // measure 78
0000
0100
0000
0010
0000
1000
0000
0100
,  // measure 79
0000
0010
0000
0001
0000
1000
0000
0010
,  // measure 80
0000
0010
0000
0000
0100
0000
0000
0001
,  // measure 81
0000
0000
1000
0000
0000
0100
0000
0000
,  // measure 82
0010
0000
0001
1000
0001
0000
0100
0000
,  // measure 83
0220
0000
0000
0000
,  // measure 84
0000
0000
0000
0000
,  // measure 85
0330
0000
0000
0000
;

//---------------dance-single - Blank----------------
#NOTES:
     dance-single:
     Blank:
     Beginner:
     1:
     0.086,0.068,0.008,0.017,0.000: // measure 1
0010
0000
0000
0000
,  // measure 2
0010
0000
0000
0000
,  // measure 3
0100
0000
0000
0000
,  // measure 4
0100
0000
0000
0000
,  // measure 5
0001
0000
0000
0000
,  // measure 6
0010
0000
0000
0000
,  // measure 7
0100
0000
0000
0000
,  // measure 8
1000
0000
0000
0000
,  // measure 9
0001
0000
0000
0000
,  // measure 10
0100
0000
0000
0000
,  // measure 11
0001
0000
0000
0000
,  // measure 12
0000
0000
0000
0000
,  // measure 13
1000
0000
0000
0000
,  // measure 14
0010
0000
0000
0000
,  // measure 15
1000
0000
0000
0000
,  // measure 16
0000
0000
0000
0000
,  // measure 17
0010
0000
0000
0000
,  // measure 18
0100
0000
0000
0000
,  // measure 19
0010
0000
0000
0000
,  // measure 20
0000
0000
0000
0000
,  // measure 21
1000
0000
0000
0000
,  // measure 22
0001
0000
0000
0000
,  // measure 23
1000
0000
0000
0000
,  // measure 24
0000
0000
0000
0000
,  // measure 25
0001
0000
0000
0000
,  // measure 26
0000
0000
0000
0000
,  // measure 27
0010
0000
0000
0000
,  // measure 28
0000
0000
0000
0000
,  // measure 29
0100
0000
0000
0000
,  // measure 30
0000
0000
0000
0000
,  // measure 31
1000
0000
0000
0000
,  // measure 32
0000
0000
0000
0000
,  // measure 33
0010
0000
0000
0000
,  // measure 34
0010
0000
0000
0000
,  // measure 35
0100
0000
0000
0000
,  // measure 36
0100
0000
0000
0000
,  // measure 37
0001
0000
0000
0000
,  // measure 38
0001
0000
0000
0000
,  // measure 39
1000
0000
0000
0000
,  // measure 40
1000
0000
0000
0000
,  // measure 41
0200
0000
0000
0000
,  // measure 42
0000
0000
0000
0000
,  // measure 43
0000
0000
0000
0000
,  // measure 44
0000
0000
0300
0000
,  // measure 45
0100
0000
0100
0000
,  // measure 46
0010
0000
0010
0000
,  // measure 47
0001
0000
0001
0000
,  // measure 48
2000
0000
0000
0000
,  // measure 49
0000
0000
0000
0000
,  // measure 50
3000
0000
0000
0000
,  // measure 51
0001
0000
0000
0000
,  // measure 52
0100
0000
0000
0000
,  // measure 53
0010
0000
0000
0000
,  // measure 54
1000
0000
0000
0000
,  // measure 55
0100
0000
0000
0000
,  // measure 56
0010
0000
0000
0000
,  // measure 57
0001
0000
0000
0000
,  // measure 58
1000
0000
0000
0000
,  // measure 59
0010
0000
0000
0000
,  // measure 60
0100
0000
0000
0000
,  // measure 61
0001
0000
0000
0000
,  // measure 62
0010
0000
0000
0000
,  // measure 63
0100
0000
0000
0000
,  // measure 64
1000
0000
0000
0000
,  // measure 65
0001
0000
0000
0000
,  // measure 66
0000
0000
0000
0000
0000
0000
0000
0100
,  // measure 67
0000
0000
0000
0000
0000
0000
0000
0010
,  // measure 68
0000
0000
0000
0000
0000
0000
0000
1000
,  // measure 69
0000
0000
0000
0000
0000
0000
0000
0001
,  // measure 70
0000
0000
0000
0000
0000
0000
0000
0010
,  // measure 71
0000
0000
0000
0000
0000
0000
0000
0100
,  // measure 72
0000
0000
0000
0000
0000
0000
0000
1000
,  // measure 73
0000
0000
0000
0000
0000
0000
0000
0010
,  // measure 74
0000
0000
0000
0000
0000
0000
0000
0100
,  // measure 75
0000
0000
0000
0000
0000
0000
0000
0010
,  // measure 76
0000
0000
0000
0000
,  // measure 77
0000
0000
0000
0000
0000
0000
0000
1000
,  // measure 78
0000
0000
0000
0000
0000
0000
0000
0001
,  // measure 79
0000
0000
0000
0000
0000
0000
0000
1000
,  // measure 80
0000
0000
0000
0000
,  // measure 81
0000
0000
0000
0000
,  // measure 82
0000
0000
0000
0000
,  // measure 83
1001
0000
0000
0000
;

//---------------dance-double - Blank----------------
#NOTES:
     dance-double:
     Blank:
     Easy:
     5:
     0.303,0.175,0.017,0.033,0.000: // measure 1
00100000
00000000
10000000
00000000
,  // measure 2
01000000
10000000
00010000
00000000
,  // measure 3
01000000
00000000
00100000
00000000
,  // measure 4
10000000
01000000
00100000
00000000
,  // measure 5
00010000
01000000
00010000
01000000
,  // measure 6
00100000
10000000
00100000
10000000
,  // measure 7
01000000
00100000
01000000
00100000
,  // measure 8
01100000
00000000
00000000
00000000
,  // measure 9
00100000
00000000
00010000
00000000
,  // measure 10
01000000
00100000
01000000
00000000
,  // measure 11
00010000
00000000
00100000
00000000
,  // measure 12
00001000
00010000
00001000
00000000
,  // measure 13
00010000
00000000
00000100
00000000
,  // measure 14
00010000
00000010
00001000
00000000
,  // measure 15
00000100
00000000
00000010
00000000
,  // measure 16
00000001
00000100
00000010
00000000
,  // measure 17
00000010
00000100
00000010
00000100
,  // measure 18
00000001
00000010
00000100
00000000
,  // measure 19
00000100
00000010
00001000
00000010
,  // measure 20
00001000
00010000
00100000
00000000
,  // measure 21
00100000
01000000
00010000
00100000
,  // measure 22
01000000
10000000
00010000
00000000
,  // measure 23
00010000
01000000
00100000
01000000
,  // measure 24
00010000
00000000
00100000
00000000
,  // measure 25
00100000
00000000
00000000
01000000
,  // measure 26
00000000
00000000
10000000
00000000
,  // measure 27
00000000
00010000
00000000
00000000
,  // measure 28
01000000
00000000
00000000
00100000
,  // measure 29
00000000
00000000
00010000
00000000
,  // measure 30
00000000
00001000
00000000
00000000
,  // measure 31
00000010
00000000
00000000
00000000
,  // measure 32
00000001
00000000
00000000
00000000
,  // measure 33
00000100
00000010
00000100
00000100
,  // measure 34
00000001
00001000
00000100
00010000
,  // measure 35
00000010
00001000
00010000
01000000
,  // measure 36
00010000
00100000
01000000
10000000
,  // measure 37
00100000
01000000
00010000
00100000
,  // measure 38
01000000
00100000
00010000
01000000
,  // measure 39
00001000
00010000
00000010
00001000
,  // measure 40
00000100
00000010
00000002
00000000
,  // measure 41
00000013
00000000
00000001
00000000
,  // measure 42
00000100
00000000
00000010
00000000
,  // measure 43
00001000
00000000
00000100
00000000
,  // measure 44
00010000
00000000
00001000
00000000
,  // measure 45
00100000
00010000
00100000
00010000
,  // measure 46
01000000
00001000
00010000
00000100
,  // measure 47
00100000
00001000
00100000
00010000
,  // measure 48
02000000
00000000
00000000
00000000
,  // measure 49
00000000
00000000
00000000
00000000
,  // measure 50
13000000
01000000
00010000
00000000
,  // measure 51
00100000
01000000
10000000
00100000
,  // measure 52
01000000
00010000
00100000
00000000
,  // measure 53
01000000
00001000
01000000
00100000
,  // measure 54
00001000
01000000
00000010
00000000
,  // measure 55
00010000
00001000
00010000
00000100
,  // measure 56
00001000
00000010
00000100
00000001
,  // measure 57
00000010
00000100
00001000
00000000
,  // measure 58
00000001
00000100
00000010
00000000
,  // measure 59
00000010
00001000
00000100
00010000
,  // measure 60
00001000
00010000
00000010
00000000
,  // measure 61
00010000
00001000
00100000
00010000
,  // measure 62
01000000
00100000
10000000
00000000
,  // measure 63
01000000
00100000
00010000
01000000
,  // measure 64
00100000
00010000
00001000
00000010
,  // measure 65
00000100
00000000
00001000
00000000
00000001
00000000
00000000
00000100
,  // measure 66
00000000
00000010
00000000
00001000
00000000
00000000
00000000
00000001
,  // measure 67
00000000
00000010
00000000
00000100
00000000
00010000
00000000
00000010
,  // measure 68
00000000
00001000
00000000
00010000
00000000
00000000
00000000
01000000
,  // measure 69
00000000
00100000
00000000
10000000
00000000
01000000
00000000
00100000
,  // measure 70
00000000
00010000
00000000
01000000
00000000
00000000
00000000
00100000
,  // measure 71
00000000
10000000
00000000
01000000
00000000
00100000
00000000
00010000
,  // measure 72
00000000
01000000
00000000
00010000
00000000
01000000
00000000
00001000
,  // measure 73
00000000
00010000
00000000
00001000
00000000
00010000
00000000
00000100
,  // measure 74
00000000
00001000
00000000
00000010
00000000
00000100
00000000
00000001
,  // measure 75
00000000
00000010
00000000
00000100
00000000
00000000
00000000
00001000
,  // measure 76
00000000
00000000
00000000
00000010
00000000
00000000
00000000
00000100
,  // measure 77
00000000
00000000
00000000
00000001
00000000
00000000
00000000
00000010
,  // measure 78
00000000
00000100
00000000
00001000
00000000
00000010
00000000
00010000
,  // measure 79
00000000
00001000
00000000
00100000
00000000
00010000
00000000
01000000
,  // measure 80
00000000
00100000
00000000
00000000
10000000
00000000
00000000
00010000
,  // measure 81
00000000
00000000
00100000
00000000
00000000
00001000
00000000
00010000
,  // measure 82
00000000
00000010
00001000
00000010
00001000
00000000
00000001
00000000
,  // measure 83
00002002
00000000
00000000
00000000
,  // measure 84
00000000
00000000
00000000
00000000
,  // measure 85
00003003
00000000
00000000
00000000
;
