#VERSION:0.81;
#TITLE:Made of Fire;
#SUBTITLE:;
#ARTIST:NIKO;
#TITLETRANSLIT:;
#SUBTITLETRANSLIT:;
#ARTISTTRANSLIT:;
#GENRE:Eurobeat;
#ORIGIN:;
#CREDIT:;
#BANNER:bn.png;
#BACKGROUND:bg.png;
#PREVIEWVID:;
#JACKET:jacket.png;
#CDIMAGE:;
#DISCIMAGE:;
#LYRICSPATH:;
#CDTITLE:;
#MUSIC:Made of Fire.mp3;
#OFFSET:-3.086000;
#SAMPLESTART:40.123043;
#SAMPLELENGTH:11.851852;
#SELECTABLE:YES;
#BPMS:0.000=162.000;
#STOPS:;
#DELAYS:;
#WARPS:;
#TIMESIGNATURES:0.000=4=4;
#TICKCOUNTS:0.000=4;
#COMBOS:0.000=1;
#SPEEDS:0.000=1.000=0.000=0;
#SCROLLS:0.000=1.000;
#FAKES:;
#LABELS:0.000=Song Start;
#BGCHANGES:;
#KEYSOUNDS:;
#ATTACKS:
;

//---------------dance-single - ----------------
#NOTEDATA:;
#CHARTNAME:;
#STEPSTYPE:dance-single;
#DESCRIPTION:;
#CHARTSTYLE:;
#DIFFICULTY:Hard;
#METER:8;
#RADARVALUES:0.570496,0.488113,0.311319,0.064411,0.214703,337.000000,29.000000,6.000000,0.000000,0.000000,0.000000,0.000000,0.000000,0.570496,0.488113,0.311319,0.064411,0.214703,337.000000,29.000000,6.000000,0.000000,0.000000,0.000000,0.000000,0.000000;
#CREDIT:;
#NOTES:
// measure 0
0010
0000
0000
0010
1000
0000
0000
1000
0001
0000
0000
0001
0010
0000
0000
0010
,  // measure 1
0100
1000
0001
0100
0010
0100
0001
0000
,  // measure 2
0010
0100
1000
0001
0100
0010
1000
0000
,  // measure 3
0001
0000
0000
0010
0000
0001
0000
0100
0000
0010
0000
0010
1000
0000
0000
0000
,  // measure 4
1000
0000
0000
1000
0100
0000
0000
0100
1000
0000
0000
1000
0001
0000
0000
0001
,  // measure 5
0100
0010
0100
0001
1000
0100
0010
0000
,  // measure 6
0010
0001
1000
0010
0100
0001
1000
0000
,  // measure 7
0100
0000
0000
0100
0000
1000
0000
0001
0000
0100
0000
0010
1000
0000
0000
0000
,  // measure 8
0001
0010
0100
0010
0001
1000
0010
0000
,  // measure 9
0100
0001
1000
0100
1000
0010
0100
0000
,  // measure 10
0001
0011
0000
0110
0000
1100
0000
1001
,  // measure 11
0000
0000
0001
0100
0010
0000
1000
0000
,  // measure 12
0100
1000
0001
0100
0010
0100
0001
0000
,  // measure 13
0010
0100
1000
0001
0100
0010
1000
0000
,  // measure 14
0100
0110
0000
0011
0000
1001
0000
1010
,  // measure 15
0000
0000
0010
0100
0001
0000
0010
0000
,  // measure 16
0100
0000
1000
0010
0100
0000
0100
0010
,  // measure 17
0000
0010
0100
0001
1000
0000
0100
0000
,  // measure 18
0010
0000
0001
1000
0010
0000
0100
0001
,  // measure 19
0000
0001
1000
0100
0010
0000
0001
0000
,  // measure 20
1000
0000
0010
0100
0001
0000
0001
1000
,  // measure 21
0000
1000
0100
1000
0010
0000
0100
0000
,  // measure 22
0001
0000
0010
0100
1000
0000
0001
0100
,  // measure 23
0000
0010
0100
0001
1000
0100
0010
0001
,  // measure 24
1000
0010
0000
0100
0000
0001
0001
0010
,  // measure 25
0110
0000
1100
0000
1000
0001
0000
0001
,  // measure 26
0101
0000
0110
0000
0010
1000
0000
1000
,  // measure 27
0001
0000
0010
0000
0001
1000
0010
0000
,  // measure 28
0100
0001
1000
0100
1000
0010
0100
0001
,  // measure 29
0011
0000
1100
0000
1000
0001
0000
0001
,  // measure 30
0101
0000
0110
0000
0010
1000
0000
1000
,  // measure 31
0001
0010
1000
0100
,  // measure 32
0001
0000
0010
0000
0100
1000
0001
1000
,  // measure 33
1100
0000
0110
0000
0010
0001
0000
0001
,  // measure 34
0101
0000
0110
0000
0010
1000
0000
1000
,  // measure 35
0001
0000
0010
0000
0100
1000
0001
0000
,  // measure 36
0100
0000
0010
1000
0100
1000
0001
0100
,  // measure 37
0110
0000
1010
0000
1000
0001
0000
0001
,  // measure 38
0011
0000
0110
0000
0100
1000
0000
1000
,  // measure 39
0001
0100
0010
1000
,  // measure 40
0100
0000
0010
0000
0001
0000
1000
0001
,  // measure 41
1000
0000
1100
0000
1000
0010
0100
0100
,  // measure 42
0200
0000
0000
0000
,  // measure 43
0320
0000
0000
0000
,  // measure 44
1030
0100
0001
0010
,  // measure 45
2000
0000
0000
0000
,  // measure 46
3002
0000
0000
0000
,  // measure 47
0023
0000
0000
0000
,  // measure 48
0130
1000
0010
0001
,  // measure 49
0200
0000
0000
0000
0000
0000
0310
0010
,  // measure 50
0010
0000
0000
0010
0001
0000
0000
0001
0100
0000
0000
0100
0010
0000
0000
0010
,  // measure 51
1000
0100
1000
0001
0100
0010
1000
0000
,  // measure 52
0001
0010
0100
1000
0001
0100
0010
0000
,  // measure 53
0010
0000
0000
1000
0000
0100
0000
1000
0000
0001
0000
0100
0010
0000
0000
0000
,  // measure 54
0100
0000
0000
0100
0001
0000
0000
0001
1000
0000
0000
1000
0100
0000
0000
0100
,  // measure 55
0010
0001
0100
0010
0100
0001
1000
0000
,  // measure 56
0100
0010
0001
1000
0010
0100
0001
0000
,  // measure 57
0010
0000
0000
0001
0000
0100
0000
0010
0000
1000
0000
0001
1000
0000
0000
0000
,  // measure 58
0001
0010
0000
0000
0001
0010
0000
0000
0100
1000
0000
0000
0100
1000
0000
0000
,  // measure 59
1001
0000
1001
0000
0100
0010
0000
0010
,  // measure 60
0110
0000
0110
0000
0001
1000
0000
0000
;

//---------------dance-single - ----------------
#NOTEDATA:;
#CHARTNAME:;
#STEPSTYPE:dance-single;
#DESCRIPTION:;
#CHARTSTYLE:;
#DIFFICULTY:Medium;
#METER:5;
#RADARVALUES:0.368062,0.325409,0.000000,0.107351,0.000000,230.000000,0.000000,10.000000,0.000000,0.000000,0.000000,0.000000,0.000000,0.368062,0.325409,0.000000,0.107351,0.000000,230.000000,0.000000,10.000000,0.000000,0.000000,0.000000,0.000000,0.000000;
#CREDIT:;
#NOTES:
0010
0010
1000
0100
,
1000
0000
0001
0000
0100
0010
0100
0000
,
0001
0000
0010
0000
0100
1000
0100
0000
,
0010
0001
0100
0010
,
1000
0000
0100
0000
1000
0001
0100
0000
,
0010
0000
1000
0000
0001
0010
0100
0000
,
1000
0000
0001
0000
0100
0010
1000
0000
,
0020
0000
0000
0130
,
0001
0010
0100
0100
,
1000
0001
0100
0010
,
0000
0100
0000
0100
0000
0010
0000
0010
,
0000
1000
0100
0010
,
0001
1000
0010
0100
,
0001
1000
0001
0100
,
0000
0010
0000
1000
0000
0100
0000
0010
,
0000
0001
0100
0010
,
1000
0000
0001
0000
0010
0000
0000
0001
,
0000
0100
0010
1000
,
0100
0000
0010
0000
0100
0000
0000
1000
,
0000
0010
0100
0000
,
0010
0000
1000
0000
0001
0000
0000
0010
,
0000
0001
1000
0010
,
0100
0000
0001
0000
0010
0000
0000
0100
,
0000
1000
0001
0100
,
0020
0000
0000
0030
,
0010
0000
1000
0000
0100
1000
0000
0001
,
0100
0000
0010
0000
1000
0001
0000
0010
,
0100
1000
0010
0100
,
0001
0000
0010
0000
0100
1000
0100
0000
,
0010
0000
0001
0000
0100
0010
0000
1000
,
0001
0000
0010
0000
0100
1000
0000
0000
,
0001
0100
0010
0000
1000
0000
0010
0000
,
0100
0001
0100
0010
,
1000
0000
0100
0000
0010
0001
0000
0010
,
0100
0000
1000
0000
0001
0100
0000
0010
,
1000
0000
0100
0000
0010
0001
0100
0000
,
0010
1000
0001
0000
,
0010
0000
0100
0000
1000
0001
0000
1000
,
0010
0000
0100
0000
0001
0010
0000
0100
,
1000
0010
0001
0100
,
1000
0000
0010
0000
0100
0000
0001
1000
,
0001
0000
0100
0000
0010
0000
1000
0001
,
2000
0000
0000
0000
,
3200
0000
0000
0000
,
0320
0000
0000
0000
,
0032
0000
0000
0000
,
0203
0000
0000
0000
,
0320
0000
0000
0000
,
1030
0001
1000
0001
,
2000
0000
0000
3001
,
0100
0000
0010
0000
0100
0001
0100
0000
,
0010
1000
0100
1000
,
0001
0000
0100
0000
0010
1000
0010
0000
,
0001
0100
1000
0010
,
0100
0000
0001
0000
1000
0100
0010
0000
,
0100
1000
0001
0100
,
0010
0000
1000
0000
0001
0010
0100
0000
,
2000
0000
0000
3001
,
0100
0010
0100
0010
,
1000
0000
0100
0000
0010
0001
0000
0000
,
1000
0000
0010
0000
0100
0001
0000
0000
;

//---------------dance-single - ----------------
#NOTEDATA:;
#CHARTNAME:;
#STEPSTYPE:dance-single;
#DESCRIPTION:;
#CHARTSTYLE:;
#DIFFICULTY:Easy;
#METER:4;
#RADARVALUES:0.291382,0.259790,0.000000,0.042941,0.000000,186.000000,0.000000,4.000000,0.000000,0.000000,0.000000,0.000000,0.000000,0.291382,0.259790,0.000000,0.042941,0.000000,186.000000,0.000000,4.000000,0.000000,0.000000,0.000000,0.000000,0.000000;
#CREDIT:;
#NOTES:
0001
0100
0001
0001
,
1000
0100
1000
0000
,
0010
0100
0010
0010
,
1000
0001
1000
0000
,
0001
0010
0001
0001
,
1000
0010
1000
0000
,
0001
0100
0001
0100
,
0200
0000
0000
0310
,
0010
1000
0100
1000
,
0001
0100
0010
0000
,
1000
0100
0010
0001
,
1000
0000
0010
0100
,
0001
0100
0010
1000
,
0001
0010
0100
0000
,
1000
0010
0100
0001
,
0010
0000
0100
1000
,
0001
0100
0010
0010
,
1000
0100
0010
0000
,
0100
0100
1000
0001
,
0100
0010
0100
0000
,
0010
1000
0010
0010
,
0100
0001
0100
0000
,
0001
1000
0001
0001
,
0010
0100
1000
0001
,
0200
0000
0000
0300
,
0010
1000
0010
0000
,
0100
0001
0100
0000
,
0001
0010
0001
0001
,
1000
0100
1000
0000
,
0010
1000
0010
0000
,
0100
0001
0100
0000
,
0001
0010
1000
0100
,
0001
0010
0100
1000
,
0001
0100
0001
0000
,
1000
0100
1000
0000
,
0010
0100
0001
1000
,
0100
0010
0001
0000
,
0100
0010
0100
0000
,
0001
1000
0001
0000
,
0010
1000
0100
0001
,
0010
0100
1000
0000
,
0001
0001
0002
0000
,
0013
0000
0000
0000
,
0100
0000
0000
0000
,
1000
0000
0000
0000
,
0001
0000
0000
0000
,
0100
0000
0000
0000
,
0010
0000
0000
0000
,
1000
0000
0000
0000
,
0001
0000
0000
0000
,
0010
0001
0010
0010
,
0001
0010
0001
0000
,
1000
0100
1000
1000
,
0010
1000
0010
0000
,
0100
0001
1000
0100
,
1000
0001
0100
0000
,
0010
1000
0001
0010
,
0200
0000
0000
1300
,
1000
0010
1000
0010
,
0100
0100
0100
0000
,
0010
0010
0010
0000
;
