#TITLE:LuciFire;
#ARTIST:2NE1 vs. SHINee;
#CREDIT:A. Michaelangelo;
#MUSIC:music.ogg;
#OFFSET:0;
#SAMPLESTART:68.46;
#SAMPLELENGTH:15;
#BPMS:0=126.125;
#NOTES:dance-single::Easy:3::
0000
0000
0000
0000
,
0000
0000
0000
0000
,
0000
0000
0000
0000
,
0000
0000
0000
0000
,
0001
0000
1000
0000
,
0001
0000
0100
0000
,
0010
0000
1000
0000
,
0200
0000
0000
0300
,
0010
0001
0001
0001
,
1000
0010
0010
0010
,
0100
0001
0001
0001
,
0100
1000
1000
1000
,
0002
0000
0000
0003
,
0200
0000
0000
0300
,
0020
0000
0000
0030
,
2000
0000
0000
3000
,
0020
0030
2000
3000
,
0020
0030
0200
0300
,
0020
0000
0000
0030
,
0002
0000
0000
0003
,
1000
1000
1000
0010
,
1000
0010
1001
0000
,
0001
0001
0001
0100
,
0010
0100
1001
0000
,
0010
0010
0100
0100
,
0001
0001
1000
1000
,
1001
0000
0000
0000
,
0110
0000
0000
0000
,
0001
0010
0100
1000
,
0010
1000
0010
0000
0000
0000
1001
0000
,
1000
0010
0100
0001
,
0100
0001
0100
0000
0000
0000
0000
0000
,
1001
0001
0001
0000
,
1001
1000
1000
0000
,
0010
0100
0010
0100
,
1001
0000
0110
0000
,
2002
0000
0000
0000
,
0000
0000
0000
3003
,
0001
0100
0010
1000
,
0001
0001
1001
0000
,
1000
1000
1001
0000
,
0010
0010
0010
1001
,
1000
0100
0010
0100
,
0001
0001
1001
0000
,
0100
0100
0110
0000
,
0010
0010
0110
0110
,
0001
0010
0001
0100
,
0001
0010
0001
0000
,
1000
0100
1000
0010
,
1000
0100
1000
0000
,
0010
1000
0010
0100
,
0001
0010
0001
1000
,
1000
0001
0001
1000
,
1000
0010
0010
0000
,
0020
0000
0000
0030
,
0020
0000
0000
0030
,
2000
0000
0000
3000
,
0002
0000
0000
0003
,
0002
0000
0000
0003
,
0020
0000
0000
0030
,
2000
0000
0000
3000
,
0020
0000
0000
0030
,
0200
0000
0000
0300
,
0002
0000
0000
0003
,
2000
3000
2000
3000
,
0020
0030
0020
0030
,
0002
0000
0000
0003
,
0200
0000
0000
0300
,
0020
0030
0020
0030
,
0200
0300
0002
0003
,
0010
0010
1000
1000
,
0001
0100
0010
0000
0000
0000
0110
0000
,
1000
1000
0010
0010
,
1000
0100
0010
0000
0000
0000
1001
0000
,
0001
0001
1000
0010
,
0010
0100
0001
0001
,
2002
0000
0000
3003
,
0220
0000
0000
0330
;
#NOTES:dance-single::Medium:5::
0000
0000
0000
0000
,
0000
0000
0000
0000
,
1000
0000
0000
1000
0010
0000
0000
0000
,
0010
0000
0000
0000
0010
0100
0000
0000
,
1000
0100
0000
0000
0001
0100
0000
0000
,
0010
0100
0000
0000
0100
0001
0000
0000
,
1000
0001
0000
0000
1000
0001
0000
0000
,
2000
3010
0002
0103
,
1000
0000
1000
0000
1000
0100
0010
0000
,
0100
0000
0100
0000
0100
0010
0001
0000
,
0010
0000
0010
0000
0010
0001
0100
0000
,
0001
1000
0001
1000
0010
0100
0010
0000
,
0002
0010
0010
0013
,
0200
1000
1000
1300
,
2000
0010
0010
3010
,
0020
0001
0001
0031
,
2000
3200
0302
0023
,
0230
1000
1300
1001
,
0020
0100
1000
0130
,
0210
0001
1000
0300
,
0001
1000
0001
0000
0001
1000
0001
0000
,
1000
0100
0010
0000
,
1000
0001
1000
0000
1000
0100
1000
0000
,
0010
0100
0010
0000
,
0110
0000
1000
0000
0010
0100
0001
0000
,
0110
0000
0001
0000
0010
0100
1000
0000
,
1100
0000
1100
0000
,
0011
0000
0101
0000
,
0001
0100
1000
0000
0001
0100
1000
0000
,
0001
0100
1000
0000
1000
0000
0110
0000
,
1000
0100
0001
0000
1000
0100
0001
0000
,
1000
0100
0001
0100
1000
0000
0101
0000
,
0001
0000
0001
0100
0000
0000
1100
0000
,
1010
0000
0010
0100
0000
0000
0110
0000
,
0010
0001
0100
0000
0010
1000
0100
0000
,
1001
0000
1001
0220
0000
0330
0000
0000
,
2000
0000
0200
3300
,
0002
0000
0200
0303
,
0010
1000
0001
0010
,
1000
0100
0010
0001
0000
0000
1000
0000
,
0010
0001
1000
0100
0010
0000
1000
0000
,
0010
0100
0010
0100
0000
1001
0000
0000
,
1000
0100
0001
0010
,
1000
0100
0010
0001
0000
0000
1000
0000
,
0001
1000
0010
1000
0001
0000
1000
0000
,
1000
0010
1000
0010
0000
0000
0110
0000
,
0001
1000
0010
0000
0010
1000
0100
0000
,
0001
1000
0001
0100
0010
0000
0100
0000
,
0010
0100
1000
0000
0010
0100
0010
0000
,
1000
0100
0001
0100
1000
0000
0001
0000
,
0001
0010
0001
0010
0001
0000
0000
0000
,
1000
0010
1000
0010
1000
0000
0010
0000
,
0100
0001
0010
0100
,
1000
0000
0010
0000
0100
0001
1000
0000
,
2000
3001
0200
0310
,
0020
1030
0200
0310
,
0002
1003
0002
0013
,
2000
3100
0020
0130
,
0002
0000
0100
0103
,
2000
0000
0010
3010
,
0200
0000
0010
0310
,
0102
0100
1000
1003
,
0020
0000
1000
0000
,
0001
0000
1000
0130
,
1000
0010
1000
0000
0010
0000
0100
0000
,
0001
0010
0001
0000
1000
0000
0100
0000
,
2000
0000
0100
0000
,
0010
0000
0100
3000
,
0010
1000
0100
0000
0010
0000
1000
0000
,
0010
0001
0100
0000
0001
0000
0100
0000
,
0001
0010
1000
0000
0001
0010
1000
0000
,
0001
0010
1000
0000
0100
0000
1100
0000
,
1000
0010
0001
0000
1000
0010
0001
0000
,
1000
0010
0001
0010
1000
0000
1010
0000
,
0001
0010
0001
0010
0000
0000
0001
0000
,
1000
0100
1000
0100
0000
0000
0011
0000
,
2000
3010
0002
0013
,
2000
3200
0320
0032
,
0003
0000
0000
0000
;
#NOTES:dance-single::Hard:8::
0000
0000
0000
0000
,
0000
0000
0000
0000
0000
0000
0000
1000
,
0010
0000
0000
1000
0000
0000
0100
0000
0000
0001
0000
0000
0100
0000
0000
1000
,
0000
0000
0010
0000
0000
1000
0000
0000
0100
0000
0000
0010
0000
0000
0001
0000
,
0010
0000
0000
0110
0000
0000
0001
0000
0000
0100
0000
0000
1000
0000
0000
0110
,
0000
0000
0010
0000
0000
0001
0000
0000
0010
0000
0000
0100
0000
0000
1010
0000
,
1001
0000
0000
0010
0000
0000
0100
0000
0000
0010
0000
0000
0001
0000
2000
0000
,
0000
3200
0000
0310
1000
0100
0010
0000
,
0001
0001
0001
0001
0001
0110
1000
0000
,
0010
0010
0010
0010
0010
0101
1000
0000
,
1000
1000
1000
1000
1000
0011
0100
0000
,
0011
0000
0000
1100
0000
0000
0010
0000
0100
0000
1000
0000
0001
0000
0000
0000
,
0002
1000
1003
1000
0200
0010
0310
0000
,
0020
0001
0031
0100
0010
1000
0010
0000
,
0020
0000
0230
0000
0301
1000
0010
0000
,
1000
1000
2000
0000
3100
0010
0001
0000
,
0100
1000
0010
0100
0002
0000
0203
0000
,
0310
1000
0010
0100
0010
0000
0100
0100
,
0020
0100
0130
0001
1000
0000
1001
0000
,
2000
0010
3010
0001
0100
0000
MMMM
0000
,
0001
0001
1000
1000
0001
0001
0001
0000
,
1000
0010
0100
1000
0000
0010
0100
0010
,
0100
0100
0010
0010
1000
0001
0010
0000
,
0001
1000
0100
0010
0000
0001
1000
0100
,
1100
0000
0000
0101
0000
0000
1000
0000
0001
0000
0010
0000
0000
0000
0000
0000
,
0110
0000
0000
0011
0000
0000
0001
0000
0100
0000
1000
0000
0100
0000
0001
0000
,
0010
1000
0010
0001
0010
0000
1000
0100
,
0010
0100
1000
0001
0010
0100
0010
0001
,
0010
0010
0010
0010
0010
0010
0010
1100
,
0001
0000
0000
0001
0000
0000
0100
0000
0000
0000
0001
0000
0100
0000
0010
0000
,
0100
0100
0100
0100
0100
0100
0100
1010
,
0001
0000
0000
0100
0000
0000
0110
0000
0000
0000
0001
0000
1000
0000
0001
0000
,
0100
0100
0100
0010
0000
0100
0001
0010
,
0001
0001
0001
0100
0000
1001
0010
0100
,
1001
1000
0001
0001
1000
1000
1100
0010
,
0100
0100
0100
0020
0000
0000
0030
0000
,
0002
0100
0103
0000
2000
0010
3010
0000
,
0020
0100
0130
0000
0200
0001
0301
0000
,
1001
0000
0000
0110
0000
0000
1000
0000
1000
0000
1000
0000
0010
0000
0100
0000
,
0101
0000
0000
1010
0000
0000
1100
0000
0000
0000
0010
0000
0100
0000
0010
0000
,
0001
0000
0000
0001
0000
0000
0001
0000
0000
0000
1000
0000
0100
0000
1000
0000
,
0010
0000
0000
0010
0000
0000
0010
0000
0000
0000
1001
0000
0110
0000
0001
0000
,
1000
0010
1000
0100
0010
0000
0100
0000
,
0011
0000
0000
0101
0000
0000
0011
0000
0000
0000
0001
0000
1000
0000
0000
0000
,
1010
0000
0000
0110
0000
0000
0101
0000
0000
0000
0100
0000
0001
0000
0010
0000
,
1100
0000
0000
0011
0000
0000
1100
0000
0000
0000
0010
0000
0010
0000
0000
1000
,
0001
0100
0001
0010
0001
1000
0100
0010
,
0100
0000
1000
0000
0001
0000
0100
0000
0000
1000
0010
0000
0100
0000
0010
0000
,
0001
0010
0100
0010
1000
0010
0100
0001
,
1000
0000
0010
0000
0100
0000
0001
0000
0000
0001
1000
0000
1000
0000
1000
0000
,
1001
0001
0010
0100
1000
0000
0100
0100
,
0010
0000
0100
0000
0010
0000
0001
0000
0001
0000
0000
1000
0001
0000
0001
0000
,
0001
0000
0000
1000
0001
0000
0001
0000
0001
0000
0000
0001
1000
0000
0100
0000
,
1000
0010
0010
0100
0100
0001
0010
0100
,
0002
0100
0103
0000
2000
0100
3100
0010
,
0001
0010
0002
0000
2003
0010
3010
0000
,
0100
1000
0200
0000
0320
1000
1030
0000
,
0002
0000
0013
0000
0200
1000
1300
0000
,
1002
0000
0013
0000
0210
0000
1300
0100
,
0001
0100
1000
1000
0200
0000
2300
0001
,
3001
1000
0200
0010
0310
0000
0001
1000
,
0001
0100
0010
1000
0200
0000
0301
0001
,
0100
1000
0100
1000
0010
0100
0010
0100
,
0001
0010
0001
0010
0100
1000
0100
1000
,
0000
0001
1000
0001
0000
0010
0000
0000
0100
0000
0100
0000
0100
0000
0000
0000
,
0000
1000
0010
1000
0000
0001
0000
0000
0010
0000
0010
0000
0010
0000
0000
0000
,
0001
0100
0001
0100
0010
1000
0010
1000
,
0010
0100
0010
0100
0001
1000
0001
1000
,
0000
0001
0010
0001
0000
0100
0000
0000
0010
0000
0010
0000
0010
0000
0000
0000
,
0000
0010
0100
0010
0000
1000
0000
0000
0200
0000
0000
0000
0301
0000
0000
0000
,
0001
0001
0001
0001
0001
0001
0001
0100
,
1000
0000
0000
0100
0000
0000
0110
0000
0000
0000
1000
0000
0011
0000
0000
0000
,
1000
1000
1000
1000
1000
1000
1000
0001
,
0010
0000
0000
0001
0000
0000
1100
0000
0000
0000
0010
0000
0101
0000
0010
0000
,
1000
1000
1000
0100
0000
0010
0010
0001
,
0100
0010
1000
1000
0000
0001
0100
0001
,
2000
3020
2030
3200
,
0320
0001
0031
0001
0100
0010
0200
0000
,
0300
MMMM
0000
0000
0000
0000
0000
0000
;
