#TITLE:In The Fire;
#SUBTITLE:;
#ARTIST:nc ft. StormRock;
#TITLETRANSLIT:;
#SUBTITLETRANSLIT:;
#ARTISTTRANSLIT:;
#CREDIT:;
#BANNER:[Beat the Heat] - In The Fire.png;
#BACKGROUND:[Beat the Heat] - In The Fire-bg.png;
#LYRICSPATH:;
#CDTITLE:cd.png;
#MUSIC:[Beat the Heat] - In The Fire.ogg;
#OFFSET:-1.648;
#SAMPLESTART:62.387;
#SAMPLELENGTH:12.000;
#SELECTABLE:YES;
#BPMS:0.000=156.000;
#STOPS:;
#BGCHANGES:;

//---------------dance-single - ----------------
#NOTES:
     dance-single:
     :
     Hard:
     8:
     0.598,0.650,0.262,0.213,0.174: // measure 1
0000
0000
0000
0000
,  // measure 2
0000
0000
0000
0000
,  // measure 3
0000
0000
0000
0000
,  // measure 4
0000
0000
0000
0000
,  // measure 5
0001
0010
0100
0000
1000
0001
0100
0000
,  // measure 6
0010
0100
0001
0000
1000
0100
0010
0000
,  // measure 7
0001
0010
0001
0000
1000
0100
1000
0000
,  // measure 8
0010
0100
0001
1000
0100
0010
0100
0000
,  // measure 9
1000
0000
0000
0010
0000
0000
1000
0000
0000
0000
0001
0000
0010
0000
0001
0000
,  // measure 10
1000
0000
0000
0010
0000
0000
0100
0000
0000
0000
0010
0000
1000
0000
0001
0000
,  // measure 11
1000
0000
0000
0010
0000
0000
0100
0000
0000
0000
0001
0000
0001
0000
0010
0000
,  // measure 12
0100
0000
0000
0100
0000
0000
0010
0000
0000
0000
0100
0000
0010
0000
0100
0000
,  // measure 13
1000
0000
0000
0001
0000
0000
0100
0000
0000
0000
0001
0000
1000
0000
0100
0000
,  // measure 14
0010
0000
0000
0100
0000
0000
0010
0000
0000
0000
0001
0000
1000
0000
0010
0000
,  // measure 15
0100
0000
0000
0010
0000
0000
1000
0000
0000
0000
1000
0000
0001
0000
0010
0000
,  // measure 16
0100
0010
0001
1000
0010
0000
0100
0000
0200
0000
0000
0000
0300
0000
0000
0000
,  // measure 17
0010
0000
1000
0010
0000
0000
0200
0000
0000
0000
0310
0000
0010
0000
1000
0000
,  // measure 18
0001
0000
0100
0010
0000
0000
2000
0000
0000
0000
3001
0000
0010
0000
0001
0000
,  // measure 19
1000
0000
0001
1000
0000
0001
1000
0000
0100
0000
0010
0000
0001
0000
1000
0000
,  // measure 20
0010
0000
0100
0010
0000
0100
0010
0000
1000
0001
1000
0001
1000
0000
0010
0000
,  // measure 21
1000
0000
0001
1000
0000
0000
0020
0000
0000
0000
0130
0000
0001
0000
0100
0000
,  // measure 22
0001
0000
1000
0001
0000
0000
0020
0000
0000
0000
0130
0000
1000
0000
0001
0000
,  // measure 23
0010
0000
0001
0010
0000
0001
0020
0000
0000
0000
0130
0000
0010
0000
0100
0000
,  // measure 24
1000
0000
1000
0000
0001
0000
0100
0000
0010
0000
0020
0000
0000
0030
0000
0000
,  // measure 25
1000
0100
1000
0010
1000
0001
0001
0000
,  // measure 26
1000
0100
1000
0001
0100
0010
0010
0000
,  // measure 27
1000
0010
1000
0000
0001
0010
0001
0200
,  // measure 28
0000
0010
0310
0000
1010
0000
0101
0000
,  // measure 29
0001
0010
0001
1000
0100
1000
1000
0000
,  // measure 30
0010
1000
0010
0100
0001
0010
0010
0000
,  // measure 31
0100
1000
0100
0000
1000
0010
0001
0000
,  // measure 32
0010
1000
0001
0010
0100
0000
0110
0000
,  // measure 33
2000
0000
3010
0000
0100
0001
1000
0100
,  // measure 34
0020
0000
0001
0000
0000
0001
0000
0000
0100
0000
0100
0000
0030
0000
0000
0000
,  // measure 35
1000
0010
1000
0001
0100
0000
0001
1000
,  // measure 36
0000
0100
0000
0110
0000
1001
0100
0000
,  // measure 37
0020
0000
1030
0000
0001
0010
0100
1000
,  // measure 38
0020
0000
1000
0000
0000
1000
0000
0000
0100
0000
0100
0000
0030
0000
0000
0000
,  // measure 39
0100
0001
0010
0100
0010
0001
1000
0020
,  // measure 40
0000
0000
0100
0130
,  // measure 41
0110
0000
1001
0000
0001
0010
0100
1000
,  // measure 42
0000
1001
0000
0110
0000
0110
0000
0000
,  // measure 43
0001
0100
0001
0100
1000
0100
0001
0020
,  // measure 44
0000
0100
0130
0000
0110
0000
1001
0000
,  // measure 45
1010
0000
0101
0000
0001
0100
1000
0100
,  // measure 46
0000
0101
0000
0001
0000
0011
0000
0100
,  // measure 47
1000
0010
1000
0001
1000
0100
0010
0020
,  // measure 48
0000
0100
0130
0000
0110
0000
1001
0000
,  // measure 49
0011
0000
1100
0000
1000
0010
0100
0001
,  // measure 50
0000
0101
0000
0010
0000
1010
0000
1000
,  // measure 51
0001
0100
0001
0010
0001
1000
0010
0010
,  // measure 52
0100
0001
1000
0001
1000
0000
0001
0000
,  // measure 53
0110
0000
1001
0000
0001
1000
0100
0010
,  // measure 54
0000
0110
0000
1000
0000
1001
0000
0001
,  // measure 55
0100
1000
0100
1000
0100
0001
0010
0200
,  // measure 56
0000
0000
1300
0000
0001
0000
0010
0000
0000
0000
2002
0000
0000
3003
0000
0000
,  // measure 57
0010
0000
1000
0010
0000
0000
0200
0000
0000
0000
0301
0000
1000
0000
0100
0000
,  // measure 58
0010
0000
0001
0010
0000
0001
0010
0000
0000
0000
0100
0000
0100
0000
1000
0000
,  // measure 59
0001
0000
1000
0001
0000
1000
0001
0000
0100
0000
0010
0000
1000
0000
0001
0000
,  // measure 60
1000
0000
0100
0010
0000
0100
0010
0000
0001
1000
0001
1000
0001
0000
0010
0000
,  // measure 61
0100
0000
0010
0100
0000
0000
2000
0000
0000
0000
3001
0000
0010
0000
0001
0000
,  // measure 62
0100
0000
0001
0010
0000
0000
0200
0000
0000
0000
0310
0000
0001
0000
1000
0000
,  // measure 63
0010
0000
0100
0010
0000
0100
0010
0000
1000
0000
0001
0000
0010
0000
0001
0000
,  // measure 64
1000
0010
0100
0001
0010
0020
0000
0030
;

//---------------dance-single - ----------------
#NOTES:
     dance-single:
     :
     Medium:
     6:
     0.429,0.464,0.184,0.194,0.029: // measure 1
0000
0000
0000
0000
,  // measure 2
0000
0000
0000
0000
,  // measure 3
0000
0000
0000
0000
,  // measure 4
0000
0000
0000
0000
,  // measure 5
1000
1000
0001
0001
,  // measure 6
1000
1000
0010
0010
,  // measure 7
0100
0100
0010
0010
,  // measure 8
1000
0001
0100
0001
,  // measure 9
0010
0000
0000
0000
,  // measure 10
0100
0000
0000
0010
,  // measure 11
0010
0000
0100
0000
,  // measure 12
0010
0000
0010
0000
,  // measure 13
0100
0200
0000
0300
,  // measure 14
0010
0000
0020
0000
0000
0030
0000
0000
,  // measure 15
0001
0001
1000
1000
,  // measure 16
0010
0000
0100
0010
2000
0000
0000
3000
,  // measure 17
0001
0000
1000
0000
0100
0000
0010
0001
,  // measure 18
0100
0000
0001
0000
0010
0000
0100
1000
,  // measure 19
0010
0000
0100
0000
0001
0100
0001
0000
,  // measure 20
1000
0100
0010
0000
0001
0010
0001
0000
,  // measure 21
1000
0000
0100
0000
0010
0000
0100
0010
,  // measure 22
1000
0000
0001
0000
0100
0000
0001
0010
,  // measure 23
0001
0000
1000
0000
0100
1000
0100
0000
,  // measure 24
0010
0000
1001
0000
0010
0020
0000
0030
,  // measure 25
1000
1000
0001
0001
,  // measure 26
1000
0100
1000
0000
0010
0000
0100
0000
,  // measure 27
0001
0010
0001
0000
1000
0010
1000
0000
,  // measure 28
2002
3003
0110
0110
,  // measure 29
0001
0000
1000
0000
0100
0010
0001
0000
,  // measure 30
1000
0000
0001
0000
0100
0010
1000
0000
,  // measure 31
0001
0010
0001
0000
1000
0010
1000
0000
,  // measure 32
2002
3003
0110
0110
,  // measure 33
0010
0000
1000
0000
0100
0000
0010
0001
,  // measure 34
0100
0000
0010
0000
1000
0010
1000
0000
,  // measure 35
0001
0001
1000
0100
,  // measure 36
0010
0001
0100
0000
0010
1000
0100
0000
,  // measure 37
0010
0000
1000
0000
0100
0000
0010
0001
,  // measure 38
0100
0000
0010
0001
1000
0001
1000
0000
,  // measure 39
0010
0000
0010
0000
1000
0001
0010
0200
,  // measure 40
0000
0300
0010
0010
,  // measure 41
1001
0000
0110
0000
1000
0001
0100
0000
,  // measure 42
0010
1000
0100
0000
0010
0001
0100
0000
,  // measure 43
0001
0010
0001
0000
1000
0010
1000
0000
,  // measure 44
2002
3003
0110
0110
,  // measure 45
0010
0000
1000
0000
0010
1000
0001
0010
,  // measure 46
0000
0100
0010
0100
0000
0000
1000
0000
,  // measure 47
0001
0100
0001
0000
1000
0100
1000
0000
,  // measure 48
1001
0000
0110
0110
,  // measure 49
1001
0000
0100
0000
0010
1000
0100
0000
,  // measure 50
0010
0001
0100
0000
0010
1000
0010
0000
,  // measure 51
1000
0100
1000
0000
0001
0100
0001
0000
,  // measure 52
2002
3003
0110
0110
,  // measure 53
1000
0000
0001
0000
1000
0000
0010
0100
,  // measure 54
0001
0000
1000
0000
0001
0100
0010
0000
,  // measure 55
1000
0010
1000
0000
0001
0010
0001
0000
,  // measure 56
1000
0001
0100
0010
0000
0020
0000
0030
,  // measure 57
1000
0000
0000
0100
0000
0000
2000
0000
0000
0000
3000
0000
0001
0000
0010
0000
,  // measure 58
0100
0000
0000
0010
0000
0000
0002
0000
0000
0000
0003
0000
1000
0000
0010
0000
,  // measure 59
0100
0000
0000
0001
0000
0000
1000
0000
0000
0000
0100
0000
0010
0000
0100
0000
,  // measure 60
2000
0000
0000
0000
0000
0000
0000
0000
0001
0000
0000
3000
0001
0000
0000
0000
,  // measure 61
0100
0000
0000
0010
0000
0000
0002
0000
0000
0000
0003
0000
1000
0000
0100
0000
,  // measure 62
1000
0000
0000
0010
0000
0000
0200
0000
0000
0000
0300
0000
0001
0000
0010
0000
,  // measure 63
0001
0000
0000
1000
0000
0000
0100
0000
0000
0000
1000
0000
0001
0000
0100
0000
,  // measure 64
0000
0001
1000
0100
0010
0020
0000
0030
;

//---------------dance-single - ----------------
#NOTES:
     dance-single:
     :
     Easy:
     4:
     0.335,0.402,0.145,0.213,0.000: // measure 1
0000
0000
0000
0000
,  // measure 2
0000
0000
0000
0000
,  // measure 3
0000
0000
0000
0000
,  // measure 4
0000
0000
0000
0000
,  // measure 5
1000
2000
3000
0000
,  // measure 6
0001
0002
0003
0000
,  // measure 7
0010
0020
0030
0000
,  // measure 8
0100
0200
0300
0000
,  // measure 9
0010
0000
0000
0000
,  // measure 10
0100
0000
0000
0000
,  // measure 11
1000
0000
1000
0000
,  // measure 12
0001
0000
0001
0000
,  // measure 13
0100
0000
0000
0000
,  // measure 14
0010
0000
0000
0000
,  // measure 15
1000
0000
1000
0000
,  // measure 16
0001
0000
0001
0000
,  // measure 17
0010
0100
0020
0030
,  // measure 18
0100
0010
0200
0300
,  // measure 19
1000
1000
0001
0001
,  // measure 20
1000
0001
0200
0300
,  // measure 21
0010
0010
0200
0300
,  // measure 22
0010
1000
0002
0003
,  // measure 23
1000
1000
0001
0001
,  // measure 24
1000
0001
0200
0300
,  // measure 25
0010
0010
0200
0300
,  // measure 26
0010
1000
0002
0003
,  // measure 27
1000
1000
0001
0001
,  // measure 28
2002
3003
0110
0110
,  // measure 29
1000
0100
0020
0030
,  // measure 30
0001
0100
0020
0030
,  // measure 31
1000
1000
0001
0001
,  // measure 32
2002
3003
0010
0010
,  // measure 33
2000
0100
0010
3001
,  // measure 34
1001
0000
0100
0100
,  // measure 35
0010
0010
1000
1000
,  // measure 36
0001
0100
0001
1000
,  // measure 37
0002
0010
0100
1003
,  // measure 38
1001
0000
0010
0010
,  // measure 39
0100
0000
0100
0000
0001
0000
1000
0100
,  // measure 40
0020
0030
0100
0100
,  // measure 41
0010
0010
1000
0010
,  // measure 42
1000
1000
0001
0001
,  // measure 43
1000
0100
1000
0000
0010
0000
0010
0000
,  // measure 44
0100
0100
0010
0010
,  // measure 45
0110
1001
0001
0100
,  // measure 46
0010
0010
0100
0100
,  // measure 47
0001
0100
0001
0000
0010
0000
0010
0000
,  // measure 48
0100
0100
0010
1001
,  // measure 49
0110
1001
0010
0100
,  // measure 50
1000
0001
1000
1000
,  // measure 51
0010
0100
0010
0000
0100
0010
0100
0000
,  // measure 52
0010
0010
0100
0100
,  // measure 53
0010
1001
1000
0100
,  // measure 54
0010
0010
0001
0001
,  // measure 55
1000
0001
1000
0000
0001
1000
0001
0000
,  // measure 56
1001
0000
0110
0110
,  // measure 57
1000
1000
0001
0001
,  // measure 58
0100
0000
0100
0000
0010
0000
1000
0100
,  // measure 59
1000
0010
0100
0100
,  // measure 60
0001
0001
1000
1000
,  // measure 61
0001
0001
0010
0010
,  // measure 62
0100
0000
0010
0000
0001
0000
1000
0100
,  // measure 63
1000
0010
0100
0100
,  // measure 64
0010
0000
1000
0000
0100
0200
0000
0300
;

//---------------dance-single - ----------------
#NOTES:
     dance-single:
     :
     Beginner:
     2:
     0.156,0.215,0.000,0.000,0.000: // measure 1
0000
0000
0000
0000
,  // measure 2
0000
0000
0000
0000
,  // measure 3
0000
0000
0000
0000
,  // measure 4
0000
0000
0000
0000
,  // measure 5
0010
0000
0000
0000
,  // measure 6
1000
0000
0000
0000
,  // measure 7
0010
0000
0000
0000
,  // measure 8
0100
0000
0000
0000
,  // measure 9
0010
0000
0000
0000
,  // measure 10
1000
0000
0000
0000
,  // measure 11
0001
0000
0001
0000
,  // measure 12
1000
0000
1000
0000
,  // measure 13
0010
0000
0000
0000
,  // measure 14
0100
0000
0000
0000
,  // measure 15
0001
0000
0001
0000
,  // measure 16
1000
0000
1000
0000
,  // measure 17
0010
0000
0000
0000
,  // measure 18
0100
0000
0000
0000
,  // measure 19
0010
0000
0100
0000
,  // measure 20
0010
0000
0100
0000
,  // measure 21
0001
0000
0000
0000
,  // measure 22
1000
0000
0000
0000
,  // measure 23
0001
0000
1000
0000
,  // measure 24
0001
0000
0010
0000
,  // measure 25
0100
0000
0100
0000
,  // measure 26
0010
0000
0010
0000
,  // measure 27
0100
0100
0100
0000
,  // measure 28
0010
0010
0010
0000
,  // measure 29
0100
0000
0010
0000
,  // measure 30
0100
0000
0010
0000
,  // measure 31
1000
1000
1000
0000
,  // measure 32
0001
0001
0001
0000
,  // measure 33
0010
0000
0000
0000
,  // measure 34
0100
0000
0000
0000
,  // measure 35
0010
0010
0010
0000
,  // measure 36
0100
0100
0100
0000
,  // measure 37
0010
0000
0000
0000
,  // measure 38
1000
0000
0000
0000
,  // measure 39
0001
0000
1000
0000
,  // measure 40
0010
0000
0010
0000
,  // measure 41
0100
0100
0000
0000
,  // measure 42
0010
0010
0010
0000
,  // measure 43
1000
0000
1000
0000
,  // measure 44
0001
0000
0001
0000
,  // measure 45
0010
0010
0000
0000
,  // measure 46
0100
0100
0100
0000
,  // measure 47
1000
0000
1000
0000
,  // measure 48
0001
0000
0001
0000
,  // measure 49
0100
0100
0000
0000
,  // measure 50
0010
0010
0010
0000
,  // measure 51
1000
0000
0001
0000
,  // measure 52
1000
0000
0100
0000
,  // measure 53
0010
0010
0000
0000
,  // measure 54
0100
0000
0010
0000
,  // measure 55
0001
0000
0001
0000
,  // measure 56
1000
0000
1000
0000
,  // measure 57
0001
0000
0000
0000
,  // measure 58
1000
0000
0000
0000
,  // measure 59
0001
0000
1000
0000
,  // measure 60
0001
0001
0001
0000
,  // measure 61
1000
0000
0001
0000
,  // measure 62
0100
0000
0001
0000
,  // measure 63
0010
0000
0010
0000
,  // measure 64
0100
0100
0100
0000
;
