#TITLE:Hathead Theme;
#SUBTITLE:;
#ARTIST:Dirk Sullivan;
#TITLETRANSLIT:;
#SUBTITLETRANSLIT:;
#ARTISTTRANSLIT:;
#CREDIT:Dossar;
#BANNER:hatheadbn.png;
#BACKGROUND:hatheadbg.png;
#LYRICSPATH:;
#CDTITLE:cd.png;
#MUSIC:Hathead Theme.mp3;
#OFFSET:-1.440;
#SAMPLESTART:52.780;
#SAMPLELENGTH:13.820;
#SELECTABLE:YES;
#BPMS:0.000=137.860;
#STOPS:;
#BGCHANGES:;

//---------------dance-single - ----------------
#NOTES:
     dance-single:
     :
     Hard:
     7:
     0.538,0.529,0.414,0.124,0.000: // measure 1
1010
1000
1000
0011
,  // measure 2
0110
0100
0100
0100
,  // measure 3
1100
1000
1000
0110
,  // measure 4
1001
0001
0001
0001
,  // measure 5
0001
0100
0001
1000
0100
1000
0001
0010
,  // measure 6
0100
1000
0100
0010
0001
0010
0100
1000
,  // measure 7
0001
0010
0001
1000
0100
1000
0001
0100
,  // measure 8
0010
1000
0010
0100
0001
0100
0010
1000
,  // measure 9
0100
0010
0100
1000
0001
1000
0010
0100
,  // measure 10
0001
1000
0001
0010
0100
0010
0001
1000
,  // measure 11
0010
0100
0010
1000
0001
1000
0100
0010
,  // measure 12
0001
1000
0001
0100
0010
0100
0001
0010
,  // measure 13
1001
0000
1000
0010
0010
0001
0010
0010
,  // measure 14
1000
0000
1000
0100
0100
0001
0100
0100
,  // measure 15
1001
0000
1000
0000
1000
0010
0010
0001
,  // measure 16
0010
0010
1000
0010
0010
0001
0010
0010
,  // measure 17
1001
0000
0001
0100
0100
1000
0100
0100
,  // measure 18
0001
0000
0001
0010
0010
1000
0010
0010
,  // measure 19
1001
1000
1000
1010
,  // measure 20
0101
0001
0001
0001
,  // measure 21
0011
0010
0010
0110
,  // measure 22
1001
1000
1000
1000
,  // measure 23
1001
0000
0001
0000
0001
1100
0000
0011
,  // measure 24
0000
0000
0001
0100
0010
1000
0000
0000
,  // measure 25
0110
0001
1000
0000
0001
0110
0000
1001
,  // measure 26
0000
0001
0000
1000
0000
0100
0010
0000
,  // measure 27
1100
0010
0001
1000
0000
1010
0000
0101
,  // measure 28
0000
1000
0000
0001
0000
0010
0100
0000
,  // measure 29
0110
0001
1000
0010
0000
1010
0000
0101
,  // measure 30
0000
0001
0020
0000
0031
1000
0010
0100
,  // measure 31
1001
0000
1000
0010
0010
0001
0010
0010
,  // measure 32
1000
0000
1000
0100
0100
0001
0100
0100
,  // measure 33
1001
0000
1000
0010
0010
0001
0010
0010
,  // measure 34
1000
0000
1000
0000
1000
0001
0100
0010
,  // measure 35
1001
0000
1000
0010
0010
0001
0010
0010
,  // measure 36
1000
0000
1000
0100
0100
0001
0100
0100
,  // measure 37
1001
0000
1000
0010
0010
0001
0010
0010
,  // measure 38
1001
0000
1000
0100
0100
0001
0100
0100
,  // measure 39
1001
0000
1000
0000
0001
0000
0001
0010
,  // measure 40
2200
0000
3300
0022
0000
0033
2002
3003
,  // measure 41
1001
1000
0100
1100
,  // measure 42
0011
1000
0100
0010
0001
0000
0001
0000
,  // measure 43
0101
0100
0100
0110
,  // measure 44
1001
0000
1000
0000
0010
1000
0001
1000
,  // measure 45
0110
0001
0010
0100
1000
0001
0100
0020
,  // measure 46
0000
1030
0001
0010
0001
1000
0100
1000
,  // measure 47
0001
0100
0010
1000
0001
1000
0100
0010
,  // measure 48
0200
0000
0000
1300
0100
0010
0001
1000
,  // measure 49
0010
0100
0010
1000
0001
0100
0010
2000
,  // measure 50
0000
3001
0010
0100
0010
0001
1000
0001
,  // measure 51
0100
0010
1000
0001
0010
0100
1000
0001
,  // measure 52
0200
0000
0000
0310
1000
0001
0010
0100
,  // measure 53
1001
0000
1000
0010
0010
0001
0010
0010
,  // measure 54
1000
0000
1000
0100
0100
0001
0100
0100
,  // measure 55
1001
0000
1000
0000
1000
0100
0010
0002
,  // measure 56
0000
2003
0000
3020
0000
0230
0000
0310
,  // measure 57
1001
0000
1000
0000
1000
0010
1000
0001
,  // measure 58
0010
0000
0010
0000
0010
0100
0010
0000
,  // measure 59
0011
0000
0001
1000
0001
0010
0100
0010
,  // measure 60
0001
0000
0001
0000
0001
1000
0001
0000
,  // measure 61
1001
0000
1000
0000
1000
0001
1000
0010
,  // measure 62
0100
0000
0100
0000
0100
0010
0100
0000
,  // measure 63
0101
0000
0001
0000
0001
1000
0001
0010
,  // measure 64
0100
0000
0100
0000
0100
1000
0100
0000
,  // measure 65
1001
0000
0000
0000
;

//---------------dance-single - ----------------
#NOTES:
     dance-single:
     :
     Medium:
     5:
     0.395,0.371,0.124,0.033,0.000:
1001
1000
1000
0001
,
0100
0100
0100
0100
,
0110
0010
0010
1000
,
0001
0001
0001
0001
,
1000
0100
1000
0000
0001
0000
0010
0000
,
0100
1000
0100
0000
0010
0000
0001
0000
,
1000
0010
1000
0000
0001
0000
0010
0000
,
0100
1000
0100
0000
0010
0000
0001
0000
,
1000
0010
1000
0000
0001
0000
0100
0000
,
0001
1000
0001
0000
1000
0000
0100
0000
,
0010
0001
0010
0000
0100
0000
1000
0000
,
0001
1000
0001
0000
0100
0000
0010
0000
,
1000
0000
0001
0000
1000
0100
1000
0001
,
0100
0000
0010
0000
0100
0010
0100
0001
,
1000
0000
0100
0000
1000
0001
1000
0000
,
0100
0000
0010
0000
0001
1000
0001
0000
,
0100
0000
0010
0000
1000
0001
1000
0010
,
0100
0000
0001
0000
1000
0100
1000
0001
,
0100
0000
0010
0000
1000
0001
1000
0000
,
0100
0000
0010
0000
0001
1000
0001
0000
,
0010
0000
0100
0000
1000
0100
1000
0000
,
0001
0000
0100
0000
0001
0100
0001
0000
,
1001
0000
1000
0000
1000
0100
0000
0100
,
0000
0000
1000
0100
0010
0001
0000
0000
,
1000
0001
0100
0000
0001
1000
0000
1000
,
0000
0001
0000
0100
0000
0010
1000
0000
,
0001
0100
0010
1000
0000
0001
0000
0001
,
0000
1000
0000
0001
0000
0010
0100
0000
,
1000
0001
0100
0010
0000
1000
0000
1000
,
0000
0001
0100
0000
0001
1000
0010
0100
,
0001
0000
1000
0000
0010
0100
0010
0000
,
1000
0000
0001
0000
0100
0010
0100
0000
,
0001
0000
1000
0000
0001
0010
0001
0000
,
1000
0000
0100
0000
1000
0001
0100
0010
,
1000
0000
0001
0000
1000
0010
1000
0000
,
0001
0000
0010
0000
0100
1000
0100
0000
,
0010
0000
0001
0000
0010
0100
0010
0000
,
0100
0000
1000
0000
0001
0100
0001
0000
,
1001
1000
0001
0001
,
0101
0000
0000
1010
0000
0000
1001
0000
,
1001
1000
1000
0010
,
0100
0001
0100
0001
0100
0000
0100
0000
,
0110
0010
0010
1000
,
0100
0000
0100
0000
0100
0010
0100
0010
,
0001
0000
1000
0000
0010
0000
0010
0200
,
0000
0301
1000
0000
0010
0000
0100
0000
,
0001
1000
0100
0010
,
0002
0000
0000
1003
0100
0000
0010
0000
,
0001
0000
1000
0000
0100
0000
0100
0020
,
0000
0031
1000
0000
0100
0000
0010
0000
,
0001
1000
0010
0100
,
0002
0000
0000
0103
0010
0000
1000
0000
,
1001
0000
0001
0000
1000
0010
1000
0001
,
0100
0000
0010
0000
0100
0001
0100
0010
,
1000
0000
0001
0000
1000
0100
0010
0001
,
0000
1000
0000
0010
0000
0100
0000
0000
,
0110
0000
0010
0000
0010
1000
0001
0000
,
0100
0000
0100
0000
0100
0010
0100
0000
,
0110
0000
0010
0000
0010
1000
0001
0000
,
0010
0000
0010
0000
0010
0001
0010
0000
,
0110
0000
0100
0000
0100
1000
0001
0000
,
0100
0000
0100
0000
0100
0010
0100
0000
,
0110
0000
0010
0000
0010
1000
0001
0000
,
0100
0000
0100
0000
0100
0010
0100
0000
,
0110
0000
0000
0000
;

//---------------dance-single - ----------------
#NOTES:
     dance-single:
     :
     Easy:
     2:
     0.195,0.238,0.124,0.000,0.000:
1001
0000
0000
0001
,
0001
0000
0000
0000
,
1001
0000
0000
1000
,
1000
0000
0000
0000
,
0001
0000
0001
0000
,
1000
0000
1000
0000
,
0100
0000
0100
0000
,
0010
0000
0010
0000
,
0001
0000
0001
0000
,
1000
0000
1000
0000
,
0010
0000
0010
0000
,
0100
0000
0100
0000
,
0110
0000
0010
0010
,
0010
0000
0010
0010
,
0110
0000
0100
0000
,
0001
0000
0001
0000
,
1001
0000
1000
1000
,
1000
0000
1000
1000
,
1001
0000
0001
0000
,
0100
0000
0100
0000
,
0010
0000
0010
0000
,
1000
0000
1000
0000
,
1001
0001
0001
0000
,
0000
1000
1000
0000
,
0010
0010
0010
0000
,
0100
0100
0100
0000
,
0001
0001
0001
0000
,
1000
1000
1000
0000
,
0100
0100
0100
0000
,
1000
1000
1000
0000
,
1001
0000
0001
0000
,
0010
0000
0010
0000
,
0100
0000
0100
0000
,
1000
0000
1000
0000
,
1001
0000
0001
0000
,
1000
0000
1000
0000
,
0010
0000
0010
0000
,
0100
0000
0100
0000
,
0110
0000
0000
0000
,
1001
0000
0000
0000
,
0110
0000
0010
0010
,
0010
0000
0010
0000
,
0100
0000
0100
0100
,
0100
0000
0100
0000
,
1001
0000
1000
0000
,
0001
0000
0001
0000
,
0100
0000
0100
0100
,
0100
0000
0100
0000
,
0010
0000
0010
0000
,
1000
0000
1000
0000
,
0001
0000
0001
0001
,
0001
0000
0001
0000
,
1001
0000
1000
1000
,
1000
0000
0001
0001
,
0001
0000
1000
0000
,
0010
0000
0100
0000
,
0010
0010
0010
0000
,
1000
1000
1000
0000
,
0001
0001
0001
0000
,
0100
0100
0100
0000
,
0001
0001
0001
0000
,
1000
1000
1000
0000
,
0010
0010
0010
0000
,
0100
0100
0100
0000
,
1001
0000
0000
0000
;
