#TITLE:Fire;
#ARTIST:2NE1;
#CREDIT:Lisek;
#BANNER:[Beat the Heat] - Fire.png;
#BACKGROUND:[Beat the Heat] - Fire-bg.png;
#CDTITLE:cdtitle.png;
#MUSIC:[Beat the Heat] - Fire.ogg;
#OFFSET:-0.290;
#SAMPLESTART:47.499;
#SAMPLELENGTH:15.200;
#SELECTABLE:YES;
#BPMS:0.000=126.030;

//---------------dance-single - Lisek----------------
#NOTES:
     dance-single:
     Lisek:
     Hard:
     8:
     0.525,0.563,0.195,0.381,0.200: // measure 1
0000
0000
0000
0000
,  // measure 2
1000
2000
3010
0020
,  // measure 3
0130
0200
0301
0002
,  // measure 4
2003
0000
0000
3002
0000
0000
0203
0000
0000
0000
0000
0000
0000
0000
0000
0000
,  // measure 5
0320
0000
0000
2030
0000
0000
3200
0000
0000
0000
0000
0000
0000
0000
0000
0000
,  // measure 6
1300
0000
0000
0100
1000
0000
0010
0000
0100
0000
0000
0001
0010
0000
0001
0000
,  // measure 7
0100
0010
0000
0010
0100
0001
0010
0100
,  // measure 8
1000
0000
0000
0010
0100
0000
0010
0000
1000
0000
0000
0001
0100
0000
0010
0000
,  // measure 9
1100
1001
0101
1001
,  // measure 10
1000
0100
0001
0100
1000
0100
0001
0100
,  // measure 11
0010
0001
1000
0100
0000
1000
0001
0010
,  // measure 12
0002
0000
0103
1000
0100
0001
0100
1000
,  // measure 13
0100
0001
0010
0100
0000
0010
0001
1000
,  // measure 14
1100
0000
0000
1000
0000
0000
0010
0000
0200
0000
0000
0000
0310
0000
0000
0000
,  // measure 15
0101
0000
0000
0001
0000
0000
0100
0000
0020
0000
0000
0000
0130
0000
0010
0000
,  // measure 16
2000
0000
0000
3020
0000
0000
0230
0000
0000
0000
0000
0000
0000
0000
0000
0000
,  // measure 17
0302
0000
0000
0023
0000
0000
0230
0000
0000
0000
0000
0000
0000
0000
0000
0000
,  // measure 18
1300
0000
0000
0010
0100
0000
0001
0000
0010
0000
0000
0001
0100
0000
0010
0000
,  // measure 19
1000
0000
0000
0100
0010
0000
0001
0000
1000
0000
0001
0000
0100
0000
0010
0000
,  // measure 20
1000
0000
0000
0100
0010
0000
0100
0000
1000
0000
0000
0001
0010
0000
0001
0000
,  // measure 21
0100
0000
0000
0010
0100
0000
0001
0000
0000
0000
1000
0000
0100
0000
1000
0000
,  // measure 22
1001
0000
0000
1000
0000
0000
0010
0000
0200
0000
0000
0000
0301
0000
0010
0000
,  // measure 23
0011
0000
0000
0001
0000
0000
0100
0000
0020
0000
1000
0000
1030
0000
0100
0000
,  // measure 24
0020
0000
0000
0032
0000
0000
0203
0000
0000
0000
0000
0000
0000
0000
0000
0000
,  // measure 25
0320
0000
0000
2030
0000
0000
3002
0000
0000
0000
0000
0000
0000
0000
0000
0000
,  // measure 26
0103
0100
0100
0100
0100
0100
0100
0100
,  // measure 27
0010
0000
1000
0001
0000
0100
0010
0000
,  // measure 28
0010
0010
0010
0010
0010
0010
0010
0010
,  // measure 29
0100
0000
0001
0100
0000
0010
1000
0100
,  // measure 30
1000
0001
0010
0001
0000
0100
0010
1000
,  // measure 31
0100
1000
0001
0010
0000
0001
0100
0010
,  // measure 32
1000
1000
1000
1000
1000
1000
1000
1000
,  // measure 33
0002
0000
0000
0203
0000
0000
0310
0000
0000
0000
0000
0000
0000
0000
0000
0000
,  // measure 34
1000
0000
0000
0100
0010
0000
0001
0000
0100
0000
0000
0010
1000
0000
0100
0000
,  // measure 35
1000
0001
0000
0001
0010
0100
1000
0010
,  // measure 36
0200
0000
0000
0302
0000
0000
2003
0000
0000
0000
0000
0000
0000
0000
0000
0000
,  // measure 37
3001
0000
0100
0000
0010
0000
1000
0000
0001
0010
0100
1000
0001
0010
0100
1000
,  // measure 38
0001
0100
0001
0010
1000
0010
0001
0100
,  // measure 39
0101
0000
0000
0110
0000
0000
1010
0000
0000
0000
0010
0000
1000
0000
0010
0000
,  // measure 40
1000
0100
1000
0010
0001
0010
1000
0000
,  // measure 41
1010
0000
0000
1001
0000
0000
0101
0000
0000
0000
0100
0000
0001
0000
0100
0000
,  // measure 42
0001
0010
0001
0100
1000
0100
0001
0000
,  // measure 43
0101
0000
0000
0110
0000
0000
1001
0000
0000
0000
0001
0000
1000
0000
0001
0000
,  // measure 44
1000
0010
1000
0100
0001
0100
1000
0000
,  // measure 45
1100
0000
0000
0110
0000
0000
1001
0000
0000
0000
0000
0000
0000
0000
0000
0000
,  // measure 46
1000
1000
1000
1000
1000
1000
1000
1000
,  // measure 47
0001
0000
0000
0100
0010
0000
0000
1000
0100
0000
0000
0010
0001
0000
0000
0100
,  // measure 48
0001
0001
0001
0001
0001
0001
0001
0001
,  // measure 49
1000
0000
0000
0010
0100
0000
0000
0001
0010
0000
0000
0100
1000
0000
0000
0001
,  // measure 50
0100
0010
1000
0100
0000
0010
0001
0010
,  // measure 51
0100
1000
0010
0100
0000
0010
1000
0001
,  // measure 52
0100
0100
0100
0100
0100
0100
0100
0100
,  // measure 53
0020
0000
0000
2030
0000
0000
3002
0000
0000
0000
0000
0000
0000
0000
0000
0000
,  // measure 54
2003
0000
0000
3020
0000
0000
0230
0000
0000
0000
0000
0000
0000
0000
0000
0000
,  // measure 55
0302
0000
0000
0023
0000
0000
0230
0000
0000
0000
0000
0000
0000
0000
0300
0000
,  // measure 56
1001
0000
0000
0000
;

//---------------dance-single - Lisek----------------
#NOTES:
     dance-single:
     Lisek:
     Medium:
     6:
     0.328,0.358,0.065,0.102,0.074:
0000
0000
0000
0000
,
1000
0000
0001
0000
,
0100
0000
0010
0000
,
2000
0000
0000
0000
,
3002
0000
0000
0000
,
1003
0010
0100
0010
,
1010
0000
1000
0001
,
1000
0001
0100
0010
,
0110
1001
0110
1001
,
1000
0010
1000
0100
,
1000
0010
0100
0010
0000
0000
1000
0000
,
0100
0010
0001
1000
,
0001
0100
0010
0100
0000
0000
0001
0000
,
0011
0001
2000
3000
,
1010
1000
0002
0003
,
1000
0000
0000
0001
0000
0000
2000
0000
0000
0000
0000
0000
0000
0000
0000
0000
,
3001
0000
0000
1000
0000
0000
0002
0000
0000
0000
0000
0000
0000
0000
0000
0000
,
1003
0010
0100
0010
,
1000
0000
0000
0100
0010
0000
0001
0000
0000
0000
0000
0000
0001
0000
0000
0000
,
0100
0001
0010
0001
,
0100
0000
0000
0010
1000
0000
0100
0000
0000
0000
0000
0000
1000
0000
0000
0000
,
0010
0000
0000
1000
0000
0000
0100
0000
1000
0000
0000
0000
0010
0000
0000
0000
,
0100
0000
0000
0001
0000
0000
0010
0000
0001
0000
0000
0000
1000
0000
0000
0000
,
0001
0000
0000
1000
0000
0000
0002
0000
0000
0000
0000
0000
0000
0000
0000
0000
,
1003
0000
0000
0001
0000
0000
2000
0000
0000
0000
0000
0000
0000
0000
0000
0000
,
3001
1000
0001
1000
0001
1000
0001
1000
,
0001
0100
0010
1000
,
0010
0100
0010
0100
0010
0100
0010
0100
,
0010
1000
0001
0100
,
0001
0010
0100
0010
0000
0000
0100
0000
,
1000
0100
0010
0100
0000
0000
1000
0000
,
0001
1000
0001
1000
0001
1000
0001
1000
,
0001
0000
0000
1000
0000
0000
0001
0000
0000
0000
0000
0000
0000
0000
0000
0000
,
1000
0100
1000
0010
,
0100
0001
0000
0000
0010
0000
0100
0000
,
1000
0001
0100
0010
,
1000
0000
0000
0001
0000
0000
2000
0000
0000
0000
0000
0000
0000
0000
0000
0000
,
3001
0010
0001
0100
,
0001
0000
0000
0100
0000
0000
0010
0000
0000
0000
0000
0000
1000
0000
0000
0000
,
0010
1000
0010
0100
,
0010
0000
0000
1000
0000
0000
0001
0000
0000
0000
0000
0000
1000
0000
0000
0000
,
0100
1000
0001
0100
,
0001
0000
0000
0010
0000
0000
0001
0000
0000
0000
0000
0000
0100
0000
0000
0000
,
0010
1000
0100
1000
,
0010
0000
0000
0100
0000
0000
0010
0000
0000
0000
0000
0000
0000
0000
0000
0000
,
1000
0100
1000
0100
1000
0100
1000
0100
,
1000
0010
0100
0001
,
0010
0001
0010
0001
0010
0001
0010
0001
,
0010
0001
0100
0010
,
0100
0001
0100
0010
0000
0000
1000
0000
,
0010
0100
0010
1000
0000
0000
0001
0000
,
1000
0001
1000
0001
1000
0001
1000
0001
,
1000
0010
0100
0001
,
1000
0000
0000
0001
0000
0000
2000
0000
0000
0000
0000
0000
0000
0000
0000
0000
,
3001
0000
0000
1000
0000
0000
0002
0000
0000
0000
0000
0000
0000
0000
0000
0000
,
1003
0000
0000
0000
;

//---------------dance-single - Lisek----------------
#NOTES:
     dance-single:
     Lisek:
     Beginner:
     1:
     0.064,0.077,0.000,0.047,0.000:
0000
0000
0000
0000
,
0000
0000
0000
0000
,
0000
0000
0000
0000
,
0000
0000
0000
0000
,
0000
0000
0000
0000
,
1000
0000
0000
0000
,
0001
0000
0000
0000
,
0100
0000
0000
0000
,
0000
0000
0000
0000
,
0001
0000
0000
0000
,
1000
0000
0000
0000
,
0010
0000
0000
0000
,
1000
0000
0000
0000
,
0001
0000
0000
0000
,
0010
0000
0000
0000
,
0002
0000
0000
0000
,
0000
0000
0000
0000
,
1003
0000
0000
0000
,
0010
0000
0000
0000
,
1000
0000
0000
0000
,
0100
0000
0000
0000
,
1000
0000
0000
0000
,
0001
0000
0000
0000
,
2000
0000
0000
0000
,
0000
0000
0000
0000
,
3001
0000
0000
0000
,
1000
0000
0000
0000
,
0001
0000
0000
0000
,
1000
0000
0000
0000
,
0010
0000
0000
0000
,
1000
0000
0000
0000
,
0002
0000
0000
0000
,
0000
0000
0003
0000
,
1000
0000
0000
0000
,
0001
0000
0000
0000
,
0100
0000
0000
0000
,
0000
0000
0000
0000
,
0001
0000
0000
0000
,
0100
0000
0000
0000
,
0010
0000
0000
0000
,
1000
0000
0000
0000
,
0001
0000
0000
0000
,
1000
0000
0000
0000
,
0010
0000
0000
0000
,
0000
0000
0000
0000
,
1000
0000
0000
0000
,
0100
0000
0000
0000
,
1000
0000
0000
0000
,
0001
0000
0000
0000
,
0010
0000
0000
0000
,
0001
0000
0000
0000
,
0200
0000
0000
0000
,
0000
0000
0000
0000
,
0320
0000
0000
0000
,
0000
0000
0000
0000
,
0130
0000
0000
0000
;

//---------------dance-single - Lisek----------------
#NOTES:
     dance-single:
     Lisek:
     Easy:
     2:
     0.154,0.179,0.000,0.084,0.000:
0000
0000
0000
0000
,
1000
0000
0000
0000
,
0001
0000
0000
0000
,
0200
0000
0000
0000
,
0320
0000
0000
0000
,
1030
0000
0100
0000
,
1000
0000
0000
0000
,
0001
0000
0100
0000
,
0001
0000
1000
0000
,
0001
0000
0010
0000
,
0002
0000
0003
0000
,
0100
0000
0010
0000
,
2000
0000
3000
0000
,
0001
1000
0001
0000
,
1000
0001
1000
0000
,
0010
0000
0100
0000
,
0010
0000
0100
0000
,
0001
0000
0100
0000
,
0001
0100
0001
0000
,
1000
0000
0010
0000
,
1000
0010
1000
0000
,
0001
0000
2000
0000
,
3001
0000
0200
0000
,
0301
0000
1000
0000
,
0001
0000
1000
0000
,
0001
1000
0001
1000
,
0001
0000
0000
0000
,
1000
0001
1000
0001
,
1000
0000
0000
0000
,
0001
0000
0100
0000
,
0010
0000
1000
0000
,
0001
0000
1000
0000
,
0002
0000
0003
0000
,
1000
0000
0010
0000
,
1000
0000
0000
0000
,
0001
0000
0100
0000
,
0000
0000
0000
0000
,
0001
0000
0010
0000
,
0100
0000
0010
0000
,
0001
0000
1000
0000
,
0010
0000
1000
0000
,
0001
0000
0100
0000
,
0010
0000
0100
0000
,
0001
0000
1000
0000
,
0200
0000
0300
0000
,
1000
0001
1000
0001
,
1000
0000
0001
0000
,
1000
0001
1000
0001
,
1000
0000
0001
0000
,
0100
0000
0010
0000
,
1000
0000
0100
0000
,
1000
0000
0001
0000
,
1000
0000
0001
0000
,
0100
0000
0010
0000
,
0100
0000
0020
0000
,
1030
0000
0000
0000
;
