#TITLE:Crazy Hot;
#SUBTITLE:;
#ARTIST:Sakaue Nachi;
#TITLETRANSLIT:;
#SUBTITLETRANSLIT:;
#ARTISTTRANSLIT:;
#GENRE:;
#CREDIT:;
#BANNER:Crazy Hot.png;
#BACKGROUND:Crazy Hot-bg.png;
#LYRICSPATH:;
#CDTITLE:;
#MUSIC:Crazy Hot.mp3;
#OFFSET:0.451;
#SAMPLESTART:60.242;
#SAMPLELENGTH:11.960;
#SELECTABLE:YES;
#BPMS:0.000=162.000
;
#STOPS:
;
#BGCHANGES:;
#KEYSOUNDS:;
#ATTACKS:;

//---------------dance-single - ----------------
#NOTES:
     dance-single:
     :
     Hard:
     9:
     0.629,0.622,0.186,0.265,0.217,447.000,21.000,30.000,0.000,0.000,0.000,0.629,0.622,0.186,0.265,0.217,447.000,21.000,30.000,0.000,0.000,0.000:
0000
0000
0000
0000
,
0000
0000
0000
0000
,
0000
0000
0000
0000
,
0000
0000
0000
0000
,
0000
0000
0000
0000
,
1000
0010
1000
0000
0100
1000
0100
0000
,
0010
0001
0010
0000
0001
0100
0001
0000
,
0000
0000
2000
0000
0000
0000
3100
0000
0010
0000
0000
0001
0000
0000
0100
0000
,
0010
0000
0000
1000
0000
0000
0100
0000
0010
0000
0000
0000
1001
0000
0000
0000
,
0100
1000
0100
1000
0100
0001
0100
0000
,
1000
0010
0100
0000
0001
0010
1000
0000
,
0010
0001
0010
0001
1000
0010
0100
0000
,
1000
0100
0001
0000
0001
0100
1000
0000
,
0100
0010
1000
0100
0010
0001
1000
0000
,
0010
0100
1000
0000
0100
0010
1000
0000
,
0001
0010
0100
0010
0100
1000
0010
0100
,
0001
0000
0000
1000
0000
0000
0101
0000
2000
0000
0000
0000
3010
0000
0000
0000
,
1000
0000
0000
0100
0000
0000
0010
0000
0100
0000
0000
1000
0000
0000
0010
0000
,
0100
0000
0000
0001
0000
0000
0010
0000
0100
0000
0010
0000
1000
0000
0000
0000
,
0010
0000
0000
0001
0000
0000
1000
0000
0010
0000
0100
0000
0010
0000
0100
0000
,
0002
0000
0003
0010
0100
0000
0011
0000
,
0100
0000
0000
1000
0000
0000
1000
0000
0010
0000
0000
0100
0000
0000
0100
0000
,
0010
0001
0001
0010
0000
0100
0001
0010
,
0100
0000
0000
1000
0000
0000
0010
0000
1000
0000
0000
0100
0000
0000
0010
0000
,
0002
0000
0000
0000
0000
0000
0013
0000
0100
0000
1000
0100
1000
0000
0010
0000
,
0100
0001
0010
0001
0100
0010
1000
0100
,
1000
0010
0100
0001
0010
0100
0100
0000
,
1000
0010
0001
0010
0100
1000
0100
0001
,
0020
0000
0000
0130
1000
0000
0101
0000
,
0001
0000
0000
0010
0100
0000
1000
0000
0010
0000
0000
1000
0001
0000
0010
0000
,
0100
0100
1000
0020
0000
0130
0001
1000
,
0010
0000
0000
0001
0000
0000
0010
0000
1000
0000
0000
1000
0000
0000
0100
0000
,
0020
0000
0000
0000
0000
0000
0031
0000
1000
0000
0000
0001
1000
0000
0100
0000
,
0010
0100
0001
0100
0010
0100
2000
0000
,
0010
3100
0102
0010
,
0103
1000
0100
0010
0100
0001
0100
0010
,
0000
1000
0100
0000
0011
0000
1100
0000
,
1000
0010
0100
1000
0100
0010
1000
0002
,
0000
0013
0200
0000
0001
0000
1300
0000
,
0020
0000
0000
0230
0000
0000
1300
0000
,
0010
0000
0101
0000
1000
0001
0100
0000
,
0001
0010
0100
0000
0100
0010
1000
0000
,
0010
0001
0100
0010
1000
0100
0010
0000
,
0012
1003
2010
3100
,
0010
0001
0100
1000
0100
0001
1000
0010
,
0210
0001
1000
0310
,
0010
0100
1000
0000
0100
0001
0010
0000
,
0100
1000
0010
1000
0100
0010
0001
1000
,
0002
0000
0000
0000
0023
0000
0000
0000
0130
1000
0001
0000
1000
0000
0010
0000
,
0100
1000
0100
0000
0001
0010
0100
0000
,
1000
0010
1000
0010
0100
0001
1000
0000
,
0012
0103
2001
3010
,
0100
0001
0100
0010
0100
0001
0010
0000
,
0100
1000
1000
0000
0011
0000
1100
0000
,
0001
0100
0010
0001
0010
1000
0100
0000
,
0020
2030
3020
0032
,
2003
0000
0002
3003
,
1000
0010
1000
0000
0100
1000
0100
0000
,
0010
0001
0010
0001
0100
0001
0010
0000
,
0100
1000
1000
0100
0010
0001
0001
0100
,
0010
1000
0010
0000
0100
0000
0001
0000
0010
0001
0010
0000
0100
0000
1000
0000
,
1200
0310
0012
0103
,
0001
1000
0001
0000
0100
0000
0010
0000
1000
0000
0100
0000
1000
0000
0000
0000
,
0001
1000
0100
0000
0010
0000
0001
0000
1000
0001
0010
0000
0100
0000
1000
0000
,
0010
0000
0000
0101
0000
0000
2020
0000
0000
0000
0000
0000
3030
0000
0000
0000
,
0010
0000
1000
0000
0010
1000
0000
0001
0000
0010
0000
0100
0010
0000
0001
0000
,
1000
0100
0001
0100
1000
0010
0100
0001
,
0010
0000
0001
0000
0010
0001
0000
1000
0000
0010
0000
0100
0010
0000
1000
0000
,
0001
0000
0000
0100
0000
0000
0010
0000
1000
0001
1000
0001
0000
1000
0001
0000
,
1000
0000
0010
0000
0100
0010
0000
1000
0000
0100
0000
0010
0001
0000
1000
0000
,
0001
0010
0100
0000
1000
0000
0010
0000
1000
0010
0100
0000
0001
0000
0010
0000
,
0100
0000
0010
0000
0001
1000
0000
0010
0000
0100
0000
0010
1000
0000
0001
0000
,
0010
0000
0000
1100
0000
0000
0010
0000
0001
0000
0000
0000
1100
0000
0000
0000
,
0001
0000
0001
0000
0100
0000
0100
0000
0010
1000
0010
1000
0010
0000
0100
0000
,
0001
0000
0000
0000
;

//---------------dance-single - ----------------
#NOTES:
     dance-single:
     :
     Medium:
     7:
     0.528,0.491,0.230,0.133,0.018,377.000,26.000,15.000,0.000,0.000,0.000,0.528,0.491,0.230,0.133,0.018,377.000,26.000,15.000,0.000,0.000,0.000:
0000
0000
0000
0000
,
0000
0000
0000
0000
,
0000
0000
0000
0000
,
0000
0000
0000
0000
,
0000
0000
0000
0000
,
1100
0000
0010
0000
,
0101
0000
0010
0000
,
0000
0000
1000
0000
0000
0000
0001
0000
0010
0000
0000
0001
0000
0000
0010
0000
,
0100
0000
0000
0010
0000
0000
0100
0000
1000
0000
0000
0000
1001
0000
0000
0000
,
0001
0100
0010
0000
0100
0000
0001
0000
,
0010
0100
0010
0000
0100
1000
0100
0000
,
1000
0100
0010
0000
0001
0000
0100
0000
,
0010
0100
0010
0000
0100
0001
0100
0000
,
0010
1000
0100
0000
1000
0000
0010
0000
,
0100
0001
0100
0000
0001
1000
0001
0000
,
0010
0100
1000
0000
0001
0000
0100
0000
,
0010
0000
0000
1000
0000
0000
0001
0000
0010
0000
0000
0000
0110
0000
0000
0000
,
0100
1000
0100
0001
,
0100
0000
1000
0000
0010
0100
0010
0000
,
0100
0001
0100
0000
0010
1000
0010
0000
,
1000
0001
1000
0000
0100
0000
0110
0000
,
0010
0001
0010
1000
,
0010
0100
0010
0100
0000
0010
0001
0000
,
1000
0001
1000
0000
0001
0100
0001
0000
,
0010
1000
0010
0100
0010
0000
0100
0000
,
0001
1000
1000
0000
0001
0010
0010
0000
,
0001
0100
0100
0000
0001
0010
0100
0000
,
1000
0010
1000
0000
0100
0010
0100
0000
,
1000
0010
1000
0100
0010
0000
0100
0000
,
1000
0000
0001
0001
0100
0000
0010
0010
,
1000
0010
0010
1000
0000
0001
1000
0000
,
2100
3100
1200
1300
,
0100
0010
0001
1001
,
0001
0100
1000
0000
1000
0100
0001
0000
,
0010
0100
0220
0330
,
1000
0010
0100
0000
0100
0010
1000
0000
,
0001
0010
0100
0000
1100
0000
0011
0000
,
1000
0100
0001
0000
0001
0100
1000
0000
,
0010
0200
0302
0013
,
0200
1000
1000
1300
,
1001
0000
0000
0000
1000
0001
1000
0000
,
0010
0100
0001
0000
0100
0010
1000
0000
,
0010
0100
0001
0100
0010
1000
0010
0000
,
1000
0100
1000
0000
0001
0100
0001
0000
,
0010
0100
0010
0100
1000
0001
1000
0000
,
0001
0100
0010
0000
1000
0100
0010
0000
,
0001
0010
0100
1000
0100
0010
0001
0000
,
2010
3001
2100
3001
,
0100
0001
0010
0100
1000
0000
0001
0000
,
0010
0100
1000
0000
0100
0010
0001
0000
,
0010
0100
1000
0100
0010
0001
0010
0000
,
0100
1000
0010
0000
0100
0001
0010
0000
,
0100
1000
0010
1000
0100
1000
0010
0000
,
0100
0001
0100
0000
0001
0000
0010
0000
,
0100
1000
0100
0000
1000
0000
0001
0000
,
0012
1003
0102
1003
,
0001
0010
0001
0010
0200
0000
1300
0000
,
0001
0100
1000
0000
1000
0100
0001
0000
,
1000
0001
1000
0010
1000
0001
1000
0000
,
0001
0010
0100
0010
0001
0010
0100
0010
,
0002
0100
0010
1003
,
1000
0100
0001
0000
0001
0100
1000
0000
,
0001
1000
0001
0010
0001
1000
0001
0000
,
0100
0010
1000
0010
0100
0001
0010
0100
,
1000
0000
0000
0001
0000
0000
2000
0000
0000
0000
0000
0000
3010
0000
0000
0000
,
1010
0000
1010
0000
0001
0100
0010
0000
,
1000
0100
0010
0100
1000
0100
0010
0000
,
0011
0000
0011
0000
1000
0100
0010
0000
,
0001
0100
0010
0000
1000
0001
0100
0000
,
0110
0000
1001
0000
1000
0010
0100
0000
,
0001
0010
1000
0010
0001
0010
0100
0000
,
1010
0000
0101
0000
0100
0010
0100
0000
,
0001
0010
0100
1000
0010
0000
0110
0000
,
0210
0010
0010
0010
,
0310
0000
0000
0000
;

//---------------dance-single - ----------------
#NOTES:
     dance-single:
     :
     Easy:
     4:
     0.374,0.393,0.097,0.221,0.000,260.000,11.000,25.000,0.000,0.000,0.000,0.374,0.393,0.097,0.221,0.000,260.000,11.000,25.000,0.000,0.000,0.000:
0000
0000
0000
0000
,
0000
0000
0000
0000
,
0000
0000
0000
0000
,
0000
0000
0000
0000
,
0000
0000
0000
0000
,
1000
0001
1000
0010
,
1000
0001
0010
0001
,
1000
0010
0100
0010
,
1000
0001
0010
0110
,
0100
1000
0100
0001
,
0100
1000
0010
0100
,
0010
1000
0001
0010
,
0100
0100
0010
0010
,
0001
1000
0010
0100
,
0001
0001
1000
1000
,
0100
0010
0001
0100
,
0010
1000
0001
1001
,
1000
1000
0100
0100
,
0010
0010
0001
0100
,
1000
0100
0001
0010
,
0100
1000
0010
0110
,
0100
0100
0001
0001
,
0010
0100
0010
0001
,
1000
1000
0001
0001
,
1000
0100
0010
0001
,
0010
1000
0010
0001
,
0010
0100
1000
0010
,
0100
0010
1000
0100
,
0010
0001
0100
0101
,
1000
0010
0001
0010
,
1000
0100
1000
0010
,
0100
0001
0010
0001
,
2000
0000
0020
3030
,
1000
0001
1000
0010
,
2000
0000
0200
3300
,
0010
0001
1000
0001
,
0010
0100
1000
0001
,
0100
0100
0001
0001
,
0010
0100
0010
0001
,
2000
0000
3002
0000
,
0023
0000
0130
0110
,
0200
1300
2000
3010
,
0010
0100
0001
0100
,
0020
0130
0020
0130
,
0010
1000
0100
0010
,
0002
0010
0010
0013
,
0100
1000
0010
0100
,
0001
0010
0001
0100
,
0020
0000
2030
0000
,
3002
0013
0020
0031
,
1000
0010
1000
0100
,
0010
0010
0001
0001
,
1000
0010
1000
1010
,
1000
0010
1000
0010
,
0100
0001
0100
0001
,
0012
0103
0012
0103
,
2000
0000
3010
0010
,
2000
0000
3002
0000
,
0203
0000
0000
0300
,
0010
0010
0100
0100
,
0010
1000
0001
0010
,
0200
0000
2300
0000
,
3001
0100
0001
0010
,
0100
0100
1000
1000
,
0001
0010
1000
0010
,
0001
1000
0010
1010
,
1000
0100
0010
0001
,
0100
0010
0100
0001
,
1000
0010
0100
0110
,
0010
1000
0100
0010
,
0001
0100
1000
0100
,
0001
1000
0010
0100
,
0001
0010
0100
2000
,
0001
0001
0001
3001
,
1001
0000
0000
0000
;
