#TITLE:[Beat the Heat] - BURNIN' BLOOD;
#SUBTITLE:;
#ARTIST:Aki;
#TITLETRANSLIT:;
#SUBTITLETRANSLIT:;
#ARTISTTRANSLIT:;
#GENRE:;
#CREDIT:chen.png;
#BANNER:[Beat the Heat] - BURNIN' BLOOD.png;
#BACKGROUND:[Beat the Heat] - BURNIN' BLOOD - bg.png;
#LYRICSPATH:;
#CDTITLE:chen.png;
#MUSIC:[Beat the Heat] - BURNIN' BLOOD.ogg;
#OFFSET:-0.002;
#SAMPLESTART:71.429;
#SAMPLELENGTH:23.320;
#SELECTABLE:YES;
#BPMS:0.000=164.636;
#STOPS:;
#BGCHANGES:;
#KEYSOUNDS:;

//---------------dance-single - C. Yakumo----------------
#NOTES:
     dance-single:
     C. Yakumo:
     Challenge:
     11:
     0.925,1.000,0.588,0.383,0.537:
000M
0000
0000
000M
M000
0000
M000
0000
00M0
0M00
00M0
0000
M00M
M000
M000
M000
,
0011
0001
0000
0000
0100
0000
0101
0101
,
0001
0010
0100
1000
1100
1100
0001
0100
,
0010
0000
1010
1010
1000
0001
0010
0001
,
0101
0101
0100
0000
0010
1002
0000
0003
,
1100
1100
0100
0000
0010
0000
0011
0011
,
0001
0000
1000
0000
1010
1010
0010
0000
,
0100
0000
0101
0101
0001
1000
0100
0010
,
0100
1000
0001
0100
0000
0010
0100
0000
0000
0000
0101
0000
0011
0000
1001
0000
,
1000
0100
1000
0010
0100
0001
0010
0100
,
1000
0000
0010
0000
1000
0000
0001
0000
0100
0000
0010
0000
1000
0000
0100
1000
,
0010
1000
0100
0010
0001
0100
0001
1000
,
0001
0000
0010
0000
0100
0000
0010
0000
0001
0100
0010
0000
00M0
0000
0010
1000
,
0001
0100
0010
0100
0001
1000
0100
0010
,
1000
0010
0100
0010
0001
1000
0010
0100
,
0001
0000
0000
0000
0010
0000
0000
0000
0100
0000
0000
0000
1000
0001
1000
0001
1000
0000
0000
0000
0010
0000
0000
0000
0100
0000
0000
0000
0001
0000
1000
0000
,
0200
0000
0000
0310
0001
0000
1000
0000
0010
0100
0010
0000
1M00
0001
0M10
0000
,
0110
0000
1100
0000
1020
0000
0030
0110
,
0000
0101
0000
0021
0000
0000
0030
0200
,
0000
0000
1300
0000
0010
1000
0001
0000
0100
0000
0010
0000
0100
0000
2000
0000
,
0000
0000
3100
0000
0001
1000
0100
0000
0010
0000
1000
0000
0010
0000
0001
0000
,
0101
0000
1100
0000
1020
0000
0030
0110
,
0000
0101
0000
0012
0000
0000
0003
0020
,
0000
0000
0130
0000
1000
0001
0100
0000
0010
0000
1000
0000
0100
0000
0002
0000
,
0000
0000
0000
0000
0000
0000
0103
0000
0000
0000
0000
0000
1000
0000
0000
0010
0000
0000
0100
0000
0000
0000
0000
0000
0001
0000
0100
0000
0001
0000
0100
0000
0000
0010
0000
0000
1000
0000
0000
0100
0000
0000
0010
0000
0000
0001
0000
0000
,
20M0
0000
3010
0100
0010
1000
0001
1000
,
0001
0100
0010
1000
0100
1000
0001
0100
,
0010
1000
0100
1000
0001
0010
0100
1000
,
0001
0100
0001
1000
0100
0010
0001
0100
,
0110
0010
1000
0100
1000
0001
0010
0100
,
1000
0010
0100
0001
1000
0001
0010
0100
,
0010
0001
1000
0010
0100
0010
1000
0010
,
0100
0000
0000
0000
0000
0000
0001
0000
0000
0000
0000
0000
1000
0000
0001
0000
1000
0000
0001
0000
0000
0100
0000
0000
0010
0000
0000
1000
0000
0000
0200
0000
0000
0000
0000
0000
2300
0000
0000
0000
0000
0000
3001
0000
0000
0000
0000
0000
,
02M1
0000
0310
1000
0100
0001
0100
1000
,
0010
0001
0010
M100
0001
1000
0000
0100
,
0010
1000
0010
0001
1000
0010
0000
0100
,
0000
0001
1000
0010
0100
1000
0100
0001
,
MM11
0000
0010
0100
1000
0010
0001
0010
,
0100
0001
0010
100M
0010
0100
0000
1000
,
0010
0100
0001
1000
0100
0010
0000
0100
,
0000
0000
0000
0000
0000
0000
1000
0000
0000
0000
0000
0000
0010
0000
0000
0000
0000
0000
0100
0000
0000
0000
0000
0000
0001
0000
0010
0000
0001
0000
0010
0000
0000
0100
0000
0000
1000
0000
0000
0001
0000
0000
0100
0000
0000
0000
0000
0000
,
0120
0000
1030
0000
0001
0000
0000
0000
0101
0000
2001
0000
0M00
0000
3100
0010
,
0001
0001
1001
0000
1010
0010
0M00
1000
,
0100
0000
0100
0000
0110
0000
0000
0000
0011
0000
0201
0000
00M0
0000
0310
1000
,
0001
0000
0001
0000
0010
0100
1000
0000
0010
0000
0110
0000
0101
0000
0001
1000
,
0M01
0010
0001
1000
0100
0000
0010
0000
0100
1000
0001
0100
0010
0100
0001
1000
,
0100
0010
0001
0100
0001
0010
0100
1000
0010
0100
0001
0010
0001
0100
0010
1000
,
0100
1000
0001
0100
0010
0000
1000
0000
0010
0100
0001
1000
0001
0010
0100
1000
,
0010
0000
0000
0100
0000
0000
0010
0000
0000
1000
0000
0000
0100
0000
0000
0010
0000
0000
0100
0000
0000
1000
0000
0000
0001
0000
0010
0000
0001
0000
1000
0000
0000
0100
0000
0000
0010
0000
0000
0001
0000
0000
1000
0000
0000
0000
0000
0000
,
102M
0000
0130
0000
0001
0000
0010
0000
0001
1000
0010
0000
0100
0000
0001
0000
,
2000
0000
0000
3200
0000
0310
0100
1000
,
0001
0000
0000
0100
0000
0000
0010
0000
0000
0100
0001
1000
0100
0000
0000
0010
0000
0000
0100
0000
0000
0002
0000
0000
,
0000
0000
0000
0000
0000
0000
0103
0000
0010
0001
1000
0010
0100
0001
1000
0100
,
0010
0000
0001
0010
0100
0000
1000
0000
0010
0100
0001
0000
0010
0000
2000
0000
,
0000
0000
0000
0000
0000
0000
3020
0000
0000
0000
0000
0000
0130
0010
0100
1000
,
0001
0000
0000
0100
0000
0000
0010
0000
0000
0000
0000
0000
1000
0000
0000
0000
0000
0000
0100
0000
1000
0000
0001
0000
0100
0000
0000
0000
0000
0000
0010
0000
0000
0000
0000
0000
1000
0000
0000
0000
0000
0000
0002
0000
0000
0000
0000
0000
,
0000
0000
0000
0000
0000
0000
1003
0000
0000
0000
0000
0000
0100
0000
0000
0000
0000
0000
0010
0000
0000
0000
0000
0000
0100
0000
1000
0000
0100
0000
1000
0000
0000
0001
0000
0000
0100
0000
0000
0010
0000
0000
1000
0000
0000
0000
0000
0000
,
120M
0000
0310
0000
0001
0000
0100
0000
0010
0100
0001
0000
0100
0000
0010
0000
,
0002
0000
0000
0023
0000
0130
0001
1000
,
0001
0000
0000
0100
0000
0000
0010
0000
0000
0000
0000
0000
1000
0000
0000
0000
0000
0000
0100
0000
1000
0000
0001
0000
0100
0000
0000
0000
0000
0000
0010
0000
0000
0000
0000
0000
1000
0000
0000
0000
0000
0000
0001
0000
0000
0000
0000
0000
,
0010
0001
1000
0001
0100
0001
0010
0100
1000
0001
1000
0010
0100
0001
0010
0100
,
0010
0000
0001
1000
0100
0000
0010
0000
0100
1000
0001
0000
0100
0000
2000
0000
,
0000
0000
0000
0000
0000
0000
3200
0000
0000
0000
0000
0000
0310
1000
0100
0010
,
0001
0000
0000
1000
0000
0000
0010
0000
0000
0000
0000
0000
0100
0000
0000
0000
0000
0000
0010
0000
1000
0000
0001
0000
0010
0000
0000
0000
0000
0000
0100
0000
0000
0000
0000
0000
1000
0000
0000
0001
0000
0000
2001
0000
0000
0000
0000
0000
,
0000
0000
0000
0000
0000
0000
3100
0000
0000
0000
0000
0000
1000
0000
0010
0000
1000
0000
0001
0000
0000
0000
0000
0000
0100
0000
0000
0001
0000
0000
0010
0000
0000
0000
0000
0000
0210
0000
0000
0000
0000
0000
0000
0000
0000
0300
0000
0000
,
1100
0000
1001
0000
0012
0000
0003
0101
,
0000
0000
0110
0000
0000
0000
2010
0000
0000
0000
0000
3000
0000
0000
0200
0000
,
0000
0000
0310
0000
0001
1000
0010
0000
0100
0000
0001
0000
0010
0000
2000
0000
,
0000
0000
3010
0000
0001
0100
0010
0000
0100
0000
1000
0000
0100
0000
0001
0000
,
1001
0000
1100
0000
0012
0000
0003
0101
,
0000
1010
0000
2100
0000
0000
3000
0002
,
0000
0000
0013
0000
0100
1000
0010
0000
1000
0000
0001
0000
0010
0000
2000
0000
,
0000
0000
0000
0000
0000
0000
3010
0000
0000
0000
0000
0000
0001
0000
0000
0100
0000
0000
0010
0000
0000
0000
0000
0000
1000
0000
0001
0000
1000
0000
0001
0000
0000
0010
0000
0000
0100
0000
0000
1000
0000
0000
0001
0000
0000
0000
0000
0000
,
0202
0000
0303
0000
;

//---------------dance-single - C. Yakumo----------------
#NOTES:
     dance-single:
     C. Yakumo:
     Beginner:
     1:
     0.119,0.170,0.019,0.000,0.000:
0000
0000
0000
0000
,
0000
0000
0000
0000
,
0000
0000
0000
0000
,
0000
0000
0000
0000
,
0000
0000
0000
0000
,
0001
0000
0000
1000
,
0000
0000
0001
0000
,
0000
1000
0000
0000
,
0001
0000
0000
0000
,
0010
0000
0000
0000
,
0100
0000
0000
0000
,
1000
0000
0000
0000
,
0001
0000
0000
0000
,
0100
0000
0000
0000
,
0010
0000
0000
0000
,
1000
0000
0000
0000
,
0100
0000
0100
0000
,
0010
0010
0010
0000
,
0001
0001
0001
0000
,
1000
0000
0010
0000
,
1000
0000
0100
0000
,
0010
0010
0010
0000
,
0100
0100
0100
0000
,
1000
0000
0001
0000
,
0100
0000
0001
0000
,
1000
0000
0000
0000
,
0100
0000
0000
0000
,
0010
0000
0000
0000
,
0001
0000
0000
0000
,
1000
0000
0000
0000
,
0001
0000
0000
0000
,
0100
0000
0000
0000
,
0010
0000
0000
0000
,
1000
0000
0000
0000
,
0001
0000
0000
0000
,
0010
0000
0000
0000
,
0100
0000
0000
0000
,
0010
0000
0000
0000
,
0001
0000
0000
0000
,
1000
0000
0000
0000
,
0010
0000
0000
0000
,
1001
0000
0000
0000
,
0000
0000
0000
0000
,
0110
0000
0000
0000
,
0000
0000
0000
0000
,
0001
0000
0000
0000
,
1000
0000
0000
0000
,
0010
0000
0000
0000
,
0100
0000
0000
0000
,
0001
0000
0001
0000
,
0010
0000
0000
0000
,
0100
0000
0000
0000
,
1000
0000
0000
0000
,
0010
0000
0000
0000
,
0100
0000
0000
0000
,
0001
0000
0000
0000
,
1000
0000
0000
0000
,
0100
0000
0100
0000
,
0010
0000
0000
0000
,
0100
0000
0000
0000
,
1000
0000
0000
0000
,
0001
0000
0000
0000
,
0100
0000
0000
0000
,
0010
0000
0000
0000
,
1000
0000
0000
0000
,
0100
0000
0000
0000
,
0010
0000
0000
0000
,
0001
0000
0000
0000
,
0100
0000
0000
0000
,
0001
0001
0001
0000
,
1000
1000
1000
0000
,
0100
0000
0000
0000
,
0010
0000
0000
0000
,
0001
0000
0000
0000
;

//---------------dance-single - C. Yakumo----------------
#NOTES:
     dance-single:
     C. Yakumo:
     Easy:
     4:
     0.257,0.341,0.028,0.103,0.000:
0000
0000
0000
0000
,
0000
0000
0000
0000
,
0000
0000
0000
0000
,
0000
0000
0000
0000
,
0000
0000
0000
0000
,
0001
0000
0000
1000
,
0000
0000
0010
0000
,
0000
0100
0000
0000
,
0010
0000
0000
1000
,
0020
0000
0000
0000
,
0230
0000
0000
0000
,
0302
0000
0000
0000
,
2003
0000
0000
0000
,
3200
0000
0000
0000
,
0320
0000
0000
0000
,
0032
0000
0000
0000
,
1003
0010
0100
0100
,
0001
0000
0010
0000
0001
0000
0000
1000
,
0000
0010
0000
1000
0000
0000
0000
0001
,
0000
0000
0000
0000
0100
0000
0000
0010
,
0000
0000
1000
0000
,
0100
0000
0010
0000
0100
0000
0000
1000
,
0000
0001
0000
1000
0000
0000
0000
0010
,
0000
0000
0000
0000
0100
0000
0000
0001
,
0000
0000
0010
0000
,
1001
1000
0010
1000
,
0100
0000
0010
0000
0000
0000
0000
0001
,
0000
0000
0100
0000
0010
0000
0000
1000
,
0000
0001
0010
0100
,
0000
0010
0001
1000
,
0010
0000
0100
0000
0000
0000
0000
0010
,
0000
0000
1000
0000
0100
0000
0000
0010
,
0000
0100
1000
0001
,
0000
0100
0001
1000
,
0100
0000
0010
0000
0000
0000
0000
0001
,
0000
0000
0010
0000
0100
0000
0000
1000
,
0000
0001
0100
0010
,
0000
0100
0001
1000
,
0001
0000
0010
0000
0000
0000
0000
0100
,
0000
0000
1000
0000
0001
0000
0000
0010
,
0000
0001
1000
0010
,
0110
0000
0100
0000
,
0001
0000
0010
0000
,
0100
0000
0010
0000
,
0001
0000
1000
0000
,
0010
0100
0010
0100
,
0001
1000
0001
1000
,
0200
0000
0000
0320
0000
0000
0230
0000
,
0000
2300
0000
0000
3001
0000
0100
0000
,
0010
0100
0001
1000
,
0000
0000
0000
0100
,
0010
0001
1000
0000
,
0010
0000
0100
0000
,
0001
1000
0001
0010
,
0100
0000
0000
0000
,
0010
0001
1000
0001
,
0100
0000
0010
0000
,
1000
0010
1000
0001
,
0010
0000
0000
0100
,
0010
0001
1000
0000
,
0010
0000
0100
0000
,
0001
0100
0001
1000
,
0100
0000
0010
0000
,
0100
1000
0001
0100
,
0010
0100
0001
0000
,
1000
0000
0001
0000
0010
0000
0000
0100
,
0000
0010
0000
0001
0000
0000
0000
1000
,
0000
0000
0010
0000
0100
0000
0000
0001
,
0000
0010
0100
0000
,
1000
0000
0001
0000
0010
0000
0000
0100
,
0000
1000
0000
0010
0000
0000
0000
0100
,
0000
0000
0001
0000
0010
0000
0000
0100
,
0000
1000
0001
0100
,
1001
0000
0000
0000
;

//---------------dance-single - C. Yakumo----------------
#NOTES:
     dance-single:
     C. Yakumo:
     Medium:
     6:
     0.463,0.511,0.252,0.243,0.000:
0000
0000
0000
0000
,
0000
0000
0000
0000
,
0000
0000
0000
0000
,
0000
0000
0000
0000
,
0000
0000
0000
0000
,
1001
0000
0000
0000
0000
0000
0001
0010
,
0000
0000
0000
0000
0010
0001
0000
0000
,
0000
0000
0001
1000
0000
0000
0000
0000
,
1000
0010
0000
0000
0000
0010
0100
0010
,
1000
0100
0010
0001
,
0100
0010
1000
0001
,
0010
0001
1000
0100
,
0010
0001
1000
0010
,
0100
0010
1000
0001
,
1000
0100
0010
0001
,
0100
0010
1000
0001
,
0010
0010
0100
0010
,
0011
0000
0011
0000
0011
0000
0000
1010
,
0000
1010
0000
1010
0000
0000
0000
2000
,
0000
0000
3020
0000
0130
0001
0100
0020
,
0000
0000
2030
0000
3001
0010
0100
1000
,
1001
0000
1001
0000
1001
0000
0000
1100
,
0000
1100
0000
1100
0000
0000
0000
0200
,
0000
0000
0320
0000
0031
1000
0001
0200
,
0000
0000
0320
0000
1030
0001
1000
0100
,
0010
0001
0100
0010
,
1000
0001
1000
0001
0000
0000
0000
0010
,
0000
0000
0100
0000
1000
0000
0000
0001
,
0000
0000
0100
0000
0010
1000
0010
0100
,
0001
0010
0001
1000
,
0100
0010
0100
0010
0000
0000
0000
0001
,
0000
0000
0100
0000
0010
0000
0000
1000
,
0000
0000
0001
0000
0010
0001
1000
0100
,
0010
0000
0100
0000
1000
0000
0000
0001
,
0000
0000
0100
0000
0010
0000
0000
1000
,
0000
0000
0100
0000
0010
0000
0000
0001
,
0000
0100
0010
0100
,
0001
0000
1000
0000
0100
0000
0000
0010
,
0000
0000
0001
0000
1000
0000
0000
0010
,
0000
0000
0100
0000
0001
0000
0000
0010
,
0000
0001
1000
0001
,
1001
0000
1000
0000
0100
0010
0000
0010
,
0100
1000
0001
0100
,
0010
0000
1000
0000
0001
0010
0000
0010
,
0100
1000
0010
0100
,
0001
1000
0001
0000
0010
0100
0010
0000
,
0001
0100
0001
0100
0001
0100
0001
0100
,
0010
1000
0010
0000
0100
0001
0100
0000
,
0001
0010
0001
0010
0001
0010
0100
1000
,
0001
0000
0100
0000
0010
0100
0010
2000
,
0000
0000
0000
3000
0000
0000
0100
0000
,
0010
0100
1000
0001
1000
0100
0000
0020
,
0000
0000
0000
0032
0000
0000
0003
0000
,
0100
0001
0100
0001
1000
0100
0010
0200
,
0000
0000
0000
2300
0000
0000
0000
3000
,
0001
1000
0001
0010
0100
1000
0001
0100
,
0000
0001
1000
0200
0000
0000
0300
0000
,
0010
0100
0010
0100
1000
0001
0100
0020
,
0000
0000
0000
0030
0000
0000
1000
0000
,
0100
0010
0001
0010
0100
1000
0000
0020
,
0000
0000
0000
0230
0000
0000
0300
0000
,
0001
0010
0001
1000
0010
1000
0001
0020
,
0000
0000
0000
0230
0000
0000
0300
0000
,
1000
0100
1000
0001
0100
0001
1000
0010
,
0000
0100
0010
1000
0001
0000
0000
0000
,
1001
0000
1001
0000
1001
0000
0000
0011
,
0000
0011
0000
0011
0000
0000
0000
0002
,
0000
0000
2003
0000
3010
0100
0010
2000
,
0000
3100
0010
0001
1000
0010
0100
0001
,
0011
0000
0011
0000
0011
0000
0000
0101
,
0000
0101
0000
0101
0000
0000
0000
0200
,
0000
0000
0320
0000
1030
0100
0010
0002
,
0000
0000
0203
0000
0310
1000
0100
1000
,
1001
0000
0000
0000
;

//---------------dance-single - C. Yakumo----------------
#NOTES:
     dance-single:
     C. Yakumo:
     Hard:
     8:
     0.647,0.583,0.345,0.373,0.005:
0000
0000
0000
0000
,
0000
0000
0000
0000
,
0000
0000
0000
0000
,
0000
0000
0000
0000
,
0000
0000
0000
0000
,
1100
0100
0010
0000
0011
0000
0001
0001
,
1000
0000
0010
0000
0100
0100
0001
0000
,
0010
0000
0100
0100
1000
0001
1000
0000
,
0010
0010
0100
0001
0000
0010
0100
1000
,
0001
0100
0010
1000
0001
0010
0100
0010
,
0001
0100
0010
1000
0100
0010
0100
1000
,
0001
1000
0100
0010
0001
0100
0010
1000
,
0010
0100
0001
0100
0001
1000
0000
1000
,
0001
0100
0010
1000
0001
0010
0100
1000
,
0100
0010
0001
1000
0100
1000
0010
0100
,
0001
0010
0100
0010
0001
1000
0001
0100
,
0010
1000
0100
0100
0010
0001
0100
0100
,
0110
0000
0101
0000
0012
0000
0003
1001
,
0000
1100
0000
0120
0000
0000
0030
0002
,
0000
1003
0010
1000
0100
0010
0100
0002
,
0000
0103
0010
0100
1000
0001
0100
0010
,
1010
0000
1001
0000
2100
0000
3000
1001
,
0000
0011
0000
0201
0000
0000
0300
0020
,
0000
1030
0001
1000
0010
0100
0010
0002
,
0000
0013
1000
0001
0010
0100
1000
0001
,
0101
0000
0100
0010
0100
0001
1000
0100
,
0010
0001
1000
0002
0000
0000
0003
0020
,
0000
0130
1000
0001
0100
0010
0000
0200
,
0000
0301
1000
0100
0010
0001
0010
0100
,
1100
0000
1000
0001
0100
0010
0100
0001
,
1000
0001
0010
0200
0000
0300
0000
0020
,
0000
0031
1000
0001
0100
0010
0000
2000
,
0000
3100
0010
0001
1000
0010
0100
0001
,
1001
0000
1000
0010
0001
0010
0000
0100
,
0000
0001
0010
0100
0010
1000
0000
0000
,
0010
0000
0001
1000
0010
0100
0000
0010
,
0000
0100
0001
0010
0100
1000
0010
0100
,
0101
0000
0001
0010
0100
0001
0000
0100
,
0000
1000
0010
0100
0010
0001
0000
0000
,
0010
0000
1000
0001
0010
1000
0000
0010
,
0000
0001
0100
0010
1000
0100
0010
0001
,
1000
0010
0100
0000
0001
0011
0000
0010
,
0110
0100
1000
0001
0100
0010
1000
0100
,
0010
0001
0000
0000
1000
1010
0000
0010
,
0100
0001
0010
0000
0001
0100
0010
1000
,
0100
0010
0001
0100
0010
1000
0001
0010
,
0100
0000
0000
0100
0000
0000
0100
0000
1000
0000
0001
0000
0100
0000
0010
0000
,
0200
0000
0000
2300
0000
0000
3002
0000
,
0000
0023
0000
0000
1030
0100
0010
0001
,
1001
1000
0010
0100
0001
0010
0100
1000
,
0002
0000
0000
0203
0000
0310
1000
0001
,
0010
0001
1000
0100
0010
1000
0000
0020
,
0000
0000
0000
0032
0000
0000
0003
0000
,
0100
0010
0100
0001
1000
0100
0010
2000
,
0000
0000
0000
3020
0000
0000
0030
0000
,
0001
1000
0001
0100
0010
1000
0100
0001
,
0000
0100
1000
0001
0010
0100
0010
0100
,
1001
0001
0010
0100
0010
0001
0100
0010
,
2000
0000
0000
3020
0000
0130
0001
1000
,
0010
0100
0001
1000
0100
0001
0000
0200
,
0000
0000
0000
0320
0000
0000
0030
0000
,
0001
0100
0010
0100
0001
1000
0010
0002
,
0000
0000
0000
0023
0000
0000
0030
0000
,
0100
0010
1000
0100
0010
0001
0010
1000
,
0000
0010
0001
1000
0010
0100
1001
0000
,
0011
0000
0101
0000
0120
0000
0030
1010
,
0000
1100
0000
0012
0000
0000
0003
2000
,
0000
3010
0100
0001
1000
0100
0010
2000
,
0000
3010
0001
0100
0010
1000
0001
0100
,
0110
0000
1010
0000
0012
0000
0003
1001
,
0000
1010
0000
0102
0000
0000
0003
0200
,
0000
0310
1000
0010
0100
0001
0010
2000
,
0000
3010
0001
0100
0010
1000
0001
0010
,
2200
0000
3300
0000
;
