#VERSION:0.81;
#TITLE:1 2 3 4 FIRE;
#SUBTITLE:;
#ARTIST:Fastway;
#TITLETRANSLIT:;
#SUBTITLETRANSLIT:;
#ARTISTTRANSLIT:;
#GENRE:;
#ORIGIN:;
#CREDIT:;
#BANNER:[Beat the Heat] - 1 2 3 4 FIRE-bn.png;
#BACKGROUND:[Beat the Heat] - 1 2 3 4 FIRE-bg.png;
#PREVIEWVID:;
#JACKET:[Beat the Heat] - 1 2 3 4 FIRE-jacket.png;
#CDIMAGE:;
#DISCIMAGE:;
#LYRICSPATH:;
#CDTITLE:cdtitle.png;
#MUSIC:[Beat the Heat] - 1 2 3 4 FIRE.ogg;
#OFFSET:-0.164;
#SAMPLESTART:38.621;
#SAMPLELENGTH:13.000;
#SELECTABLE:YES;
#BPMS:0.000=156.008;
#STOPS:;
#DELAYS:;
#WARPS:;
#TIMESIGNATURES:0.000=4=4;
#TICKCOUNTS:0.000=4;
#COMBOS:0.000=1;
#SPEEDS:0.000=1.000=0.000=0;
#SCROLLS:0.000=1.000;
#FAKES:;
#LABELS:0.000=Song Start;
#BGCHANGES:;
#KEYSOUNDS:;
#ATTACKS:
;

//---------------dance-single - ----------------
#NOTEDATA:;
#CHARTNAME:;
#STEPSTYPE:dance-single;
#DESCRIPTION:;
#CHARTSTYLE:;
#DIFFICULTY:Hard;
#METER:9;
#RADARVALUES:0.777,0.862,0.192,0.754,0.415,352.000,15.000,59.000,10.000,0.000,0.000,0.000,0.000,0.777,0.862,0.192,0.754,0.415,352.000,15.000,59.000,10.000,0.000,0.000,0.000,0.000;
#CREDIT:;
#NOTES:
// measure 0
0000
0000
0000
0000
,  // measure 1
0010
0000
1000
0100
0000
0100
0010
0000
0001
0000
1000
0010
0100
0001
1000
0001
,  // measure 2
0010
0000
0010
0001
0000
0001
0100
0000
0010
0000
2000
0000
0000
0000
0000
0000
,  // measure 3
3001
0000
1000
0100
0000
0100
0010
0000
0001
0000
1000
0010
0100
0001
1000
0001
,  // measure 4
1000
0100
0010
0100
0010
0000
0001
0100
0010
0100
0020
0000
0230
0000
0302
0000
,  // measure 5
1003
0000
0100
1000
0000
1000
0001
0000
0100
0000
0010
1000
0001
0010
0100
0010
,  // measure 6
0001
0000
0001
0100
0000
0100
0010
0000
1000
0000
0200
0000
0000
0000
0000
0000
,  // measure 7
0310
0000
0001
1000
0000
1000
0010
0000
0100
0000
0010
1000
0001
1000
0100
0010
,  // measure 8
0100
1000
0001
1000
0001
0000
0100
0001
2000
0000
3200
0000
0320
0000
0000
0000
,  // measure 9
0031
0100
0001
0010
1000
0010
0100
2000
,  // measure 10
0000
3001
0100
1000
0100
0001
0010
0200
,  // measure 11
0000
0310
0001
1000
0010
0001
0010
1000
,  // measure 12
0000
1010
0000
0101
0000
0021
0032
0023
,  // measure 13
0130
1000
0010
0001
0010
1000
0001
0020
,  // measure 14
0000
0000
0031
0100
0010
1000
0100
0000
,  // measure 15
2000
0000
3001
0200
0000
0000
0300
0000
,  // measure 16
0002
0000
1003
0200
0000
0000
0300
0000
,  // measure 17
1000
0010
1000
0001
0100
0001
0010
0200
,  // measure 18
0000
1300
0010
0200
0000
0301
1000
0001
,  // measure 19
0010
0000
0001
0000
1000
1010
0000
0000
,  // measure 20
0110
0000
0101
0000
1001
0002
2003
3020
,  // measure 21
0130
0001
0010
1000
0010
0001
1000
0020
,  // measure 22
0000
0130
0001
0020
0000
0130
2000
0000
,  // measure 23
3002
0000
0103
0010
2000
0000
0000
0000
,  // measure 24
300M
00MM
0MMM
MMMM
,  // measure 25
0001
0200
0000
0000
1300
0200
0000
0000
,  // measure 26
0301
0010
0100
0010
0000
0002
2003
3020
,  // measure 27
1030
0100
0001
0100
1000
0001
0100
0020
,  // measure 28
0000
0130
0010
1000
0001
0010
0100
0000
,  // measure 29
1000
0020
0000
0000
0031
0020
0000
0000
,  // measure 30
1030
0000
0000
0100
0000
0000
1000
0000
0010
0000
0200
0000
0302
0000
2003
0000
,  // measure 31
3001
0010
1000
0010
0001
0100
0010
1010
,  // measure 32
0000
1100
0011
0101
,  // measure 33
0010
2000
0000
0000
3001
0200
0000
0000
,  // measure 34
0301
0010
0100
0010
0000
0002
0203
0320
,  // measure 35
1030
0100
0001
0100
1000
0010
0100
0020
,  // measure 36
0000
0130
0010
1000
0100
0010
0100
0000
,  // measure 37
1000
0020
0000
0000
0130
0002
0000
0000
,  // measure 38
1003
0000
0000
0100
0000
0000
0010
0000
0100
0000
2000
0000
3020
0000
0230
0000
,  // measure 39
0301
1000
0100
0001
0100
1000
0010
0110
,  // measure 40
0000
1010
1100
0011
,  // measure 41
0001
0000
1000
0010
0000
0010
0100
0000
0010
0000
1000
0100
1000
0010
0100
0001
,  // measure 42
1000
0000
0001
0010
0000
0010
0100
0000
1000
0000
0020
0000
0000
0000
0000
0000
,  // measure 43
1030
0000
0001
0100
0000
0100
0010
0000
1000
0000
0001
0010
0100
0010
0001
1000
,  // measure 44
0010
0100
0010
0100
0001
0000
0010
0100
0010
0100
2000
0000
3020
0000
0230
0000
,  // measure 45
0301
0000
1000
0100
0000
0100
0010
0000
0100
0000
1000
0010
1000
0001
0100
0010
,  // measure 46
0100
0000
0001
1000
0000
1000
0100
0000
0010
0000
0002
0000
0000
0000
0000
0000
,  // measure 47
1003
0000
0010
0100
0000
0100
0001
0000
1000
0000
0001
0010
0001
0100
0010
1000
,  // measure 48
0001
0010
0001
0010
0100
0000
1000
0010
1000
0010
0200
0000
0302
0000
2003
0000
,  // measure 49
0002
0000
0000
0000
,  // measure 50
3003
0000
0000
0000
;

//---------------dance-single - ----------------
#NOTEDATA:;
#CHARTNAME:;
#STEPSTYPE:dance-single;
#DESCRIPTION:;
#CHARTSTYLE:;
#DIFFICULTY:Medium;
#METER:7;
#RADARVALUES:0.511,0.479,0.102,0.307,0.000,248.000,8.000,24.000,0.000,0.000,0.000,0.000,0.000,0.511,0.479,0.102,0.307,0.000,248.000,8.000,24.000,0.000,0.000,0.000,0.000,0.000;
#CREDIT:;
#NOTES:
0000
0000
0000
0000
,
0001
0000
1000
0100
0010
0000
0001
0000
,
1000
0000
0010
0100
0001
2000
0000
0000
,
3001
0000
0010
0100
1000
0000
0010
0100
,
0001
1000
0001
1000
0100
0010
0100
1000
,
0010
0000
0100
0001
1000
0000
0001
0000
,
0010
0000
0100
1000
0010
0200
0000
0000
,
0310
0000
0100
0010
1000
0000
0001
0010
,
0001
0100
0001
1000
0100
1000
0010
0000
,
1000
0000
0100
0000
1000
0001
0100
0000
,
0001
0000
0010
0000
0100
1000
0001
0000
,
1000
0000
0010
0000
1000
0100
0010
0001
,
0000
1000
0000
1001
0000
0001
0100
0001
,
0010
0000
0100
0000
1000
0001
1000
0020
,
0000
0000
0130
0001
0010
0100
0010
0000
,
0001
0000
0000
0202
0000
0000
0303
0000
,
1000
0000
0000
2020
0000
0000
3030
0000
,
1000
0100
1000
0010
0100
0000
0001
2000
,
0000
0000
3001
0200
0000
0301
0010
0000
,
0100
1100
1010
0000
,
0101
0000
1010
0000
1001
0000
1000
0100
,
1000
0000
0001
0000
0100
0010
1000
0002
,
0000
0000
1003
0200
0000
0000
1300
0000
,
0002
0000
0103
0010
2000
0000
0000
0000
,
3001
0010
0100
1000
,
0001
0200
0000
0000
0301
2000
0000
0000
,
3001
0010
0100
0010
0000
0100
1000
0001
,
1000
0000
0010
0000
0100
0001
1000
0000
,
0001
0000
0010
0000
0100
1000
0001
0000
,
1000
0020
0000
0000
1030
0002
0000
0000
,
1003
0000
0100
0000
0010
0001
1000
0001
,
1000
0000
0010
0000
0100
0001
1000
0001
,
0000
0010
0100
1000
,
0001
0020
0000
0000
0130
0020
0000
0000
,
0130
1000
0001
1000
0000
0010
0100
0001
,
1000
0000
0100
0000
0010
0100
1000
0000
,
0001
0000
0100
0000
0010
0100
0001
0000
,
1000
0200
0000
0000
0310
0200
0000
0000
,
1300
0000
0001
0000
1000
0010
0100
0010
,
0100
0000
0001
0000
1000
0100
0010
0001
,
0000
0100
0010
1000
,
0001
0000
0010
0100
1000
0000
0010
0000
,
0100
0000
0001
1000
0100
2000
0000
0000
,
3010
0000
0100
0001
1000
0000
0001
0010
,
0001
0100
0001
1000
0100
0010
0100
1000
,
0001
0000
1000
0010
0100
0000
0010
0000
,
1000
0000
0100
0010
0001
0020
0000
0000
,
0130
0000
1000
0010
0100
0000
0001
1000
,
0001
0010
0001
1000
0010
1000
0100
0010
,
0002
0000
0000
0000
,
0003
0000
0000
0000
;

//---------------dance-single - ----------------
#NOTEDATA:;
#CHARTNAME:;
#STEPSTYPE:dance-single;
#DESCRIPTION:;
#CHARTSTYLE:;
#DIFFICULTY:Easy;
#METER:4;
#RADARVALUES:0.303,0.255,0.141,0.013,0.000,154.000,11.000,1.000,0.000,0.000,0.000,0.000,0.000,0.303,0.255,0.141,0.013,0.000,154.000,11.000,1.000,0.000,0.000,0.000,0.000,0.000;
#CREDIT:;
#NOTES:
0000
0000
0000
0000
,
0001
0100
0001
0100
,
0010
1000
0001
0000
,
1000
0100
1000
0100
,
0010
0010
0001
1000
,
0001
0100
0001
0100
,
0010
1000
0100
0000
,
1000
0010
1000
0010
,
0100
0001
1000
0000
,
0001
0100
0001
0000
,
1000
0001
1000
0000
,
0001
0010
0001
0010
,
0100
0000
0100
0000
,
1000
0010
1000
0000
,
0010
0000
0010
0000
,
0100
0000
0101
0000
,
0010
0000
1010
0000
,
1000
0100
1000
0000
,
0001
0000
0001
0000
,
1000
0010
0100
0000
,
0001
0010
0100
0000
,
1000
0001
1000
0000
,
0010
0000
0110
0000
,
0100
0001
1000
0000
,
0001
0010
0100
1000
,
1001
0000
1001
0000
,
0001
1000
0000
1000
,
0010
0100
0010
0100
,
0001
1000
0001
0010
,
0110
0000
0110
0000
,
0100
1000
0001
0000
,
1000
0010
1000
0000
,
0001
0100
0010
1000
,
1001
0000
1001
0000
,
0001
0010
0000
0010
,
0100
1000
0100
1000
,
0001
1000
0001
0100
,
0110
0000
0110
0000
,
0010
1000
0001
0000
,
1000
0100
1000
0000
,
0001
0100
0010
1000
,
0001
0010
0001
0010
,
0100
1000
0001
0000
,
1000
0010
1000
0010
,
0100
0001
1000
0001
,
1000
0100
1000
0100
,
0010
0001
1000
0000
,
0001
0100
0001
0100
,
0010
1000
0001
1000
,
0002
0000
0000
0000
,
0003
0000
0000
0000
;
