#TITLE:Red Hot;
#SUBTITLE:;
#ARTIST:Dr. Yonda;
#TITLETRANSLIT:;
#SUBTITLETRANSLIT:;
#ARTISTTRANSLIT:;
#CREDIT:;
#BANNER:[Beat The Heat] - Red Hot.png;
#BACKGROUND:[Beat The Heat] - Red Hot-bg.png;
#LYRICSPATH:;
#CDTITLE:NVLM-cdtitle.png;
#MUSIC:[Beat The Heat] - Red Hot.mp3;
#OFFSET:-0.284;
#SAMPLESTART:9.927;
#SAMPLELENGTH:11.999;
#SELECTABLE:YES;
#DISPLAYBPM:*;
#BPMS:0.000=100.050,16.000=200.100,108.000=800.400,114.000=200.100;
#STOPS:108.000=0.390
,109.000=0.390
;
#BGCHANGES:;

//---------------dance-single - ----------------
#NOTES:
     dance-single:
     :
     Hard:
     9:
     0.568,0.737,0.406,0.158,0.079: // measure 1
0000
0000
0000
0000
,  // measure 2
0000
0000
0000
0000
,  // measure 3
1000
0010
1000
0010
0000
0010
0000
0100
0000
0010
0000
0000
0000
0000
0000
0000
,  // measure 4
0001
0010
1000
0100
0000
0010
0000
0100
0000
0010
0110
0000
0000
0000
0000
0000
,  // measure 5
1000
0000
0001
0010
0100
0000
0010
0100
,  // measure 6
0000
0100
1000
0000
1001
0000
0000
0000
,  // measure 7
0100
0000
0001
0010
1000
0000
0100
0001
,  // measure 8
0000
0001
0010
0000
0110
0000
0000
0000
,  // measure 9
1010
0000
0001
0100
0001
0000
0010
1000
,  // measure 10
0000
0100
0001
0000
1010
0000
0000
0000
,  // measure 11
0010
0000
0001
1000
0010
0000
0100
0001
,  // measure 12
0000
0010
1000
0000
0101
0000
0000
0000
,  // measure 13
1010
0000
0100
0001
0100
0000
0010
0100
,  // measure 14
0000
0100
1000
0000
0101
0000
0000
0000
,  // measure 15
1000
0000
0100
1000
0001
0000
0010
1000
,  // measure 16
0000
0000
0100
0000
0001
0000
0010
0000
1000
0100
0010
0001
1000
0100
0010
0001
,  // measure 17
1001
0000
0100
1000
0100
0000
0010
0001
,  // measure 18
0000
0100
1000
0000
0101
0000
0000
0000
,  // measure 19
0010
0000
0100
1000
0010
0000
0001
0100
,  // measure 20
0000
0010
0001
0000
1010
0000
0000
0000
,  // measure 21
1001
0000
0010
0100
1000
0000
0100
0001
,  // measure 22
0000
0100
0010
0000
1010
0000
0000
0000
,  // measure 23
0100
0000
0001
0100
0010
0000
1000
0010
,  // measure 24
0000
0001
0100
0010
0001
0100
1000
0010
,  // measure 25
0220
0300
2000
0030
,  // measure 26
0002
3000
0200
0003
,  // measure 27
0020
0300
2000
0030
,  // measure 28
0002
3003
0000
0000
0000
0000
0000
0000
2020
3030
0000
0000
0000
0000
0000
0000
0220
0330
0000
0000
0000
0000
0000
0000
0000
0000
0000
0000
0000
0000
0000
0000
,  // measure 29
0000
0000
0000
0000
1001
0000
1000
0010
,  // measure 30
0001
0000
0100
0001
0000
0010
1000
0000
,  // measure 31
0101
0000
0000
0000
1000
0000
0100
0010
,  // measure 32
0100
0000
0001
1000
0000
0001
1000
0000
,  // measure 33
1010
0000
0000
0000
0001
0000
0100
0001
,  // measure 34
1000
0000
0100
0001
0000
0100
0001
0000
,  // measure 35
1010
0000
0000
0000
1000
0000
0100
0010
,  // measure 36
1000
0000
0001
0100
0000
0010
1000
0000
,  // measure 37
0101
0000
0000
0000
1001
0000
0010
1000
,  // measure 38
0010
0000
0100
0001
0000
0010
0100
0000
,  // measure 39
1010
0000
0000
0000
0010
0000
0100
1000
,  // measure 40
0001
0000
0010
0100
0000
1000
0001
0000
,  // measure 41
1010
0000
0000
0000
0010
0000
1000
0100
,  // measure 42
0010
0000
0001
0100
0000
0010
1000
0000
,  // measure 43
0101
0000
0000
0000
0100
0000
0010
1000
,  // measure 44
0010
0000
0100
0001
0000
0010
1000
0000
,  // measure 45
0011
0000
0000
0000
1001
0000
0100
0010
,  // measure 46
1000
0000
0001
0100
0000
0010
1000
0000
,  // measure 47
0101
0000
0000
0000
0100
0000
0010
1000
,  // measure 48
0010
0000
0100
1000
0000
1000
0001
0000
,  // measure 49
0101
0000
0000
0000
0010
0000
0100
0001
,  // measure 50
1000
0000
0010
0100
0000
0001
1000
0000
,  // measure 51
1010
0000
0000
0000
0001
0000
0001
0100
,  // measure 52
0010
0000
0100
1000
0000
0010
1000
0000
,  // measure 53
0011
0000
0000
0000
0100
0000
0010
1000
,  // measure 54
0001
0000
0010
0100
0000
0001
1000
0000
,  // measure 55
0011
0000
0000
0000
1000
0000
0100
1000
,  // measure 56
1000
0000
0010
0100
0000
0100
0100
0000
,  // measure 57
0101
0000
0000
0000
0001
0000
0010
0001
,  // measure 58
0100
0000
0100
1000
0000
0100
0001
0000
,  // measure 59
0110
0000
0000
0000
0010
0000
0100
0001
,  // measure 60
0100
0000
0010
1000
0000
0010
0100
0000
,  // measure 61
0011
0000
0000
0000
1000
0100
1000
0100
,  // measure 62
0000
0010
0000
0100
0000
1000
0010
0000
,  // measure 63
0000
0000
0000
0000
0010
0001
0010
0001
,  // measure 64
0000
0010
0000
0100
0000
0001
1000
0000
,  // measure 65
0000
0000
0000
0000
0010
1000
0010
1000
,  // measure 66
0000
0100
0000
0010
0000
0010
0001
0000
,  // measure 67
0000
0000
0000
0000
0100
1000
0100
1000
,  // measure 68
0000
0001
0000
0010
0000
0001
2002
0000
,  // measure 69
0000
0000
0000
3003
;

//---------------dance-single - ----------------
#NOTES:
     dance-single:
     :
     Medium:
     8:
     0.466,0.427,0.372,0.090,0.034:
0000
0000
0000
0000
,
0000
0000
0000
0000
,
0100
0000
0100
0000
0000
0010
0000
0100
0000
0010
0000
0000
0000
0000
0000
0000
,
0001
0000
0001
0000
0000
0010
0000
0100
0000
1000
0000
0000
0000
0000
0000
0000
,
1000
0000
1000
0000
0010
0000
0100
0001
,
0000
0100
0001
0000
0110
0000
0000
0000
,
1000
0000
0100
0000
0010
0000
0001
0100
,
0000
0100
0010
0000
1010
0000
0000
0000
,
0001
0000
0100
0000
0001
0000
0010
0100
,
0000
1000
0100
0000
0110
0000
0000
0000
,
1000
0000
0100
0000
0010
0000
0100
0010
,
0000
1000
0001
0000
0110
0000
0000
0000
,
0100
0000
0001
0000
0001
0000
0010
0010
,
0000
0001
0100
0000
0110
0000
0000
0000
,
0010
0000
0100
0000
1000
0000
0001
0100
,
0000
0001
1000
0000
0110
0000
0000
0000
,
0010
0000
1000
0000
0100
0000
0010
0010
,
0000
0100
1000
0000
0011
0000
0000
0000
,
0001
0000
0100
0000
0010
0000
1000
0100
,
0000
0010
0001
0000
1100
0000
0000
0000
,
0100
0000
0010
0000
1000
0000
0100
1000
,
0000
0010
0001
0000
0011
0000
0000
0000
,
0100
0000
0001
0000
0010
0000
0001
0010
,
0000
0001
0100
0000
0110
0000
0000
0000
,
2000
0000
3200
0000
,
0320
0000
0032
0000
,
0203
0000
0320
0000
,
1030
1010
0101
0000
,
0000
0000
1100
0100
,
1000
0000
0100
0010
0000
1000
0010
0000
,
1010
0000
0010
0010
,
0100
0000
0001
0010
0000
1000
0100
0000
,
0011
0000
0100
0001
,
1000
0000
0010
1000
0000
0010
0001
0000
,
0110
0000
1000
0010
,
0100
0000
0010
0100
0000
0001
0010
0000
,
1010
0000
0001
0100
,
0010
0000
1000
0010
0000
0010
0001
0000
,
0101
0000
0100
1000
,
0001
0000
0100
0001
0000
0100
1000
0000
,
0011
0000
0010
0010
,
0001
0000
0100
0010
0000
1000
0100
0000
,
0110
0000
1000
0001
,
0100
0000
0010
1000
0000
0010
0001
0000
,
1010
0000
0001
0100
,
0010
0000
0100
0001
0000
1000
0100
0000
,
0101
0000
0010
0010
,
0001
0000
1000
0010
0000
0001
1000
0000
,
0110
0000
0100
0001
,
1000
0000
0010
0100
0000
0001
0010
0000
,
1100
0000
0001
1000
,
0100
0000
0001
0010
0000
1000
0010
0000
,
0011
0000
0001
0100
,
0001
0000
1000
0100
0000
0010
1000
0000
,
0110
0000
0010
0001
,
0010
0000
0100
0010
0000
1000
0100
0000
,
1010
0000
1000
0010
,
0001
0000
0100
0001
0000
0001
0100
0000
,
0110
0000
0010
1000
,
0100
0000
0001
0010
0000
0100
0001
0000
,
0011
0000
1000
1000
,
0000
0100
0000
0010
0000
1001
0000
0000
,
0000
0000
0010
0010
,
0000
0100
0000
1000
0000
0011
0000
0000
,
0000
0000
0100
0100
,
0000
0001
0000
0100
0000
1010
0000
0000
,
0000
0000
0001
0001
,
0000
0010
0000
0100
0000
1000
2002
0000
,
0000
0000
0000
3003
;

//---------------dance-single - ----------------
#NOTES:
     dance-single:
     :
     Easy:
     6:
     0.321,0.388,0.011,0.102,0.017:
0000
0000
0000
0000
,
0000
0000
0000
0000
,
2000
0000
0000
3000
0000
0200
0000
0000
0000
0300
0000
0000
0000
0000
0000
0000
,
0002
0000
0000
0003
0000
0020
0000
0000
0000
0130
0000
0000
0000
0000
0000
0000
,
1000
0000
0100
0000
0010
0000
0000
0100
,
0000
0001
0100
0000
,
0100
0000
0001
0000
0010
0000
0000
0001
,
0000
0001
0100
0000
,
0010
0000
0001
0000
0010
0000
0000
0010
,
0000
0001
0100
0000
,
0100
0000
0001
0000
1000
0000
0000
0100
,
0000
1000
0010
0000
,
1000
0000
0010
0000
0100
0000
0000
0010
,
0000
0010
0100
0000
,
0100
0000
1000
0000
0010
0000
0000
1000
,
0000
0001
0100
0100
,
0010
0000
0100
0000
1000
0000
0000
0010
,
0000
0010
0100
0000
,
0001
0000
0010
0000
0100
0000
0000
0001
,
0000
0100
1000
0000
,
0001
0000
1000
0000
0010
0000
0000
0100
,
0000
0001
0100
0000
,
0010
0000
0100
0000
0001
0000
0000
0010
,
0000
1000
0010
0000
,
2000
0000
0000
0000
,
3200
0000
0000
0000
,
0320
0000
0000
0000
,
0031
0010
0100
0000
,
0000
0000
1000
0100
,
0010
0000
0000
1000
0000
0000
0100
0000
,
0010
0000
0010
1000
,
0001
0000
0000
0010
0000
0000
0010
0000
,
0100
0000
1000
0001
,
0010
0000
0000
0001
0000
0000
0001
0000
,
1000
0000
0001
0010
,
0100
0000
0000
0010
0000
0000
0100
0000
,
0100
0000
0010
0001
,
1000
0000
0000
0100
0000
0000
1000
0000
,
0010
0000
0100
0100
,
0001
0000
0000
0010
0000
0000
0010
0000
,
0001
0000
1000
1000
,
0010
0000
0000
0001
0000
0000
0001
0000
,
0010
0000
0010
0100
,
1000
0000
0000
0100
0000
0000
0010
0000
,
0100
0000
0001
0010
,
0001
0000
0000
1000
0000
0000
0100
0000
,
1000
0000
0010
0100
,
1000
0000
0000
0010
0000
0000
1000
0000
,
0100
0000
0100
0001
,
0010
0000
0000
0001
0000
0000
0100
0000
,
0010
0000
0010
0001
,
0100
0000
0000
0100
0000
0000
0010
0000
,
0001
0000
1000
0010
,
0100
0000
0000
0001
0000
0000
0001
0000
,
0010
0000
0001
0100
,
0010
0000
0000
0100
0000
0000
0100
0000
,
0100
0000
0010
1000
,
0100
0000
0000
0010
0000
0000
1000
0000
,
1000
0000
0100
0001
,
0010
0000
0000
0100
0000
0000
0010
0000
,
0100
0000
1000
1000
,
0000
0100
0000
0010
0000
0100
0000
0000
,
0000
0000
0010
0010
,
0000
0100
0000
0010
0000
1000
0000
0000
,
0000
0000
0001
0001
,
0000
0010
0000
0001
0000
0100
0000
0000
,
0000
0000
1000
1000
,
0000
0100
0000
0010
0000
0100
2020
0000
,
0000
0000
0000
3030
;

//---------------dance-single - ----------------
#NOTES:
     dance-single:
     :
     Beginner:
     1:
     0.074,0.194,0.011,0.023,0.011:
0000
0000
0000
0000
,
0000
0000
0000
0000
,
1000
0000
0000
0000
0000
0001
0000
0000
0000
0000
0000
0000
0000
0000
0000
0000
,
0010
0000
0000
0000
0000
0100
0000
0000
0000
0000
0000
0000
0000
0000
0000
0000
,
1000
0000
0000
0000
,
0000
0000
0000
0000
,
0010
0000
0000
0000
,
0000
0000
0000
0000
,
0100
0000
0000
0000
,
0000
0000
0000
0000
,
1000
0000
0000
0000
,
0000
0000
0000
0000
,
0001
0000
0000
0000
,
0000
0000
0000
0000
,
0010
0000
0000
0000
,
0000
0000
0000
0000
,
0100
0000
0000
0000
,
0000
0000
0000
0000
,
1000
0000
0000
0000
,
0000
0000
0000
0000
,
0001
0000
0000
0000
,
0000
0000
0000
0000
,
0010
0000
0000
0000
,
0000
0000
0000
0000
,
0100
0000
0000
0000
,
1000
0000
0000
0000
,
0010
0000
0000
0000
,
0001
0000
0000
0000
,
0000
0000
1000
0000
,
0000
0000
0000
0000
,
0000
0000
0010
0000
,
0000
0000
0000
0000
,
0000
0000
0100
0000
,
0000
0000
0000
0000
,
0000
0000
0001
0000
,
0000
0000
0000
0000
,
0000
0000
0010
0000
,
0000
0000
0000
0000
,
0000
0000
0001
0000
,
0000
0000
0000
0000
,
0000
0000
0100
0000
,
0000
0000
0000
0000
,
0000
0000
0010
0000
,
0000
0000
0000
0000
,
0000
0000
1000
0000
,
0000
0000
0000
0000
,
0000
0000
0001
0000
,
0000
0000
0000
0000
,
0000
0000
0010
0000
,
0000
0000
0000
0000
,
0000
0000
0100
0000
,
0000
0000
0000
0000
,
0000
0000
0001
0000
,
0000
0000
0000
0000
,
0000
0000
0010
0000
,
0000
0000
0000
0000
,
0000
0000
0001
0000
,
0000
0000
0000
0000
,
0000
0000
0100
0000
,
0000
0000
0000
0000
,
0000
0000
1000
0000
,
0000
0100
0000
0000
0000
0000
0000
0000
,
0000
0000
0100
0000
,
0000
0001
0000
0000
0000
0000
0000
0000
,
0000
0000
0010
0000
,
0000
0100
0000
0000
0000
0000
0000
0000
,
0000
0000
0100
0000
,
0000
1000
0000
0000
0000
0000
2002
0000
,
0000
0000
0000
3003
;
