#TITLE:the a la menthe;
#SUBTITLE:;
#ARTIST:Nikkfurie;
#TITLETRANSLIT:;
#SUBTITLETRANSLIT:;
#ARTISTTRANSLIT:;
#GENRE:SPANISH R&B;
#CREDIT:;
#BANNER:thebn.png;
#BACKGROUND:;
#LYRICSPATH:;
#CDTITLE:;
#MUSIC:The a la Menthe.mp3;
#OFFSET:-0.015;
#SAMPLESTART:48.301;
#SAMPLELENGTH:12.000;
#SELECTABLE:YES;
#BPMS:0.000=99.500;
#STOPS:;
#BGCHANGES:;
#KEYSOUNDS:;

//---------------dance-single - Blank----------------
#NOTES:
     dance-single:
     Blank:
     Hard:
     8:
     0.478,0.000,0.195,0.098,0.423: // measure 1
0000
0000
0000
0000
,  // measure 2
0000
0000
0000
0000
,  // measure 3
0000
0000
0000
0000
,  // measure 4
0000
0000
0000
0000
,  // measure 5
0001
0010
0001
0010
0000
0100
0000
1000
0001
0100
0001
0100
0000
0010
0000
0010
,  // measure 6
1000
0100
0010
0001
0100
0010
0110
0000
,  // measure 7
0010
1000
0010
1000
0000
0001
0000
0010
0100
0010
0100
0010
0000
0100
0000
0100
,  // measure 8
1000
0001
0100
0010
1000
0001
0011
0000
,  // measure 9
0010
0100
1000
0001
0100
0010
0110
0000
,  // measure 10
0010
1000
0100
0001
0100
1000
1001
0000
,  // measure 11
0001
0100
0010
1000
0001
0010
0011
0000
,  // measure 12
0010
0100
1000
0010
0100
0001
1001
0000
,  // measure 13
1000
0100
0001
1000
0010
0100
1100
0000
,  // measure 14
1000
0010
0100
0001
0010
0100
1001
0000
,  // measure 15
1000
0010
1000
0010
0001
0000
0010
0000
1000
0100
1000
0100
0001
0000
0100
0000
,  // measure 16
1000
0010
1000
0010
0100
0000
0001
0000
0010
0100
0010
0100
1000
0000
0001
0000
,  // measure 17
0020
0230
2300
3002
,  // measure 18
0203
0320
2030
3001
,  // measure 19
0000
0010
0001
0010
0000
0100
1000
0100
0000
1000
0010
1000
0000
0001
0100
0001
,  // measure 20
0000
0010
0001
0010
0000
0100
1000
0001
0000
0100
0010
1000
0001
0000
0000
0000
,  // measure 21
0010
0100
0010
0100
0000
1000
0000
0010
0100
0010
0100
0001
0000
1000
0000
1000
,  // measure 22
0001
0010
0100
1000
0010
0100
0101
0000
,  // measure 23
0001
0010
0001
0010
0000
0001
0000
1000
0100
1000
0010
0100
0000
0001
0000
0001
,  // measure 24
1000
0100
0010
0001
1000
0010
0110
0000
,  // measure 25
0100
0001
0100
0001
0000
1000
0000
0100
1000
0010
1000
0010
0000
0100
0000
0100
,  // measure 26
0001
0010
0100
1000
0010
0100
0101
0000
,  // measure 27
0001
0010
0001
0010
0000
0001
0000
0100
0010
1000
0010
1000
0000
1000
0000
0001
,  // measure 28
0010
0100
1000
0010
0100
0001
1001
0000
,  // measure 29
1000
0010
0100
0100
0001
1000
1100
0000
,  // measure 30
0100
0010
0001
0001
1000
0010
0110
0000
,  // measure 31
0100
0001
0010
0010
0001
0100
1010
0000
,  // measure 32
0010
1000
0100
0100
1000
0100
0011
0000
,  // measure 33
0001
0100
0010
0100
0001
0010
1100
0000
,  // measure 34
1000
0010
0100
0010
1000
0100
0011
0000
,  // measure 35
0001
0100
0001
0100
1000
0000
0100
0000
0001
0010
0001
0010
1000
0000
0010
0000
,  // measure 36
0001
1000
0001
1000
0010
0000
0001
0000
1000
0001
1000
0001
0010
0000
0100
0000
,  // measure 37
0002
1000
1003
0000
0200
0010
0310
0000
;

//---------------dance-single - Blank----------------
#NOTES:
     dance-single:
     Blank:
     Medium:
     5:
     0.274,0.000,0.130,0.130,0.000: // measure 1
0000
0000
0000
0000
,  // measure 2
0000
0000
0000
0000
,  // measure 3
0000
0000
0000
0000
,  // measure 4
0000
0000
0000
0000
,  // measure 5
0001
0100
0101
0000
0100
0010
0110
0000
,  // measure 6
0010
1000
0100
0010
,  // measure 7
0001
1000
1001
0000
1000
0010
1010
0000
,  // measure 8
0010
0001
0100
1000
,  // measure 9
0010
0000
0100
0000
0001
0100
0001
0000
,  // measure 10
0010
0000
0100
0000
1000
0010
1000
0000
,  // measure 11
0010
0000
0100
0000
0001
0010
0001
0000
,  // measure 12
1000
0000
0100
0000
1000
0010
1000
0000
,  // measure 13
0100
0000
0001
0000
0010
1000
0010
0000
,  // measure 14
1000
0000
0100
0000
0010
0001
0100
0000
,  // measure 15
0010
0000
0100
0000
0001
1000
0100
0000
,  // measure 16
0010
0000
0001
0000
1000
0010
0100
0000
,  // measure 17
0002
0003
0020
0030
,  // measure 18
0200
0300
2000
3000
,  // measure 19
0002
2003
3002
2003
,  // measure 20
3020
0230
0302
1003
,  // measure 21
0001
0100
0101
0000
0001
1000
1001
0000
,  // measure 22
1000
0010
0100
0001
,  // measure 23
0010
0100
0110
0000
0010
0001
0011
0000
,  // measure 24
0001
0100
0010
1000
,  // measure 25
0100
1000
1100
0000
1000
0010
1010
0000
,  // measure 26
0010
0100
0001
0010
,  // measure 27
0100
1000
1100
0000
1000
0001
1001
0000
,  // measure 28
0001
0100
0010
1000
,  // measure 29
0001
0000
0100
0000
0010
0100
0010
0000
,  // measure 30
1000
0000
0100
0000
1000
0001
1000
0000
,  // measure 31
0001
0000
0100
0000
0010
1000
0010
0000
,  // measure 32
0100
0000
0001
0000
0010
0001
0010
0000
,  // measure 33
0100
0000
1000
0000
0001
0100
1000
0000
,  // measure 34
0100
0000
0010
0000
1000
0010
0001
0000
,  // measure 35
0010
0000
0100
0000
0001
0010
1000
0000
,  // measure 36
0001
0000
0100
0000
1000
0100
0001
0000
,  // measure 37
2000
0000
3000
0000
;

//---------------dance-single - Blank----------------
#NOTES:
     dance-single:
     Blank:
     Easy:
     3:
     0.153,0.000,0.011,0.043,0.000: // measure 1
0000
0000
0000
0000
,  // measure 2
0000
0000
0000
0000
,  // measure 3
0000
0000
0000
0000
,  // measure 4
0000
0000
0000
0000
,  // measure 5
1000
0100
1000
0000
,  // measure 6
0001
0010
0100
1000
,  // measure 7
0001
0100
0001
0000
,  // measure 8
0100
0010
1000
0001
,  // measure 9
0010
0000
0100
0000
,  // measure 10
1000
0001
0100
0000
,  // measure 11
0010
0000
1000
0000
,  // measure 12
0001
0010
0100
0000
,  // measure 13
1000
0000
0001
0000
,  // measure 14
0100
0010
0100
0000
,  // measure 15
0001
0000
0010
0000
,  // measure 16
0100
1000
0100
0000
,  // measure 17
2000
3000
0002
0003
,  // measure 18
0200
0300
0020
0030
,  // measure 19
1000
1000
1000
1000
,  // measure 20
0001
0001
0001
0001
,  // measure 21
0010
0000
0001
0000
,  // measure 22
1000
0010
0100
0001
,  // measure 23
1000
0100
0010
0000
,  // measure 24
0001
0100
0010
0100
,  // measure 25
0001
1000
0100
0000
,  // measure 26
0010
0001
0100
0010
,  // measure 27
1000
0100
1000
0000
,  // measure 28
0001
0100
1000
0010
,  // measure 29
0001
0000
0100
0000
,  // measure 30
0010
1000
0010
0000
,  // measure 31
0100
0000
0001
0000
,  // measure 32
1000
0001
1000
0000
,  // measure 33
0100
0000
0010
0000
,  // measure 34
0001
0100
0001
0000
,  // measure 35
0010
0000
0100
0000
,  // measure 36
1000
0001
1000
0000
,  // measure 37
1001
0000
0000
0000
;

//---------------dance-double - Blank----------------
#NOTES:
     dance-double:
     Blank:
     Easy:
     2:
     0.142,0.000,0.011,0.043,0.000: // measure 1
00000000
00000000
00000000
00000000
,  // measure 2
00000000
00000000
00000000
00000000
,  // measure 3
00000000
00000000
00000000
00000000
,  // measure 4
00000000
00000000
00000000
00000000
,  // measure 5
00100000
00000000
10000000
00000000
,  // measure 6
01000000
00100000
00010000
01000000
,  // measure 7
00001000
00000000
00010000
00000000
,  // measure 8
00000100
00001000
00000010
00000100
,  // measure 9
00000001
00000000
00000010
00000000
,  // measure 10
00000100
00001000
00000010
00000000
,  // measure 11
00010000
00000000
00001000
00000000
,  // measure 12
00010000
00100000
01000000
00000000
,  // measure 13
00010000
00000000
00100000
00000000
,  // measure 14
01000000
10000000
00010000
00000000
,  // measure 15
00100000
00000000
00001000
00000000
,  // measure 16
01000000
00001000
00010000
00000000
,  // measure 17
00000020
00000030
00002000
00003000
,  // measure 18
00000002
00000003
00000200
00000300
,  // measure 19
00000010
00000010
00010000
00010000
,  // measure 20
00001000
00001000
01000000
01000000
,  // measure 21
00100000
00000000
10000000
00000000
,  // measure 22
01000000
10000000
00010000
00000000
,  // measure 23
01000000
00000000
00001000
00000000
,  // measure 24
00010000
00010000
00000100
00000100
,  // measure 25
00001000
00000000
00000010
00000000
,  // measure 26
00000100
00000001
00000010
00000100
,  // measure 27
00001000
00000000
00000010
00000000
,  // measure 28
00010000
00010000
00001000
00001000
,  // measure 29
00100000
00000000
00010000
00000000
,  // measure 30
01000000
00100000
01000000
00000000
,  // measure 31
00010000
00000000
10000000
00000000
,  // measure 32
01000000
00100000
00010000
00000000
,  // measure 33
01000000
00000000
00001000
00000000
,  // measure 34
00010000
00000100
00000010
00000000
,  // measure 35
00000001
00000000
00000100
00000000
,  // measure 36
00000010
00000000
00001000
00000000
,  // measure 37
00001001
00000000
00000000
00000000
;

//---------------dance-double - Blank----------------
#NOTES:
     dance-double:
     Blank:
     Medium:
     4:
     0.234,0.000,0.022,0.000,0.000: // measure 1
00000000
00000000
00000000
00000000
,  // measure 2
00000000
00000000
00000000
00000000
,  // measure 3
00000000
00000000
00000000
00000000
,  // measure 4
00000000
00000000
00000000
00000000
,  // measure 5
10000000
01000000
00100000
00000000
00100000
01000000
10000000
00000000
,  // measure 6
10000000
00010000
01000000
00100000
,  // measure 7
00010000
00001000
00010000
00000000
00010000
00000100
00001000
00000000
,  // measure 8
00001000
00000010
00000100
00000001
,  // measure 9
00000010
00000100
00001000
00000001
,  // measure 10
00000100
00000000
00000010
00000000
00001000
00000100
00000001
00000000
,  // measure 11
00000100
00001000
00000010
00010000
,  // measure 12
00001000
00000000
00100000
00000000
00010000
01000000
10000000
00000000
,  // measure 13
01000000
00010000
00100000
01000000
,  // measure 14
10000000
00000000
00100000
00000000
01000000
00001000
00010000
00000000
,  // measure 15
00000100
00001000
00000010
00000100
,  // measure 16
00000001
00000000
00000010
00000000
00000100
00001000
00000010
00000000
,  // measure 17
00000100
00000100
00000001
00000001
,  // measure 18
00010000
00010000
00000100
00000100
,  // measure 19
00001000
00000010
00010000
00001000
,  // measure 20
00100000
00010000
01000000
01100000
,  // measure 21
00100000
10000000
01000000
00000000
01000000
10000000
00100000
00000000
,  // measure 22
01000000
00010000
00100000
00001000
,  // measure 23
00010000
00000010
00001000
00000000
00001000
00000010
00010000
00000000
,  // measure 24
00001000
00000010
00000100
00001000
,  // measure 25
00000001
00000100
00000010
00000000
00000010
00000100
00000001
00000000
,  // measure 26
00001000
00000100
00010000
00000010
,  // measure 27
00010000
00001000
01000000
00000000
01000000
00001000
00010000
00000000
,  // measure 28
00001000
00100000
00010000
01000000
,  // measure 29
00100000
10000000
01000000
10000000
,  // measure 30
00010000
00000000
01000000
00000000
00100000
00010000
10000000
00000000
,  // measure 31
00010000
00100000
01000000
00001000
,  // measure 32
00010000
00000000
00000010
00000000
00001000
00000100
00000010
00000000
,  // measure 33
00000001
00000100
00001000
00000001
,  // measure 34
00000010
00000000
00010000
00000000
00001000
00100000
00010000
00000000
,  // measure 35
01000000
00100000
10000000
01000000
,  // measure 36
00100000
00000000
00010000
00000000
01000000
00001000
00010000
00000000
,  // measure 37
00011000
00000000
00000000
00000000
;

//---------------dance-double - Blank----------------
#NOTES:
     dance-double:
     Blank:
     Hard:
     8:
     0.502,0.000,0.054,0.043,0.509: // measure 1
00000000
00000000
00000000
00000000
,  // measure 2
00000000
00000000
00000000
00000000
,  // measure 3
00000000
00000000
00000000
00000000
,  // measure 4
00000000
00000000
00000000
00000000
,  // measure 5
01000000
00100000
01000000
00100000
00000000
01000000
00000000
10000000
01000000
10000000
01000000
10000000
00000000
00010000
00000000
00010000
,  // measure 6
01000000
00001000
00100000
00000100
00010000
00000010
00001000
00000001
,  // measure 7
00000010
00000001
00000010
00000001
00000000
00000010
00000000
00000100
00001000
00000010
00001000
00000010
00000000
00001000
00000000
00001000
,  // measure 8
00000100
00010000
00001000
01000000
00100000
01000000
00010000
10000000
,  // measure 9
01000000
00000000
00100000
00000000
00010000
00000000
00100000
00010000
00100000
00000000
01000000
10000000
01000000
00000000
10000000
00100000
,  // measure 10
10000000
00000000
00010000
01000000
00010000
00000000
10000000
01000000
10000000
00000000
01000000
00000000
00100000
00000000
00010000
00000000
,  // measure 11
01000000
00010000
00100000
00001000
01000000
00001000
00100000
00000100
,  // measure 12
00010000
00000010
00001000
00000001
00000010
00000100
00001000
00000001
,  // measure 13
00000100
00000000
00000010
00000000
00001000
00000000
00000100
00000010
00000100
00000000
00001000
00000001
00001000
00000000
00000001
00000100
,  // measure 14
00000001
00000000
00001000
00000010
00001000
00000000
00000100
00010000
00000100
00000000
00010000
00000000
00001000
00000000
00100000
00000000
,  // measure 15
00010000
01000000
00100000
01000000
00010000
10000000
01000000
00100000
,  // measure 16
00010000
01000000
00010000
01000000
00001000
00000000
01000000
00000000
00001000
00010000
00001000
00010000
00000100
00000000
00001000
00000000
,  // measure 17
00000020
00000130
00000002
00000013
,  // measure 18
00000200
00001300
00000020
00010030
,  // measure 19
00000000
00001000
00100000
00001000
00000000
00100000
00010000
00100000
00000000
01000000
10000000
01000000
00000000
10000000
00100000
10000000
,  // measure 20
00000000
00100000
01000000
00100000
00000000
01000000
00010000
01000000
00000000
00001000
00010000
00001000
00000000
00000000
00000000
00000000
,  // measure 21
00001000
00010000
00001000
00010000
00000000
00000100
00000000
00000100
00001000
00000010
00001000
00000001
00000000
00000001
00000000
00000010
,  // measure 22
00000100
00001000
00000010
00000100
00000001
00000010
00000110
00000100
,  // measure 23
00001000
00000010
00001000
00000010
00000000
00010000
00000000
00001000
00100000
00001000
00100000
00010000
00000000
00100000
00000000
01000000
,  // measure 24
10000000
00100000
01000000
00010000
00100000
00001000
00011000
00000010
,  // measure 25
00001000
00000100
00000010
00000001
00000000
00000100
00000000
00000010
00001000
00000001
00000010
00000100
00000000
00010000
00000000
00000010
,  // measure 26
00001000
00010000
01000000
00100000
10000000
01000000
00100000
00010000
,  // measure 27
01000000
00001000
00010000
00000100
00000000
00000010
00000000
00000001
00000100
00000010
00001000
00000100
00000000
00010000
00000000
00001000
,  // measure 28
01000000
00100000
10000000
01000000
00100000
00010000
01000000
00001000
,  // measure 29
00010000
00000000
00000100
00000000
00001000
00000000
00000010
00001000
00000010
00000000
00000100
00000001
00000100
00000000
00000001
00000010
,  // measure 30
00000001
00000000
00000010
00000100
00000010
00000000
00000100
00001000
00000100
00000000
00010000
00000000
00010010
00000000
00000010
00000000
,  // measure 31
00100000
00001000
01000000
00010000
10000000
00100000
01000000
00010000
,  // measure 32
00100000
00100000
00001000
00010000
00000010
00001000
00000001
00000010
,  // measure 33
00000100
00000000
00001000
00000000
00000010
00000000
00000100
00000001
00000100
00000000
00000001
00001000
00000100
00000000
00000100
00010000
,  // measure 34
00001000
00000000
00001000
01000000
00010000
00000000
00010000
00100000
01000000
00000000
10000000
00000000
00100000
00000000
01000000
00000000
,  // measure 35
00010000
00100000
00010000
00100000
01000000
00000000
10000000
00000000
00010000
01000000
00010000
01000000
00001000
00000000
00010000
00000000
,  // measure 36
00000010
00001000
00000010
00001000
00000001
00000000
00000010
00000000
00000100
00010000
00000100
00010000
00000010
00000000
00001000
00000000
,  // measure 37
00010000
00000100
00000110
00000000
00000010
00010000
00011000
00000000
;
